  0
SECTION
  2
HEADER
  9
$ACADVER
  1
AC1015
  9
$ACADMAINTVER
 70
     6
  9
$DWGCODEPAGE
  3
ANSI_1252
  9
$INSBASE
 10
0.0
 20
0.0
 30
0.0
  9
$EXTMIN
 10
292.511465384095
 20
-486.591601631207
 30
0.0
  9
$EXTMAX
 10
715.629675112153
 20
-247.0791510034687
 30
0.0
  9
$LIMMIN
 10
0.0
 20
0.0
  9
$LIMMAX
 10
12.0
 20
9.0
  9
$ORTHOMODE
 70
     0
  9
$REGENMODE
 70
     1
  9
$FILLMODE
 70
     1
  9
$QTEXTMODE
 70
     0
  9
$MIRRTEXT
 70
     1
  9
$LTSCALE
 40
1.0
  9
$ATTMODE
 70
     1
  9
$TEXTSIZE
 40
0.2
  9
$TRACEWID
 40
0.05
  9
$TEXTSTYLE
  7
Standard
  9
$CLAYER
  8
0
  9
$CELTYPE
  6
ByLayer
  9
$CECOLOR
 62
   256
  9
$CELTSCALE
 40
1.0
  9
$DISPSILH
 70
     0
  9
$DIMSCALE
 40
1.0
  9
$DIMASZ
 40
0.18
  9
$DIMEXO
 40
0.0625
  9
$DIMDLI
 40
0.38
  9
$DIMRND
 40
0.0
  9
$DIMDLE
 40
0.0
  9
$DIMEXE
 40
0.18
  9
$DIMTP
 40
0.0
  9
$DIMTM
 40
0.0
  9
$DIMTXT
 40
0.18
  9
$DIMCEN
 40
0.09
  9
$DIMTSZ
 40
0.0
  9
$DIMTOL
 70
     0
  9
$DIMLIM
 70
     0
  9
$DIMTIH
 70
     1
  9
$DIMTOH
 70
     1
  9
$DIMSE1
 70
     0
  9
$DIMSE2
 70
     0
  9
$DIMTAD
 70
     0
  9
$DIMZIN
 70
     0
  9
$DIMBLK
  1

  9
$DIMASO
 70
     1
  9
$DIMSHO
 70
     1
  9
$DIMPOST
  1

  9
$DIMAPOST
  1

  9
$DIMALT
 70
     0
  9
$DIMALTD
 70
     2
  9
$DIMALTF
 40
25.4
  9
$DIMLFAC
 40
1.0
  9
$DIMTOFL
 70
     0
  9
$DIMTVP
 40
0.0
  9
$DIMTIX
 70
     0
  9
$DIMSOXD
 70
     0
  9
$DIMSAH
 70
     0
  9
$DIMBLK1
  1

  9
$DIMBLK2
  1

  9
$DIMSTYLE
  2
Standard
  9
$DIMCLRD
 70
     0
  9
$DIMCLRE
 70
     0
  9
$DIMCLRT
 70
     0
  9
$DIMTFAC
 40
1.0
  9
$DIMGAP
 40
0.09
  9
$DIMJUST
 70
     0
  9
$DIMSD1
 70
     0
  9
$DIMSD2
 70
     0
  9
$DIMTOLJ
 70
     1
  9
$DIMTZIN
 70
     0
  9
$DIMALTZ
 70
     0
  9
$DIMALTTZ
 70
     0
  9
$DIMUPT
 70
     0
  9
$DIMDEC
 70
     4
  9
$DIMTDEC
 70
     4
  9
$DIMALTU
 70
     2
  9
$DIMALTTD
 70
     2
  9
$DIMTXSTY
  7
Standard
  9
$DIMAUNIT
 70
     0
  9
$DIMADEC
 70
     0
  9
$DIMALTRND
 40
0.0
  9
$DIMAZIN
 70
     0
  9
$DIMDSEP
 70
    46
  9
$DIMATFIT
 70
     3
  9
$DIMFRAC
 70
     0
  9
$DIMLDRBLK
  1

  9
$DIMLUNIT
 70
     2
  9
$DIMLWD
 70
    -2
  9
$DIMLWE
 70
    -2
  9
$DIMTMOVE
 70
     0
  9
$LUNITS
 70
     2
  9
$LUPREC
 70
     4
  9
$SKETCHINC
 40
0.1
  9
$FILLETRAD
 40
0.5
  9
$AUNITS
 70
     0
  9
$AUPREC
 70
     0
  9
$MENU
  1
.
  9
$ELEVATION
 40
0.0
  9
$PELEVATION
 40
0.0
  9
$THICKNESS
 40
0.0
  9
$LIMCHECK
 70
     0
  9
$CHAMFERA
 40
0.5
  9
$CHAMFERB
 40
0.5
  9
$CHAMFERC
 40
1.0
  9
$CHAMFERD
 40
0.0
  9
$SKPOLY
 70
     0
  9
$TDCREATE
 40
2457780.445562627
  9
$TDUCREATE
 40
2457780.403895961
  9
$TDUPDATE
 40
2457780.445562998
  9
$TDUUPDATE
 40
2457780.403896331
  9
$TDINDWG
 40
0.0000000116
  9
$TDUSRTIMER
 40
0.0000000116
  9
$USRTIMER
 70
     1
  9
$ANGBASE
 50
0.0
  9
$ANGDIR
 70
     0
  9
$PDMODE
 70
     0
  9
$PDSIZE
 40
0.0
  9
$PLINEWID
 40
0.0
  9
$SPLFRAME
 70
     0
  9
$SPLINETYPE
 70
     6
  9
$SPLINESEGS
 70
     8
  9
$HANDSEED
  5
259
  9
$SURFTAB1
 70
     6
  9
$SURFTAB2
 70
     6
  9
$SURFTYPE
 70
     6
  9
$SURFU
 70
     6
  9
$SURFV
 70
     6
  9
$UCSBASE
  2

  9
$UCSNAME
  2

  9
$UCSORG
 10
0.0
 20
0.0
 30
0.0
  9
$UCSXDIR
 10
1.0
 20
0.0
 30
0.0
  9
$UCSYDIR
 10
0.0
 20
1.0
 30
0.0
  9
$UCSORTHOREF
  2

  9
$UCSORTHOVIEW
 70
     0
  9
$UCSORGTOP
 10
0.0
 20
0.0
 30
0.0
  9
$UCSORGBOTTOM
 10
0.0
 20
0.0
 30
0.0
  9
$UCSORGLEFT
 10
0.0
 20
0.0
 30
0.0
  9
$UCSORGRIGHT
 10
0.0
 20
0.0
 30
0.0
  9
$UCSORGFRONT
 10
0.0
 20
0.0
 30
0.0
  9
$UCSORGBACK
 10
0.0
 20
0.0
 30
0.0
  9
$PUCSBASE
  2

  9
$PUCSNAME
  2

  9
$PUCSORG
 10
0.0
 20
0.0
 30
0.0
  9
$PUCSXDIR
 10
1.0
 20
0.0
 30
0.0
  9
$PUCSYDIR
 10
0.0
 20
1.0
 30
0.0
  9
$PUCSORTHOREF
  2

  9
$PUCSORTHOVIEW
 70
     0
  9
$PUCSORGTOP
 10
0.0
 20
0.0
 30
0.0
  9
$PUCSORGBOTTOM
 10
0.0
 20
0.0
 30
0.0
  9
$PUCSORGLEFT
 10
0.0
 20
0.0
 30
0.0
  9
$PUCSORGRIGHT
 10
0.0
 20
0.0
 30
0.0
  9
$PUCSORGFRONT
 10
0.0
 20
0.0
 30
0.0
  9
$PUCSORGBACK
 10
0.0
 20
0.0
 30
0.0
  9
$USERI1
 70
     0
  9
$USERI2
 70
     0
  9
$USERI3
 70
     0
  9
$USERI4
 70
     0
  9
$USERI5
 70
     0
  9
$USERR1
 40
18.1
  9
$USERR2
 40
0.0
  9
$USERR3
 40
0.0
  9
$USERR4
 40
0.0
  9
$USERR5
 40
0.0
  9
$WORLDVIEW
 70
     1
  9
$SHADEDGE
 70
     3
  9
$SHADEDIF
 70
    70
  9
$TILEMODE
 70
     1
  9
$MAXACTVP
 70
    64
  9
$PINSBASE
 10
0.0
 20
0.0
 30
0.0
  9
$PLIMCHECK
 70
     0
  9
$PEXTMIN
 10
1.00000000000000E+20
 20
1.00000000000000E+20
 30
1.00000000000000E+20
  9
$PEXTMAX
 10
-1.00000000000000E+20
 20
-1.00000000000000E+20
 30
-1.00000000000000E+20
  9
$PLIMMIN
 10
0.0
 20
0.0
  9
$PLIMMAX
 10
12.0
 20
9.0
  9
$UNITMODE
 70
     0
  9
$VISRETAIN
 70
     1
  9
$PLINEGEN
 70
     0
  9
$PSLTSCALE
 70
     1
  9
$TREEDEPTH
 70
  3020
  9
$CMLSTYLE
  2
Standard
  9
$CMLJUST
 70
     0
  9
$CMLSCALE
 40
1.0
  9
$PROXYGRAPHICS
 70
     1
  9
$MEASUREMENT
 70
     1
  9
$CELWEIGHT
370
    -1
  9
$ENDCAPS
280
     0
  9
$JOINSTYLE
280
     0
  9
$LWDISPLAY
290
     0
  9
$INSUNITS
 70
     4
  9
$HYPERLINKBASE
  1

  9
$STYLESHEET
  1

  9
$XEDIT
290
     1
  9
$CEPSNTYPE
380
     0
  9
$PSTYLEMODE
290
     1
  9
$FINGERPRINTGUID
  2
{EDFC83F8-ECC7-4CD3-878E-76C7FBD2EA3B}
  9
$VERSIONGUID
  2
{FAEB1C32-E019-11D5-929B-00C0DF256EC4}
  9
$EXTNAMES
290
     1
  9
$PSVPSCALE
 40
0.0
  9
$OLESTARTUP
290
     0
  0
ENDSEC
  0
SECTION
  2
CLASSES
  0
CLASS
  1
ACDBDICTIONARYWDFLT
  2
AcDbDictionaryWithDefault
  3
ObjectDBX Classes
 90
        0
280
     0
281
     0
  0
CLASS
  1
VISUALSTYLE
  2
AcDbVisualStyle
  3
ObjectDBX Classes
 90
     4095
280
     0
281
     0
  0
CLASS
  1
MATERIAL
  2
AcDbMaterial
  3
ObjectDBX Classes
 90
     1153
280
     0
281
     0
  0
CLASS
  1
DICTIONARYVAR
  2
AcDbDictionaryVar
  3
ObjectDBX Classes
 90
        0
280
     0
281
     0
  0
CLASS
  1
ACDBPLACEHOLDER
  2
AcDbPlaceHolder
  3
ObjectDBX Classes
 90
        0
280
     0
281
     0
  0
CLASS
  1
LAYOUT
  2
AcDbLayout
  3
ObjectDBX Classes
 90
        0
280
     0
281
     0
  0
ENDSEC
  0
SECTION
  2
TABLES
  0
TABLE
  2
VPORT
  5
8
330
0
100
AcDbSymbolTable
 70
     1
  0
VPORT
  5
29
330
8
100
AcDbSymbolTableRecord
100
AcDbViewportTableRecord
  2
*Active
 70
     0
 10
0.0
 20
0.0
 11
1.0
 21
1.0
 12
504.070570248124
 22
-366.8353763173379
 13
0.0
 23
0.0
 14
0.5
 24
0.5
 15
0.5
 25
0.5
 16
0.0
 26
0.0
 36
1.0
 17
0.0
 27
0.0
 37
0.0
 40
290.4075957576421
 41
1.60267857142857
 42
50.0
 43
0.0
 44
0.0
 50
0.0
 51
0.0
 71
     0
 72
   100
 73
     1
 74
     3
 75
     0
 76
     0
 77
     0
 78
     0
281
     0
 65
     1
110
0.0
120
0.0
130
0.0
111
1.0
121
0.0
131
0.0
112
0.0
122
1.0
132
0.0
 79
     0
146
0.0
  0
ENDTAB
  0
TABLE
  2
LTYPE
  5
5
330
0
100
AcDbSymbolTable
 70
     8
  0
LTYPE
  5
14
330
5
100
AcDbSymbolTableRecord
100
AcDbLinetypeTableRecord
  2
ByBlock
 70
     0
  3

 72
    65
 73
     0
 40
0.0
  0
LTYPE
  5
15
330
5
100
AcDbSymbolTableRecord
100
AcDbLinetypeTableRecord
  2
ByLayer
 70
     0
  3

 72
    65
 73
     0
 40
0.0
  0
LTYPE
  5
16
330
5
100
AcDbSymbolTableRecord
100
AcDbLinetypeTableRecord
  2
Continuous
 70
     0
  3
Solid line
 72
    65
 73
     0
 40
0.0
  0
LTYPE
  5
3F
330
5
100
AcDbSymbolTableRecord
100
AcDbLinetypeTableRecord
  2
DASHED
 70
     0
  3
Dashed
 72
    65
 73
     2
 40
15.0
 49
7.0
 74
     0
 49
-8.0
 74
     0
  0
LTYPE
  5
40
330
5
100
AcDbSymbolTableRecord
100
AcDbLinetypeTableRecord
  2
DOTTED
 70
     0
  3
Dotted
 72
    65
 73
     2
 40
1.0
 49
0.0
 74
     0
 49
-1.0
 74
     0
  0
LTYPE
  5
41
330
5
100
AcDbSymbolTableRecord
100
AcDbLinetypeTableRecord
  2
DOT_CENTER
 70
     0
  3
Dot_Center
 72
    65
 73
     4
 40
14.0
 49
12.0
 74
     0
 49
-1.0
 74
     0
 49
0.0
 74
     0
 49
-1.0
 74
     0
  0
LTYPE
  5
42
330
5
100
AcDbSymbolTableRecord
100
AcDbLinetypeTableRecord
  2
LONG_DASHED
 70
     0
  3
Long_Dashed
 72
    65
 73
     2
 40
15.0
 49
10.0
 74
     0
 49
-5.0
 74
     0
  0
LTYPE
  5
43
330
5
100
AcDbSymbolTableRecord
100
AcDbLinetypeTableRecord
  2
DASH_CENTER
 70
     0
  3
Dash_Center
 72
    65
 73
     4
 40
14.0
 49
11.0
 74
     0
 49
-1.0
 74
     0
 49
1.0
 74
     0
 49
-1.0
 74
     0
  0
LTYPE
  5
44
330
5
100
AcDbSymbolTableRecord
100
AcDbLinetypeTableRecord
  2
PHANTOM
 70
     0
  3
Phantom
 72
    65
 73
     6
 40
13.0
 49
10.0
 74
     0
 49
-1.0
 74
     0
 49
0.0
 74
     0
 49
-1.0
 74
     0
 49
0.0
 74
     0
 49
-1.0
 74
     0
  0
LTYPE
  5
45
330
5
100
AcDbSymbolTableRecord
100
AcDbLinetypeTableRecord
  2
CENTER_DASH_DASH
 70
     0
  3
Center_Dash_Dash
 72
    65
 73
     6
 40
14.0
 49
9.0
 74
     0
 49
-1.0
 74
     0
 49
1.0
 74
     0
 49
-1.0
 74
     0
 49
1.0
 74
     0
 49
-1.0
 74
     0
  0
ENDTAB
  0
TABLE
  2
LAYER
  5
2
330
0
100
AcDbSymbolTable
 70
     2
  0
LAYER
  5
10
330
2
100
AcDbSymbolTableRecord
100
AcDbLayerTableRecord
  2
0
 70
     0
 62
     7
  6
Continuous
370
    -3
390
F
  0
LAYER
  5
46
330
2
100
AcDbSymbolTableRecord
100
AcDbLayerTableRecord
  2
1
 70
     0
 62
     7
  6
Continuous
370
    -3
390
F
  0
ENDTAB
  0
TABLE
  2
STYLE
  5
3
330
0
100
AcDbSymbolTable
 70
     2
  0
STYLE
  5
11
330
3
100
AcDbSymbolTableRecord
100
AcDbTextStyleTableRecord
  2
Standard
 70
     0
 40
0.0
 41
1.0
 50
0.0
 71
     0
 42
0.2
  3
txt
  4

  0
STYLE
  5
166
330
3
100
AcDbSymbolTableRecord
100
AcDbTextStyleTableRecord
  2
CONVERTER_11
 70
     0
 40
0.0
 41
0.9
 50
0.0
 71
     0
 42
0.2
  3
txt.shx
  4

  0
ENDTAB
  0
TABLE
  2
VIEW
  5
6
330
0
100
AcDbSymbolTable
 70
     0
  0
ENDTAB
  0
TABLE
  2
UCS
  5
7
330
0
100
AcDbSymbolTable
 70
     0
  0
ENDTAB
  0
TABLE
  2
APPID
  5
9
330
0
100
AcDbSymbolTable
 70
     1
  0
APPID
  5
12
330
9
100
AcDbSymbolTableRecord
100
AcDbRegAppTableRecord
  2
ACAD
 70
     0
  0
ENDTAB
  0
TABLE
  2
DIMSTYLE
  5
A
330
0
100
AcDbSymbolTable
 70
    16
100
AcDbDimStyleTable
  0
DIMSTYLE
105
27
330
A
100
AcDbSymbolTableRecord
100
AcDbDimStyleTableRecord
  2
Standard
 70
     0
178
     0
340
11
  0
DIMSTYLE
105
176
102
{ACAD_REACTORS
330
177
102
}
330
A
100
AcDbSymbolTableRecord
100
AcDbDimStyleTableRecord
  2
ME10_DIM_10
 70
     0
  3
34.5mm (<>``)
 41
3.5
 42
0.0
 44
2.0
 73
     0
 74
     0
 77
     1
 78
     4
140
3.5
144
0.03937007874016
147
2.0
172
     1
173
     1
174
     1
175
     1
176
     2
177
     2
271
     3
178
     2
271
     3
340
166
  0
DIMSTYLE
105
182
102
{ACAD_REACTORS
330
183
102
}
330
A
100
AcDbSymbolTableRecord
100
AcDbDimStyleTableRecord
  2
ME10_DIM_11
 70
     0
  3
28.2mm (<>``)
 41
3.5
 42
0.0
 44
2.0
 73
     0
 74
     0
 77
     1
 78
     4
140
3.5
144
0.03937007874016
147
2.0
172
     1
173
     1
174
     1
175
     1
176
     2
177
     2
271
     3
178
     2
271
     3
340
166
  0
DIMSTYLE
105
18D
102
{ACAD_REACTORS
330
18E
102
}
330
A
100
AcDbSymbolTableRecord
100
AcDbDimStyleTableRecord
  2
ME10_DIM_12
 70
     0
  3
160mm (<>``)
 41
3.5
 42
0.0
 44
2.0
 73
     0
 74
     0
 77
     1
 78
     4
140
3.5
144
0.03937007874016
147
2.0
172
     1
173
     1
174
     1
175
     1
176
     2
177
     2
271
     3
178
     2
271
     3
340
166
  0
DIMSTYLE
105
199
102
{ACAD_REACTORS
330
19A
102
}
330
A
100
AcDbSymbolTableRecord
100
AcDbDimStyleTableRecord
  2
ME10_DIM_13
 70
     0
  3
24mm (<>``)
 41
3.5
 42
0.0
 44
2.0
 73
     0
 74
     0
 77
     1
 78
     4
140
3.5
144
0.03937007874016
147
2.0
172
     1
173
     1
174
     1
175
     1
176
     2
177
     2
271
     3
178
     2
271
     3
340
166
  0
DIMSTYLE
105
1A4
102
{ACAD_REACTORS
330
1A5
102
}
330
A
100
AcDbSymbolTableRecord
100
AcDbDimStyleTableRecord
  2
ME10_DIM_14
 70
     0
  3
40mm (<>``)
 41
3.5
 42
0.0
 44
2.0
 73
     0
 74
     0
 77
     1
 78
     4
140
3.5
144
0.03937007874016
147
2.0
172
     1
173
     1
174
     1
175
     1
176
     2
177
     2
271
     3
178
     2
271
     3
340
166
  0
DIMSTYLE
105
1B0
102
{ACAD_REACTORS
330
1B1
102
}
330
A
100
AcDbSymbolTableRecord
100
AcDbDimStyleTableRecord
  2
ME10_DIM_15
 70
     0
  3
10mm (<>``)
 41
3.5
 42
0.0
 44
2.0
 73
     0
 74
     0
 77
     1
 78
     4
140
3.5
144
0.03937007874016
147
2.0
172
     1
173
     1
174
     1
175
     1
176
     2
177
     2
271
     3
178
     2
271
     3
340
166
  0
DIMSTYLE
105
1BC
102
{ACAD_REACTORS
330
1BD
102
}
330
A
100
AcDbSymbolTableRecord
100
AcDbDimStyleTableRecord
  2
ME10_DIM_16
 70
     0
  3
34mm (<>``)
 41
3.5
 42
0.0
 44
2.0
 73
     0
 74
     0
 77
     1
 78
     4
140
3.5
144
0.03937007874016
147
2.0
172
     1
173
     1
174
     1
175
     1
176
     2
177
     2
271
     3
178
     2
271
     3
340
166
  0
DIMSTYLE
105
1C8
102
{ACAD_REACTORS
330
1C9
102
}
330
A
100
AcDbSymbolTableRecord
100
AcDbDimStyleTableRecord
  2
ME10_DIM_17
 70
     0
  3
28mm (<>``)
 41
3.5
 42
0.0
 44
2.0
 73
     0
 74
     0
 77
     1
 78
     4
140
3.5
144
0.03937007874016
147
2.0
172
     1
173
     1
174
     1
175
     1
176
     2
177
     2
271
     3
178
     2
271
     3
340
166
  0
DIMSTYLE
105
1D4
102
{ACAD_REACTORS
330
1D5
102
}
330
A
100
AcDbSymbolTableRecord
100
AcDbDimStyleTableRecord
  2
ME10_DIM_18
 70
     0
  3
15mm (<>``)
 41
3.5
 42
0.0
 44
2.0
 73
     0
 74
     0
 77
     1
 78
     4
140
3.5
144
0.03937007874016
147
2.0
172
     1
173
     1
174
     1
175
     1
176
     2
177
     2
271
     3
178
     2
271
     3
340
166
  0
DIMSTYLE
105
1E1
102
{ACAD_REACTORS
330
1E2
102
}
330
A
100
AcDbSymbolTableRecord
100
AcDbDimStyleTableRecord
  2
ME10_DIM_19
 70
     0
  3
4mm (<>``)
 41
3.5
 42
0.0
 44
2.0
 73
     0
 74
     0
 77
     1
 78
     4
140
3.5
144
0.03937007874016
147
2.0
172
     1
173
     1
174
     1
175
     1
176
     2
177
     2
271
     3
178
     2
271
     3
340
166
  0
DIMSTYLE
105
1EC
102
{ACAD_REACTORS
330
1ED
102
}
330
A
100
AcDbSymbolTableRecord
100
AcDbDimStyleTableRecord
  2
ME10_DIM_20
 70
     0
  3
160mm (<>``)
 41
3.5
 42
0.0
 44
2.0
 73
     0
 74
     0
 77
     1
 78
     4
140
3.5
144
0.03937007874016
147
2.0
172
     1
173
     1
174
     1
175
     1
176
     2
177
     2
271
     3
178
     2
271
     3
340
166
  0
DIMSTYLE
105
1F7
102
{ACAD_REACTORS
330
1F8
102
}
330
A
100
AcDbSymbolTableRecord
100
AcDbDimStyleTableRecord
  2
ME10_DIM_21
 70
     0
  3
138mm (<>``)
 41
3.5
 42
0.0
 44
2.0
 73
     0
 74
     0
 77
     1
 78
     4
140
3.5
144
0.03937007874016
147
2.0
172
     1
173
     1
174
     1
175
     1
176
     2
177
     2
271
     3
178
     2
271
     3
340
166
  0
DIMSTYLE
105
202
102
{ACAD_REACTORS
330
203
102
}
330
A
100
AcDbSymbolTableRecord
100
AcDbDimStyleTableRecord
  2
ME10_DIM_22
 70
     0
  3
131mm (<>``)
 41
3.5
 42
0.0
 44
2.0
 73
     0
 74
     0
 77
     1
 78
     4
140
3.5
144
0.03937007874016
147
2.0
172
     1
173
     1
174
     1
175
     1
176
     2
177
     2
271
     3
178
     2
271
     3
340
166
  0
DIMSTYLE
105
20D
102
{ACAD_REACTORS
330
20E
102
}
330
A
100
AcDbSymbolTableRecord
100
AcDbDimStyleTableRecord
  2
ME10_DIM_23
 70
     0
 41
3.5
 42
0.0
 44
2.0
 73
     0
 74
     0
 77
     1
 78
     4
140
3.5
144
0.03937007874016
147
2.0
172
     1
173
     1
174
     1
175
     1
176
     2
177
     2
271
     3
178
     2
271
     3
340
166
  0
DIMSTYLE
105
21A
102
{ACAD_REACTORS
330
21B
102
}
330
A
100
AcDbSymbolTableRecord
100
AcDbDimStyleTableRecord
  2
ME10_DIM_24
 70
     0
  3
5mm (<>``)
 41
3.5
 42
0.0
 44
2.0
 73
     0
 74
     0
 77
     1
 78
     4
140
3.5
144
0.03937007874016
147
2.0
172
     1
173
     1
174
     1
175
     1
176
     2
177
     2
271
     3
178
     2
271
     3
340
166
  0
ENDTAB
  0
TABLE
  2
BLOCK_RECORD
  5
1
330
0
100
AcDbSymbolTable
 70
    18
  0
BLOCK_RECORD
  5
1F
330
1
100
AcDbSymbolTableRecord
100
AcDbBlockTableRecord
  2
*Model_Space
340
22
  0
BLOCK_RECORD
  5
1B
330
1
100
AcDbSymbolTableRecord
100
AcDbBlockTableRecord
  2
*Paper_Space
340
1E
  0
BLOCK_RECORD
  5
23
330
1
100
AcDbSymbolTableRecord
100
AcDbBlockTableRecord
  2
*Paper_Space0
340
26
  0
BLOCK_RECORD
  5
16C
330
1
100
AcDbSymbolTableRecord
100
AcDbBlockTableRecord
  2
*D1
340
0
  0
BLOCK_RECORD
  5
178
330
1
100
AcDbSymbolTableRecord
100
AcDbBlockTableRecord
  2
*D2
340
0
  0
BLOCK_RECORD
  5
184
330
1
100
AcDbSymbolTableRecord
100
AcDbBlockTableRecord
  2
*D3
340
0
  0
BLOCK_RECORD
  5
18F
330
1
100
AcDbSymbolTableRecord
100
AcDbBlockTableRecord
  2
*D4
340
0
  0
BLOCK_RECORD
  5
19B
330
1
100
AcDbSymbolTableRecord
100
AcDbBlockTableRecord
  2
*D5
340
0
  0
BLOCK_RECORD
  5
1A6
330
1
100
AcDbSymbolTableRecord
100
AcDbBlockTableRecord
  2
*D6
340
0
  0
BLOCK_RECORD
  5
1B2
330
1
100
AcDbSymbolTableRecord
100
AcDbBlockTableRecord
  2
*D7
340
0
  0
BLOCK_RECORD
  5
1BE
330
1
100
AcDbSymbolTableRecord
100
AcDbBlockTableRecord
  2
*D8
340
0
  0
BLOCK_RECORD
  5
1CA
330
1
100
AcDbSymbolTableRecord
100
AcDbBlockTableRecord
  2
*D9
340
0
  0
BLOCK_RECORD
  5
1D6
330
1
100
AcDbSymbolTableRecord
100
AcDbBlockTableRecord
  2
*D10
340
0
  0
BLOCK_RECORD
  5
1E3
330
1
100
AcDbSymbolTableRecord
100
AcDbBlockTableRecord
  2
*D11
340
0
  0
BLOCK_RECORD
  5
1EE
330
1
100
AcDbSymbolTableRecord
100
AcDbBlockTableRecord
  2
*D12
340
0
  0
BLOCK_RECORD
  5
1F9
330
1
100
AcDbSymbolTableRecord
100
AcDbBlockTableRecord
  2
*D13
340
0
  0
BLOCK_RECORD
  5
204
330
1
100
AcDbSymbolTableRecord
100
AcDbBlockTableRecord
  2
*D14
340
0
  0
BLOCK_RECORD
  5
20F
330
1
100
AcDbSymbolTableRecord
100
AcDbBlockTableRecord
  2
*D15
340
0
  0
BLOCK_RECORD
  5
21C
330
1
100
AcDbSymbolTableRecord
100
AcDbBlockTableRecord
  2
*D16
340
0
102
{BLKREFS
331
224
102
}
  0
BLOCK_RECORD
  5
225
330
1
100
AcDbSymbolTableRecord
100
AcDbBlockTableRecord
  2
*D17
340
0
102
{BLKREFS
331
22D
102
}
  0
ENDTAB
  0
ENDSEC
  0
SECTION
  2
BLOCKS
  0
BLOCK
  5
20
330
1F
100
AcDbEntity
  8
0
100
AcDbBlockBegin
  2
*Model_Space
 70
     0
 10
0.0
 20
0.0
 30
0.0
  3
*Model_Space
  1

  0
ENDBLK
  5
21
330
1F
100
AcDbEntity
  8
0
100
AcDbBlockEnd
  0
BLOCK
  5
1C
330
1B
100
AcDbEntity
 67
     1
  8
0
100
AcDbBlockBegin
  2
*Paper_Space
 70
     0
 10
0.0
 20
0.0
 30
0.0
  3
*Paper_Space
  1

  0
ENDBLK
  5
1D
330
1B
100
AcDbEntity
 67
     1
  8
0
100
AcDbBlockEnd
  0
BLOCK
  5
24
330
23
100
AcDbEntity
  8
0
100
AcDbBlockBegin
  2
*Paper_Space0
 70
     0
 10
0.0
 20
0.0
 30
0.0
  3
*Paper_Space0
  1

  0
ENDBLK
  5
25
330
23
100
AcDbEntity
  8
0
100
AcDbBlockEnd
  0
BLOCK
  5
174
330
16C
100
AcDbEntity
  8
0
100
AcDbBlockBegin
  2
*D1
 70
     1
 10
0.0
 20
0.0
 30
0.0
  3
*D1
  1

  0
LINE
  5
16D
330
16C
100
AcDbEntity
  8
1
  6
Continuous
 62
     2
100
AcDbLine
 10
407.4472020040263
 20
-438.930943309171
 30
0.0
 11
447.9130706215899
 21
-438.930943309171
 31
0.0
  0
LINE
  5
16E
330
16C
100
AcDbEntity
  8
1
  6
Continuous
 62
     2
100
AcDbLine
 10
447.9130706215899
 20
-438.930943309171
 30
0.0
 11
482.4130706215899
 21
-438.930943309171
 31
0.0
  0
LINE
  5
16F
330
16C
100
AcDbEntity
  8
1
  6
Continuous
 62
     2
100
AcDbLine
 10
447.9130706215899
 20
-421.0389726947183
 30
0.0
 11
447.9130706215899
 21
-440.930943309171
 31
0.0
  0
LINE
  5
170
330
16C
100
AcDbEntity
  8
1
  6
Continuous
 62
     2
100
AcDbLine
 10
482.4130706215899
 20
-417.6389726947181
 30
0.0
 11
482.4130706215899
 21
-440.930943309171
 31
0.0
  0
SOLID
  5
171
330
16C
100
AcDbEntity
  8
1
 62
     2
100
AcDbTrace
 10
451.4130706215899
 20
-438.4701595676152
 30
0.0
 11
451.4130706215899
 21
-439.3917270507269
 31
0.0
 12
447.9130706215899
 22
-438.930943309171
 32
0.0
 13
447.9130706215899
 23
-438.930943309171
 33
0.0
  0
SOLID
  5
172
330
16C
100
AcDbEntity
  8
1
 62
     2
100
AcDbTrace
 10
478.9130706215899
 20
-439.3917270507269
 30
0.0
 11
478.9130706215899
 21
-438.4701595676152
 31
0.0
 12
482.4130706215899
 22
-438.930943309171
 32
0.0
 13
482.4130706215899
 23
-438.930943309171
 33
0.0
  0
MTEXT
  5
173
330
16C
100
AcDbEntity
  8
1
 62
     2
100
AcDbMText
 10
407.1497020040937
 20
-436.9309989657816
 30
0.0
 40
3.5
 41
0.0
 71
     7
 72
     1
  1
\C2;34.5mm (\C2;1.358\C2;``)
  7
CONVERTER_11
 11
0.9999999999970619
 21
2.424068405545306E-6
 31
0.0
 73
     1
 44
0.60024009603842
  0
ENDBLK
  5
175
330
16C
100
AcDbEntity
  8
0
100
AcDbBlockEnd
  0
BLOCK
  5
180
330
178
100
AcDbEntity
  8
0
100
AcDbBlockBegin
  2
*D2
 70
     1
 10
0.0
 20
0.0
 30
0.0
  3
*D2
  1

  0
LINE
  5
179
330
178
100
AcDbEntity
  8
1
  6
Continuous
 62
     2
100
AcDbLine
 10
336.166978637489
 20
-471.1064151869283
 30
0.0
 11
364.366978637489
 21
-471.1064151869283
 31
0.0
  0
LINE
  5
17A
330
178
100
AcDbEntity
  8
1
  6
Continuous
 62
     2
100
AcDbLine
 10
295.9703085016999
 20
-471.1064151869283
 30
0.0
 11
336.166978637489
 21
-471.1064151869283
 31
0.0
  0
LINE
  5
17B
330
178
100
AcDbEntity
  8
1
  6
Continuous
 62
     2
100
AcDbLine
 10
364.366978637489
 20
-405.9644326321431
 30
0.0
 11
364.366978637489
 21
-473.1064151869283
 31
0.0
  0
LINE
  5
17C
330
178
100
AcDbEntity
  8
1
  6
Continuous
 62
     2
100
AcDbLine
 10
336.166978637489
 20
-405.9644326321431
 30
0.0
 11
336.166978637489
 21
-473.1064151869283
 31
0.0
  0
SOLID
  5
17D
330
178
100
AcDbEntity
  8
1
 62
     2
100
AcDbTrace
 10
339.666978637489
 20
-470.6456314453724
 30
0.0
 11
339.666978637489
 21
-471.5671989284842
 31
0.0
 12
336.166978637489
 22
-471.1064151869283
 32
0.0
 13
336.166978637489
 23
-471.1064151869283
 33
0.0
  0
SOLID
  5
17E
330
178
100
AcDbEntity
  8
1
 62
     2
100
AcDbTrace
 10
360.866978637489
 20
-471.5671989284842
 30
0.0
 11
360.866978637489
 21
-470.6456314453724
 31
0.0
 12
364.366978637489
 22
-471.1064151869283
 32
0.0
 13
364.366978637489
 23
-471.1064151869283
 33
0.0
  0
MTEXT
  5
17F
330
178
100
AcDbEntity
  8
1
 62
     2
100
AcDbMText
 10
295.6728085017674
 20
-469.1064708435389
 30
0.0
 40
3.5
 41
0.0
 71
     7
 72
     1
  1
\C2;28.2mm (\C2;1.110\C2;``)
  7
CONVERTER_11
 11
0.9999999999970619
 21
2.424068405545306E-6
 31
0.0
 73
     1
 44
0.60024009603842
  0
ENDBLK
  5
181
330
178
100
AcDbEntity
  8
0
100
AcDbBlockEnd
  0
BLOCK
  5
18B
330
184
100
AcDbEntity
  8
0
100
AcDbBlockBegin
  2
*D3
 70
     1
 10
0.0
 20
0.0
 30
0.0
  3
*D3
  1

  0
LINE
  5
185
330
184
100
AcDbEntity
  8
1
  6
Continuous
 62
     2
100
AcDbLine
 10
407.1570267844807
 20
-269.4644326321434
 30
0.0
 11
407.1570267844807
 21
-429.4644326321433
 31
0.0
  0
LINE
  5
186
330
184
100
AcDbEntity
  8
1
  6
Continuous
 62
     2
100
AcDbLine
 10
350.266978637489
 20
-429.4644326321433
 30
0.0
 11
409.1570267844807
 21
-429.4644326321433
 31
0.0
  0
LINE
  5
187
330
184
100
AcDbEntity
  8
1
  6
Continuous
 62
     2
100
AcDbLine
 10
350.266978637489
 20
-269.4644326321434
 30
0.0
 11
409.1570267844807
 21
-269.4644326321434
 31
0.0
  0
SOLID
  5
188
330
184
100
AcDbEntity
  8
1
 62
     2
100
AcDbTrace
 10
407.6178105260366
 20
-272.9644326321434
 30
0.0
 11
406.6962430429248
 21
-272.9644326321434
 31
0.0
 12
407.1570267844807
 22
-269.4644326321434
 32
0.0
 13
407.1570267844807
 23
-269.4644326321434
 33
0.0
  0
SOLID
  5
189
330
184
100
AcDbEntity
  8
1
 62
     2
100
AcDbTrace
 10
406.6962430429248
 20
-425.9644326321433
 30
0.0
 11
407.6178105260366
 21
-425.9644326321433
 31
0.0
 12
407.1570267844807
 22
-429.4644326321433
 32
0.0
 13
407.1570267844807
 23
-429.4644326321433
 33
0.0
  0
MTEXT
  5
18A
330
184
100
AcDbEntity
  8
1
 62
     2
100
AcDbMText
 10
405.1570267844807
 20
-368.7101319073454
 30
0.0
 40
3.5
 41
0.0
 71
     7
 72
     1
  1
\C2;160mm (\C2;6.299\C2;``)
  7
CONVERTER_11
 11
0.0
 21
1.0
 31
0.0
 73
     1
 44
0.60024009603842
  0
ENDBLK
  5
18C
330
184
100
AcDbEntity
  8
0
100
AcDbBlockEnd
  0
BLOCK
  5
197
330
18F
100
AcDbEntity
  8
0
100
AcDbBlockBegin
  2
*D4
 70
     1
 10
0.0
 20
0.0
 30
0.0
  3
*D4
  1

  0
LINE
  5
190
330
18F
100
AcDbEntity
  8
1
  6
Continuous
 62
     2
100
AcDbLine
 10
671.9844951225069
 20
-383.2405627585072
 30
0.0
 11
647.9844951225069
 21
-383.2405627585072
 31
0.0
  0
LINE
  5
191
330
18F
100
AcDbEntity
  8
1
  6
Continuous
 62
     2
100
AcDbLine
 10
714.4693077850324
 20
-383.2405627585072
 30
0.0
 11
671.9844951225069
 21
-383.2405627585072
 31
0.0
  0
LINE
  5
192
330
18F
100
AcDbEntity
  8
1
  6
Continuous
 62
     2
100
AcDbLine
 10
647.9844951225069
 20
-357.4644326321434
 30
0.0
 11
647.9844951225069
 21
-385.2405627585072
 31
0.0
  0
LINE
  5
193
330
18F
100
AcDbEntity
  8
1
  6
Continuous
 62
     2
100
AcDbLine
 10
671.9844951225069
 20
-357.4644326321434
 30
0.0
 11
671.9844951225069
 21
-385.2405627585072
 31
0.0
  0
SOLID
  5
194
330
18F
100
AcDbEntity
  8
1
 62
     2
100
AcDbTrace
 10
668.4844951225069
 20
-383.7013465000631
 30
0.0
 11
668.4844951225069
 21
-382.7797790169514
 31
0.0
 12
671.9844951225069
 22
-383.2405627585072
 32
0.0
 13
671.9844951225069
 23
-383.2405627585072
 33
0.0
  0
SOLID
  5
195
330
18F
100
AcDbEntity
  8
1
 62
     2
100
AcDbTrace
 10
651.4844951225069
 20
-382.7797790169514
 30
0.0
 11
651.4844951225069
 21
-383.7013465000631
 31
0.0
 12
647.9844951225069
 22
-383.2405627585072
 32
0.0
 13
647.9844951225069
 23
-383.2405627585072
 33
0.0
  0
MTEXT
  5
196
330
18F
100
AcDbEntity
  8
1
 62
     2
100
AcDbMText
 10
679.836807785083
 20
-381.2406045009652
 30
0.0
 40
3.5
 41
0.0
 71
     7
 72
     1
  1
\C2;24mm (\C2;0.945\C2;``)
  7
CONVERTER_11
 11
0.9999999999970619
 21
2.424068405545306E-6
 31
0.0
 73
     1
 44
0.60024009603842
  0
ENDBLK
  5
198
330
18F
100
AcDbEntity
  8
0
100
AcDbBlockEnd
  0
BLOCK
  5
1A2
330
19B
100
AcDbEntity
  8
0
100
AcDbBlockBegin
  2
*D5
 70
     1
 10
0.0
 20
0.0
 30
0.0
  3
*D5
  1

  0
LINE
  5
19C
330
19B
100
AcDbEntity
  8
1
  6
Continuous
 62
     2
100
AcDbLine
 10
692.385775807007
 20
-369.4644326321434
 30
0.0
 11
692.385775807007
 21
-329.4644326321434
 31
0.0
  0
LINE
  5
19D
330
19B
100
AcDbEntity
  8
1
  6
Continuous
 62
     2
100
AcDbLine
 10
659.9844951225069
 20
-329.4644326321434
 30
0.0
 11
694.385775807007
 21
-329.4644326321434
 31
0.0
  0
LINE
  5
19E
330
19B
100
AcDbEntity
  8
1
  6
Continuous
 62
     2
100
AcDbLine
 10
659.9844951225069
 20
-369.4644326321434
 30
0.0
 11
694.385775807007
 21
-369.4644326321434
 31
0.0
  0
SOLID
  5
19F
330
19B
100
AcDbEntity
  8
1
 62
     2
100
AcDbTrace
 10
691.9249920654511
 20
-365.9644326321434
 30
0.0
 11
692.8465595485629
 21
-365.9644326321434
 31
0.0
 12
692.385775807007
 22
-369.4644326321434
 32
0.0
 13
692.385775807007
 23
-369.4644326321434
 33
0.0
  0
SOLID
  5
1A0
330
19B
100
AcDbEntity
  8
1
 62
     2
100
AcDbTrace
 10
692.8465595485629
 20
-332.9644326321434
 30
0.0
 11
691.9249920654511
 21
-332.9644326321434
 31
0.0
 12
692.385775807007
 22
-329.4644326321434
 32
0.0
 13
692.385775807007
 23
-329.4644326321434
 33
0.0
  0
MTEXT
  5
1A1
330
19B
100
AcDbEntity
  8
1
 62
     2
100
AcDbMText
 10
690.385775807007
 20
-365.6781826321434
 30
0.0
 40
3.5
 41
0.0
 71
     7
 72
     1
  1
\C2;40mm (\C2;1.575\C2;``)
  7
CONVERTER_11
 11
0.0
 21
1.0
 31
0.0
 73
     1
 44
0.60024009603842
  0
ENDBLK
  5
1A3
330
19B
100
AcDbEntity
  8
0
100
AcDbBlockEnd
  0
BLOCK
  5
1AE
330
1A6
100
AcDbEntity
  8
0
100
AcDbBlockBegin
  2
*D6
 70
     1
 10
0.0
 20
0.0
 30
0.0
  3
*D6
  1

  0
LINE
  5
1A7
330
1A6
100
AcDbEntity
  8
1
  6
Continuous
 62
     2
100
AcDbLine
 10
553.271161628779
 20
-457.5792603018225
 30
0.0
 11
515.3839232927693
 21
-457.5792603018225
 31
0.0
  0
LINE
  5
1A8
330
1A6
100
AcDbEntity
  8
1
  6
Continuous
 62
     2
100
AcDbLine
 10
563.271161628779
 20
-457.5792603018225
 30
0.0
 11
553.271161628779
 21
-457.5792603018225
 31
0.0
  0
LINE
  5
1A9
330
1A6
100
AcDbEntity
  8
1
  6
Continuous
 62
     2
100
AcDbLine
 10
553.271161628779
 20
-449.4644326321435
 30
0.0
 11
553.271161628779
 21
-459.5792603018225
 31
0.0
  0
LINE
  5
1AA
330
1A6
100
AcDbEntity
  8
1
  6
Continuous
 62
     2
100
AcDbLine
 10
563.271161628779
 20
-429.4644326321434
 30
0.0
 11
563.271161628779
 21
-459.5792603018225
 31
0.0
  0
SOLID
  5
1AB
330
1A6
100
AcDbEntity
  8
1
 62
     2
100
AcDbTrace
 10
559.771161628779
 20
-458.0400440433784
 30
0.0
 11
559.771161628779
 21
-457.1184765602666
 31
0.0
 12
563.271161628779
 22
-457.5792603018225
 32
0.0
 13
563.271161628779
 23
-457.5792603018225
 33
0.0
  0
SOLID
  5
1AC
330
1A6
100
AcDbEntity
  8
1
 62
     2
100
AcDbTrace
 10
556.771161628779
 20
-457.1184765602666
 30
0.0
 11
556.771161628779
 21
-458.0400440433784
 31
0.0
 12
553.271161628779
 22
-457.5792603018225
 32
0.0
 13
553.271161628779
 23
-457.5792603018225
 33
0.0
  0
MTEXT
  5
1AD
330
1A6
100
AcDbEntity
  8
1
 62
     2
100
AcDbMText
 10
515.4889232928198
 20
-455.5793020442804
 30
0.0
 40
3.5
 41
0.0
 71
     7
 72
     1
  1
\C2;10mm (\C2;0.394\C2;``)
  7
CONVERTER_11
 11
0.9999999999970619
 21
2.424068405545306E-6
 31
0.0
 73
     1
 44
0.60024009603842
  0
ENDBLK
  5
1AF
330
1A6
100
AcDbEntity
  8
0
100
AcDbBlockEnd
  0
BLOCK
  5
1BA
330
1B2
100
AcDbEntity
  8
0
100
AcDbBlockBegin
  2
*D7
 70
     1
 10
0.0
 20
0.0
 30
0.0
  3
*D7
  1

  0
LINE
  5
1B3
330
1B2
100
AcDbEntity
  8
1
  6
Continuous
 62
     2
100
AcDbLine
 10
553.271161628779
 20
-470.4639931520168
 30
0.0
 11
587.2711616287792
 21
-470.4639931520168
 31
0.0
  0
LINE
  5
1B4
330
1B2
100
AcDbEntity
  8
1
  6
Continuous
 62
     2
100
AcDbLine
 10
515.9559452591034
 20
-470.4639931520168
 30
0.0
 11
553.271161628779
 21
-470.4639931520168
 31
0.0
  0
LINE
  5
1B5
330
1B2
100
AcDbEntity
  8
1
  6
Continuous
 62
     2
100
AcDbLine
 10
587.2711616287792
 20
-414.9644326321436
 30
0.0
 11
587.2711616287792
 21
-472.4639931520168
 31
0.0
  0
LINE
  5
1B6
330
1B2
100
AcDbEntity
  8
1
  6
Continuous
 62
     2
100
AcDbLine
 10
553.271161628779
 20
-429.4644326321435
 30
0.0
 11
553.271161628779
 21
-472.4639931520168
 31
0.0
  0
SOLID
  5
1B7
330
1B2
100
AcDbEntity
  8
1
 62
     2
100
AcDbTrace
 10
556.771161628779
 20
-470.003209410461
 30
0.0
 11
556.771161628779
 21
-470.9247768935727
 31
0.0
 12
553.271161628779
 22
-470.4639931520168
 32
0.0
 13
553.271161628779
 23
-470.4639931520168
 33
0.0
  0
SOLID
  5
1B8
330
1B2
100
AcDbEntity
  8
1
 62
     2
100
AcDbTrace
 10
583.7711616287792
 20
-470.9247768935727
 30
0.0
 11
583.7711616287792
 21
-470.003209410461
 31
0.0
 12
587.2711616287792
 22
-470.4639931520168
 32
0.0
 13
587.2711616287792
 23
-470.4639931520168
 33
0.0
  0
MTEXT
  5
1B9
330
1B2
100
AcDbEntity
  8
1
 62
     2
100
AcDbMText
 10
517.1109452591539
 20
-468.4640348944748
 30
0.0
 40
3.5
 41
0.0
 71
     7
 72
     1
  1
\C2;34mm (\C2;1.339\C2;``)
  7
CONVERTER_11
 11
0.9999999999970619
 21
2.424068405545306E-6
 31
0.0
 73
     1
 44
0.60024009603842
  0
ENDBLK
  5
1BB
330
1B2
100
AcDbEntity
  8
0
100
AcDbBlockEnd
  0
BLOCK
  5
1C6
330
1BE
100
AcDbEntity
  8
0
100
AcDbBlockBegin
  2
*D8
 70
     1
 10
0.0
 20
0.0
 30
0.0
  3
*D8
  1

  0
LINE
  5
1BF
330
1BE
100
AcDbEntity
  8
1
  6
Continuous
 62
     2
100
AcDbLine
 10
671.9844951225069
 20
-470.5792603018225
 30
0.0
 11
643.9844951225069
 21
-470.5792603018225
 31
0.0
  0
LINE
  5
1C0
330
1BE
100
AcDbEntity
  8
1
  6
Continuous
 62
     2
100
AcDbLine
 10
707.7630244529631
 20
-470.5792603018225
 30
0.0
 11
671.9844951225069
 21
-470.5792603018225
 31
0.0
  0
LINE
  5
1C1
330
1BE
100
AcDbEntity
  8
1
  6
Continuous
 62
     2
100
AcDbLine
 10
643.9844951225069
 20
-415.4644326321435
 30
0.0
 11
643.9844951225069
 21
-472.5792603018225
 31
0.0
  0
LINE
  5
1C2
330
1BE
100
AcDbEntity
  8
1
  6
Continuous
 62
     2
100
AcDbLine
 10
671.9844951225069
 20
-415.4644326321435
 30
0.0
 11
671.9844951225069
 21
-472.5792603018225
 31
0.0
  0
SOLID
  5
1C3
330
1BE
100
AcDbEntity
  8
1
 62
     2
100
AcDbTrace
 10
668.4844951225069
 20
-471.0400440433784
 30
0.0
 11
668.4844951225069
 21
-470.1184765602666
 31
0.0
 12
671.9844951225069
 22
-470.5792603018225
 32
0.0
 13
671.9844951225069
 23
-470.5792603018225
 33
0.0
  0
SOLID
  5
1C4
330
1BE
100
AcDbEntity
  8
1
 62
     2
100
AcDbTrace
 10
647.4844951225069
 20
-470.1184765602666
 30
0.0
 11
647.4844951225069
 21
-471.0400440433784
 31
0.0
 12
643.9844951225069
 22
-470.5792603018225
 32
0.0
 13
643.9844951225069
 23
-470.5792603018225
 33
0.0
  0
MTEXT
  5
1C5
330
1BE
100
AcDbEntity
  8
1
 62
     2
100
AcDbMText
 10
675.2305244530137
 20
-468.5793020442804
 30
0.0
 40
3.5
 41
0.0
 71
     7
 72
     1
  1
\C2;28mm (\C2;1.102\C2;``)
  7
CONVERTER_11
 11
0.9999999999970619
 21
2.424068405545306E-6
 31
0.0
 73
     1
 44
0.60024009603842
  0
ENDBLK
  5
1C7
330
1BE
100
AcDbEntity
  8
0
100
AcDbBlockEnd
  0
BLOCK
  5
1D2
330
1CA
100
AcDbEntity
  8
0
100
AcDbBlockBegin
  2
*D9
 70
     1
 10
0.0
 20
0.0
 30
0.0
  3
*D9
  1

  0
LINE
  5
1CB
330
1CA
100
AcDbEntity
  8
1
  6
Continuous
 62
     2
100
AcDbLine
 10
665.484495122507
 20
-294.3046272202469
 30
0.0
 11
650.484495122507
 21
-294.3046272202469
 31
0.0
  0
LINE
  5
1CC
330
1CA
100
AcDbEntity
  8
1
  6
Continuous
 62
     2
100
AcDbLine
 10
715.629675112153
 20
-294.3046272202469
 30
0.0
 11
665.484495122507
 21
-294.3046272202469
 31
0.0
  0
LINE
  5
1CD
330
1CA
100
AcDbEntity
  8
1
  6
Continuous
 62
     2
100
AcDbLine
 10
650.484495122507
 20
-282.7144326321435
 30
0.0
 11
650.484495122507
 21
-296.3046272202469
 31
0.0
  0
LINE
  5
1CE
330
1CA
100
AcDbEntity
  8
1
  6
Continuous
 62
     2
100
AcDbLine
 10
665.484495122507
 20
-282.7144326321435
 30
0.0
 11
665.484495122507
 21
-296.3046272202469
 31
0.0
  0
SOLID
  5
1CF
330
1CA
100
AcDbEntity
  8
1
 62
     2
100
AcDbTrace
 10
661.984495122507
 20
-294.7654109618028
 30
0.0
 11
661.984495122507
 21
-293.843843478691
 31
0.0
 12
665.484495122507
 22
-294.3046272202469
 32
0.0
 13
665.484495122507
 23
-294.3046272202469
 33
0.0
  0
SOLID
  5
1D0
330
1CA
100
AcDbEntity
  8
1
 62
     2
100
AcDbTrace
 10
653.984495122507
 20
-293.843843478691
 30
0.0
 11
653.984495122507
 21
-294.7654109618028
 31
0.0
 12
650.484495122507
 22
-294.3046272202469
 32
0.0
 13
650.484495122507
 23
-294.3046272202469
 33
0.0
  0
MTEXT
  5
1D1
330
1CA
100
AcDbEntity
  8
1
 62
     2
100
AcDbMText
 10
682.0471751122036
 20
-292.3046689627049
 30
0.0
 40
3.5
 41
0.0
 71
     7
 72
     1
  1
\C2;15mm (\C2;0.591\C2;``)
  7
CONVERTER_11
 11
0.9999999999970619
 21
2.424068405545306E-6
 31
0.0
 73
     1
 44
0.60024009603842
  0
ENDBLK
  5
1D3
330
1CA
100
AcDbEntity
  8
0
100
AcDbBlockEnd
  0
BLOCK
  5
1DF
330
1D6
100
AcDbEntity
  8
0
100
AcDbBlockBegin
  2
*D10
 70
     1
 10
0.0
 20
0.0
 30
0.0
  3
*D10
  1

  0
LINE
  5
1D7
330
1D6
100
AcDbEntity
  8
1
  6
Continuous
 62
     2
100
AcDbLine
 10
671.9844951225069
 20
-459.5792603018225
 30
0.0
 11
664.9844951225069
 21
-459.5792603018225
 31
0.0
  0
LINE
  5
1D8
330
1D6
100
AcDbEntity
  8
1
  6
Continuous
 62
     2
100
AcDbLine
 10
675.9844951225069
 20
-459.5792603018225
 30
0.0
 11
671.9844951225069
 21
-459.5792603018225
 31
0.0
  0
LINE
  5
1D9
330
1D6
100
AcDbEntity
  8
1
  6
Continuous
 62
     2
100
AcDbLine
 10
710.5055886125191
 20
-459.5792603018225
 30
0.0
 11
675.9844951225069
 21
-459.5792603018225
 31
0.0
  0
LINE
  5
1DA
330
1D6
100
AcDbEntity
  8
1
  6
Continuous
 62
     2
100
AcDbLine
 10
671.9844951225069
 20
-415.4644326321435
 30
0.0
 11
671.9844951225069
 21
-461.5792603018225
 31
0.0
  0
LINE
  5
1DB
330
1D6
100
AcDbEntity
  8
1
  6
Continuous
 62
     2
100
AcDbLine
 10
675.9844951225069
 20
-449.4644326321435
 30
0.0
 11
675.9844951225069
 21
-461.5792603018225
 31
0.0
  0
SOLID
  5
1DC
330
1D6
100
AcDbEntity
  8
1
 62
     2
100
AcDbTrace
 10
679.4844951225069
 20
-459.1184765602666
 30
0.0
 11
679.4844951225069
 21
-460.0400440433784
 31
0.0
 12
675.9844951225069
 22
-459.5792603018225
 32
0.0
 13
675.9844951225069
 23
-459.5792603018225
 33
0.0
  0
SOLID
  5
1DD
330
1D6
100
AcDbEntity
  8
1
 62
     2
100
AcDbTrace
 10
668.4844951225069
 20
-460.0400440433784
 30
0.0
 11
668.4844951225069
 21
-459.1184765602666
 31
0.0
 12
671.9844951225069
 22
-459.5792603018225
 32
0.0
 13
671.9844951225069
 23
-459.5792603018225
 33
0.0
  0
MTEXT
  5
1DE
330
1D6
100
AcDbEntity
  8
1
 62
     2
100
AcDbMText
 10
679.7930886125612
 20
-457.5792950872041
 30
0.0
 40
3.5
 41
0.0
 71
     7
 72
     1
  1
\C2;4mm (\C2;0.157\C2;``)
  7
CONVERTER_11
 11
0.9999999999970619
 21
2.424068405545306E-6
 31
0.0
 73
     1
 44
0.60024009603842
  0
ENDBLK
  5
1E0
330
1D6
100
AcDbEntity
  8
0
100
AcDbBlockEnd
  0
BLOCK
  5
1EA
330
1E3
100
AcDbEntity
  8
0
100
AcDbBlockBegin
  2
*D11
 70
     1
 10
0.0
 20
0.0
 30
0.0
  3
*D11
  1

  0
LINE
  5
1E4
330
1E3
100
AcDbEntity
  8
1
  6
Continuous
 62
     2
100
AcDbLine
 10
613.463722714107
 20
-269.4644326321434
 30
0.0
 11
613.463722714107
 21
-429.4644326321435
 31
0.0
  0
LINE
  5
1E5
330
1E3
100
AcDbEntity
  8
1
  6
Continuous
 62
     2
100
AcDbLine
 10
657.9844951225069
 20
-429.4644326321435
 30
0.0
 11
611.463722714107
 21
-429.4644326321435
 31
0.0
  0
LINE
  5
1E6
330
1E3
100
AcDbEntity
  8
1
  6
Continuous
 62
     2
100
AcDbLine
 10
657.9844951225069
 20
-269.4644326321434
 30
0.0
 11
611.463722714107
 21
-269.4644326321434
 31
0.0
  0
SOLID
  5
1E7
330
1E3
100
AcDbEntity
  8
1
 62
     2
100
AcDbTrace
 10
613.9245064556629
 20
-272.9644326321434
 30
0.0
 11
613.0029389725511
 21
-272.9644326321434
 31
0.0
 12
613.463722714107
 22
-269.4644326321434
 32
0.0
 13
613.463722714107
 23
-269.4644326321434
 33
0.0
  0
SOLID
  5
1E8
330
1E3
100
AcDbEntity
  8
1
 62
     2
100
AcDbTrace
 10
613.0029389725511
 20
-425.9644326321435
 30
0.0
 11
613.9245064556629
 21
-425.9644326321435
 31
0.0
 12
613.463722714107
 22
-429.4644326321435
 32
0.0
 13
613.463722714107
 23
-429.4644326321435
 33
0.0
  0
MTEXT
  5
1E9
330
1E3
100
AcDbEntity
  8
1
 62
     2
100
AcDbMText
 10
611.463722714107
 20
-368.0580583013814
 30
0.0
 40
3.5
 41
0.0
 71
     7
 72
     1
  1
\C2;160mm (\C2;6.299\C2;``)
  7
CONVERTER_11
 11
0.0
 21
1.0
 31
0.0
 73
     1
 44
0.60024009603842
  0
ENDBLK
  5
1EB
330
1E3
100
AcDbEntity
  8
0
100
AcDbBlockEnd
  0
BLOCK
  5
1F5
330
1EE
100
AcDbEntity
  8
0
100
AcDbBlockBegin
  2
*D12
 70
     1
 10
0.0
 20
0.0
 30
0.0
  3
*D12
  1

  0
LINE
  5
1EF
330
1EE
100
AcDbEntity
  8
1
  6
Continuous
 62
     2
100
AcDbLine
 10
621.727834981577
 20
-280.4644326321434
 30
0.0
 11
621.727834981577
 21
-418.4644326321434
 31
0.0
  0
LINE
  5
1F0
330
1EE
100
AcDbEntity
  8
1
  6
Continuous
 62
     2
100
AcDbLine
 10
648.2344951225069
 20
-418.4644326321434
 30
0.0
 11
619.727834981577
 21
-418.4644326321434
 31
0.0
  0
LINE
  5
1F1
330
1EE
100
AcDbEntity
  8
1
  6
Continuous
 62
     2
100
AcDbLine
 10
648.2344951225069
 20
-280.4644326321434
 30
0.0
 11
619.727834981577
 21
-280.4644326321434
 31
0.0
  0
SOLID
  5
1F2
330
1EE
100
AcDbEntity
  8
1
 62
     2
100
AcDbTrace
 10
622.1886187231329
 20
-283.9644326321434
 30
0.0
 11
621.267051240021
 21
-283.9644326321434
 31
0.0
 12
621.727834981577
 22
-280.4644326321434
 32
0.0
 13
621.727834981577
 23
-280.4644326321434
 33
0.0
  0
SOLID
  5
1F3
330
1EE
100
AcDbEntity
  8
1
 62
     2
100
AcDbTrace
 10
621.267051240021
 20
-414.9644326321434
 30
0.0
 11
622.1886187231329
 21
-414.9644326321434
 31
0.0
 12
621.727834981577
 22
-418.4644326321434
 32
0.0
 13
621.727834981577
 23
-418.4644326321434
 33
0.0
  0
MTEXT
  5
1F4
330
1EE
100
AcDbEntity
  8
1
 62
     2
100
AcDbMText
 10
619.727834981577
 20
-368.0580583013814
 30
0.0
 40
3.5
 41
0.0
 71
     7
 72
     1
  1
\C2;138mm (\C2;5.433\C2;``)
  7
CONVERTER_11
 11
0.0
 21
1.0
 31
0.0
 73
     1
 44
0.60024009603842
  0
ENDBLK
  5
1F6
330
1EE
100
AcDbEntity
  8
0
100
AcDbBlockEnd
  0
BLOCK
  5
200
330
1F9
100
AcDbEntity
  8
0
100
AcDbBlockBegin
  2
*D13
 70
     1
 10
0.0
 20
0.0
 30
0.0
  3
*D13
  1

  0
LINE
  5
1FA
330
1F9
100
AcDbEntity
  8
1
  6
Continuous
 62
     2
100
AcDbLine
 10
629.732514668066
 20
-283.9644326321433
 30
0.0
 11
629.732514668066
 21
-414.9644326321435
 31
0.0
  0
LINE
  5
1FB
330
1F9
100
AcDbEntity
  8
1
  6
Continuous
 62
     2
100
AcDbLine
 10
659.7531693949999
 20
-414.9644326321435
 30
0.0
 11
627.732514668066
 21
-414.9644326321435
 31
0.0
  0
LINE
  5
1FC
330
1F9
100
AcDbEntity
  8
1
  6
Continuous
 62
     2
100
AcDbLine
 10
655.9844951225069
 20
-283.9644326321433
 30
0.0
 11
627.732514668066
 21
-283.9644326321433
 31
0.0
  0
SOLID
  5
1FD
330
1F9
100
AcDbEntity
  8
1
 62
     2
100
AcDbTrace
 10
630.1932984096219
 20
-287.4644326321433
 30
0.0
 11
629.27173092651
 21
-287.4644326321433
 31
0.0
 12
629.732514668066
 22
-283.9644326321433
 32
0.0
 13
629.732514668066
 23
-283.9644326321433
 33
0.0
  0
SOLID
  5
1FE
330
1F9
100
AcDbEntity
  8
1
 62
     2
100
AcDbTrace
 10
629.27173092651
 20
-411.4644326321435
 30
0.0
 11
630.1932984096219
 21
-411.4644326321435
 31
0.0
 12
629.732514668066
 22
-414.9644326321435
 32
0.0
 13
629.732514668066
 23
-414.9644326321435
 33
0.0
  0
MTEXT
  5
1FF
330
1F9
100
AcDbEntity
  8
1
 62
     2
100
AcDbMText
 10
627.732514668066
 20
-367.9608657972377
 30
0.0
 40
3.5
 41
0.0
 71
     7
 72
     1
  1
\C2;131mm (\C2;5.157\C2;``)
  7
CONVERTER_11
 11
0.0
 21
1.0
 31
0.0
 73
     1
 44
0.60024009603842
  0
ENDBLK
  5
201
330
1F9
100
AcDbEntity
  8
0
100
AcDbBlockEnd
  0
BLOCK
  5
20B
330
204
100
AcDbEntity
  8
0
100
AcDbBlockBegin
  2
*D14
 70
     1
 10
0.0
 20
0.0
 30
0.0
  3
*D14
  1

  0
LINE
  5
205
330
204
100
AcDbEntity
  8
1
  6
Continuous
 62
     2
100
AcDbLine
 10
529.9130706215898
 20
-371.118305307077
 30
0.0
 11
519.9130706215898
 21
-371.118305307077
 31
0.0
  0
LINE
  5
206
330
204
100
AcDbEntity
  8
1
  6
Continuous
 62
     2
100
AcDbLine
 10
519.9130706215898
 20
-393.5389726947179
 30
0.0
 11
519.9130706215898
 21
-369.118305307077
 31
0.0
  0
LINE
  5
207
330
204
100
AcDbEntity
  8
1
  6
Continuous
 62
     2
100
AcDbLine
 10
529.9130706215898
 20
-393.5389726947179
 30
0.0
 11
529.9130706215898
 21
-369.118305307077
 31
0.0
  0
SOLID
  5
208
330
204
100
AcDbEntity
  8
1
 62
     2
100
AcDbTrace
 10
526.4130706215898
 20
-371.5790890486329
 30
0.0
 11
526.4130706215898
 21
-370.6575215655211
 31
0.0
 12
529.9130706215898
 22
-371.118305307077
 32
0.0
 13
529.9130706215898
 23
-371.118305307077
 33
0.0
  0
SOLID
  5
209
330
204
100
AcDbEntity
  8
1
 62
     2
100
AcDbTrace
 10
523.4130706215898
 20
-370.6575215655211
 30
0.0
 11
523.4130706215898
 21
-371.5790890486329
 31
0.0
 12
519.9130706215898
 22
-371.118305307077
 32
0.0
 13
519.9130706215898
 23
-371.118305307077
 33
0.0
  0
MTEXT
  5
20A
330
204
100
AcDbEntity
  8
1
 62
     2
100
AcDbMText
 10
501.574624359923
 20
-369.118305307077
 30
0.0
 40
3.5
 41
0.0
 71
     7
 72
     1
  1
min. 35mm (1.378``)
  7
CONVERTER_11
 11
0.9999999999970619
 21
2.424068405545306E-6
 31
0.0
 73
     1
 44
0.60024009603842
  0
ENDBLK
  5
20C
330
204
100
AcDbEntity
  8
0
100
AcDbBlockEnd
  0
BLOCK
  5
218
330
20F
100
AcDbEntity
  8
0
100
AcDbBlockBegin
  2
*D15
 70
     1
 10
0.0
 20
0.0
 30
0.0
  3
*D15
  1

  0
LINE
  5
210
330
20F
100
AcDbEntity
  8
1
  6
Continuous
 62
     2
100
AcDbLine
 10
336.166978637489
 20
-459.1064151869283
 30
0.0
 11
343.166978637489
 21
-459.1064151869283
 31
0.0
  0
LINE
  5
211
330
20F
100
AcDbEntity
  8
1
  6
Continuous
 62
     2
100
AcDbLine
 10
331.166978637489
 20
-459.1064151869283
 30
0.0
 11
336.166978637489
 21
-459.1064151869283
 31
0.0
  0
LINE
  5
212
330
20F
100
AcDbEntity
  8
1
  6
Continuous
 62
     2
100
AcDbLine
 10
292.511465384095
 20
-459.1064151869283
 30
0.0
 11
331.166978637489
 21
-459.1064151869283
 31
0.0
  0
LINE
  5
213
330
20F
100
AcDbEntity
  8
1
  6
Continuous
 62
     2
100
AcDbLine
 10
336.166978637489
 20
-413.4644326321437
 30
0.0
 11
336.166978637489
 21
-461.1064151869283
 31
0.0
  0
LINE
  5
214
330
20F
100
AcDbEntity
  8
1
  6
Continuous
 62
     2
100
AcDbLine
 10
331.166978637489
 20
-449.4644326321434
 30
0.0
 11
331.166978637489
 21
-461.1064151869283
 31
0.0
  0
SOLID
  5
215
330
20F
100
AcDbEntity
  8
1
 62
     2
100
AcDbTrace
 10
327.666978637489
 20
-459.5671989284842
 30
0.0
 11
327.666978637489
 21
-458.6456314453724
 31
0.0
 12
331.166978637489
 22
-459.1064151869283
 32
0.0
 13
331.166978637489
 23
-459.1064151869283
 33
0.0
  0
SOLID
  5
216
330
20F
100
AcDbEntity
  8
1
 62
     2
100
AcDbTrace
 10
339.666978637489
 20
-458.6456314453724
 30
0.0
 11
339.666978637489
 21
-459.5671989284842
 31
0.0
 12
336.166978637489
 22
-459.1064151869283
 32
0.0
 13
336.166978637489
 23
-459.1064151869283
 33
0.0
  0
MTEXT
  5
217
330
20F
100
AcDbEntity
  8
1
 62
     2
100
AcDbMText
 10
293.3864653841371
 20
-457.1064499723099
 30
0.0
 40
3.5
 41
0.0
 71
     7
 72
     1
  1
\C2;5mm (\C2;0.197\C2;``)
  7
CONVERTER_11
 11
0.9999999999970619
 21
2.424068405545306E-6
 31
0.0
 73
     1
 44
0.60024009603842
  0
ENDBLK
  5
219
330
20F
100
AcDbEntity
  8
0
100
AcDbBlockEnd
  0
BLOCK
  5
222
330
21C
100
AcDbEntity
  8
0
100
AcDbBlockBegin
  2
*D16
 70
     1
 10
0.0
 20
0.0
 30
0.0
  3
*D16
  1

  0
LINE
  5
21D
330
21C
100
AcDbEntity
  8
1
  6
Continuous
 62
     2
100
AcDbLine
 10
351.5836842916509
 20
-406.449839077831
 30
0.0
 11
349.7692321531613
 21
-401.5233531662374
 31
0.0
  0
LINE
  5
21E
330
21C
100
AcDbEntity
  8
1
  6
Continuous
 62
     2
100
AcDbLine
 10
377.0410466101347
 20
-475.5700622834715
 30
0.0
 11
358.1502729833272
 21
-424.2790261864558
 31
0.0
  0
SOLID
  5
21F
330
21C
100
AcDbEntity
  8
1
 62
     2
100
AcDbTrace
 10
359.7922971920472
 20
-427.4040986903283
 30
0.0
 11
358.9275182925932
 21
-427.7226015647082
 31
0.0
 12
358.1502729833272
 22
-424.2790261864558
 32
0.0
 13
358.1502729833272
 23
-424.2790261864558
 33
0.0
  0
SOLID
  5
220
330
21C
100
AcDbEntity
  8
1
 62
     2
100
AcDbTrace
 10
349.9416600829309
 20
-403.3247665739585
 30
0.0
 11
350.8064389823848
 21
-403.0062636995787
 31
0.0
 12
351.5836842916509
 22
-406.449839077831
 32
0.0
 13
351.5836842916509
 23
-406.449839077831
 33
0.0
  0
MTEXT
  5
221
330
21C
100
AcDbEntity
  8
1
 62
     2
100
AcDbMText
 10
368.0008494479729
 20
-445.2378188531012
 30
0.0
 40
3.5
 41
0.0
 71
     7
 72
     1
  1
cutter \U+00f83/4``
  7
CONVERTER_11
 11
0.3456099311408589
 21
-0.9383782688749834
 31
0.0
 73
     1
 44
0.60024009603842
  0
ENDBLK
  5
223
330
21C
100
AcDbEntity
  8
0
100
AcDbBlockEnd
  0
BLOCK
  5
22B
330
225
100
AcDbEntity
  8
0
100
AcDbBlockBegin
  2
*D17
 70
     1
 10
0.0
 20
0.0
 30
0.0
  3
*D17
  1

  0
LINE
  5
226
330
225
100
AcDbEntity
  8
1
  6
Continuous
 62
     2
100
AcDbLine
 10
660.1389187036145
 20
-408.584414431342
 30
0.0
 11
663.8163633142267
 21
-404.8375622677412
 31
0.0
  0
LINE
  5
227
330
225
100
AcDbEntity
  8
1
  6
Continuous
 62
     2
100
AcDbLine
 10
612.33890286195
 20
-457.2866007972926
 30
0.0
 11
646.8300715413993
 21
-422.1444508329448
 31
0.0
  0
SOLID
  5
228
330
225
100
AcDbEntity
  8
1
 62
     2
100
AcDbTrace
 10
644.7072967646104
 20
-424.9651154538296
 30
0.0
 11
644.0495868373721
 21
-424.3195890968611
 31
0.0
 12
646.8300715413993
 22
-422.1444508329448
 32
0.0
 13
646.8300715413993
 23
-422.1444508329448
 33
0.0
  0
SOLID
  5
229
330
225
100
AcDbEntity
  8
1
 62
     2
100
AcDbTrace
 10
662.2616934804034
 20
-405.7637498104572
 30
0.0
 11
662.9194034076418
 21
-406.4092761674257
 31
0.0
 12
660.1389187036145
 22
-408.584414431342
 32
0.0
 13
660.1389187036145
 23
-408.584414431342
 33
0.0
  0
MTEXT
  5
22A
330
225
100
AcDbEntity
  8
1
 62
     2
100
AcDbMText
 10
610.9115306091497
 20
-455.8856695170594
 30
0.0
 40
3.5
 41
0.0
 71
     7
 72
     1
  1
cutter \U+00f83/4``
  7
CONVERTER_11
 11
0.700465640116601
 21
0.7136861264001426
 31
0.0
 73
     1
 44
0.60024009603842
  0
ENDBLK
  5
22C
330
225
100
AcDbEntity
  8
0
100
AcDbBlockEnd
  0
ENDSEC
  0
SECTION
  2
ENTITIES
  0
POINT
  5
47
330
1F
100
AcDbEntity
  8
1
 62
     3
 60
     1
100
AcDbPoint
 10
653.4844951225069
 20
-425.813941355487
 30
0.0
  0
POINT
  5
48
330
1F
100
AcDbEntity
  8
1
 62
     3
 60
     1
100
AcDbPoint
 10
653.4844951225069
 20
-404.813941355487
 30
0.0
  0
POINT
  5
49
330
1F
100
AcDbEntity
  8
1
 62
     3
 60
     1
100
AcDbPoint
 10
662.9844951225069
 20
-415.3644326321434
 30
0.0
  0
POINT
  5
4A
330
1F
100
AcDbEntity
  8
1
 62
     3
 60
     1
100
AcDbPoint
 10
354.866978637489
 20
-425.813941355487
 30
0.0
  0
POINT
  5
4B
330
1F
100
AcDbEntity
  8
1
 62
     3
 60
     1
100
AcDbPoint
 10
354.866978637489
 20
-404.813941355487
 30
0.0
  0
POINT
  5
4C
330
1F
100
AcDbEntity
  8
1
 62
     3
 60
     1
100
AcDbPoint
 10
354.866978637489
 20
-415.3644326321434
 30
0.0
  0
POINT
  5
4D
330
1F
100
AcDbEntity
  8
1
 62
     3
 60
     1
100
AcDbPoint
 10
447.9130706215899
 20
-415.0389726947182
 30
0.0
  0
POINT
  5
4E
330
1F
100
AcDbEntity
  8
1
 62
     3
 60
     1
100
AcDbPoint
 10
449.4130706215899
 20
-415.0389726947182
 30
0.0
  0
POINT
  5
4F
330
1F
100
AcDbEntity
  8
1
 62
     3
 60
     1
100
AcDbPoint
 10
447.9130706215899
 20
-404.0389726947182
 30
0.0
  0
POINT
  5
50
330
1F
100
AcDbEntity
  8
1
 62
     3
 60
     1
100
AcDbPoint
 10
449.4130706215899
 20
-404.0389726947182
 30
0.0
  0
POINT
  5
51
330
1F
100
AcDbEntity
  8
1
 62
     3
 60
     1
100
AcDbPoint
 10
451.1130706215895
 20
-404.0389726947182
 30
0.0
  0
POINT
  5
52
330
1F
100
AcDbEntity
  8
1
 62
     3
 60
     1
100
AcDbPoint
 10
449.6130706215895
 20
-404.0389726947182
 30
0.0
  0
POINT
  5
53
330
1F
100
AcDbEntity
  8
1
 62
     3
 60
     1
100
AcDbPoint
 10
450.3630706215895
 20
-404.0389726947182
 30
0.0
  0
POINT
  5
54
330
1F
100
AcDbEntity
  8
1
 62
     3
 60
     1
100
AcDbPoint
 10
336.166978637489
 20
-415.3644326321434
 30
0.0
  0
POINT
  5
55
330
1F
100
AcDbEntity
  8
1
 62
     3
 60
     1
100
AcDbPoint
 10
364.366978637489
 20
-415.3644326321434
 30
0.0
  0
POINT
  5
56
330
1F
100
AcDbEntity
  8
1
 62
     3
 60
     1
100
AcDbPoint
 10
364.366978637489
 20
-283.5644326321433
 30
0.0
  0
POINT
  5
57
330
1F
100
AcDbEntity
  8
1
 62
     3
 60
     1
100
AcDbPoint
 10
336.166978637489
 20
-283.5644326321433
 30
0.0
  0
POINT
  5
58
330
1F
100
AcDbEntity
  8
1
 62
     3
 60
     1
100
AcDbPoint
 10
350.266978637489
 20
-283.5644326321433
 30
0.0
  0
POINT
  5
59
330
1F
100
AcDbEntity
  8
1
 62
     3
 60
     1
100
AcDbPoint
 10
350.266978637489
 20
-415.3644326321434
 30
0.0
  0
POINT
  5
5A
330
1F
100
AcDbEntity
  8
1
 62
     3
 60
     1
100
AcDbPoint
 10
388.756935069835
 20
-349.4644326321434
 30
0.0
  0
LINE
  5
5B
330
1F
100
AcDbEntity
  8
1
  6
DOT_CENTER
 62
     2
100
AcDbLine
 10
653.4844951225069
 20
-404.813941355487
 30
0.0
 11
653.4844951225069
 21
-425.813941355487
 31
0.0
  0
LINE
  5
5C
330
1F
100
AcDbEntity
  8
1
  6
DOT_CENTER
 62
     2
100
AcDbLine
 10
354.866978637489
 20
-404.813941355487
 30
0.0
 11
354.866978637489
 21
-425.813941355487
 31
0.0
  0
LINE
  5
5D
330
1F
100
AcDbEntity
  8
1
  6
Continuous
 62
     2
100
AcDbLine
 10
425.7130706215896
 20
-330.0
 30
0.0
 11
507.7130706215897
 21
-330.0
 31
0.0
  0
LINE
  5
5E
330
1F
100
AcDbEntity
  8
1
  6
DOT_CENTER
 62
     2
100
AcDbLine
 10
447.9130706215899
 20
-415.0389726947182
 30
0.0
 11
447.9130706215899
 21
-421.0389726947183
 31
0.0
  0
LINE
  5
5F
330
1F
100
AcDbEntity
  8
1
  6
DOT_CENTER
 62
     2
100
AcDbLine
 10
449.4130706215899
 20
-415.0389726947182
 30
0.0
 11
449.4130706215899
 21
-421.0389726947183
 31
0.0
  0
LINE
  5
60
330
1F
100
AcDbEntity
  8
1
  6
DOT_CENTER
 62
     2
100
AcDbLine
 10
449.4130706215899
 20
-415.0389726947182
 30
0.0
 11
447.9130706215899
 21
-415.0389726947182
 31
0.0
  0
LINE
  5
61
330
1F
100
AcDbEntity
  8
1
  6
DOT_CENTER
 62
     2
100
AcDbLine
 10
447.9130706215899
 20
-404.0389726947182
 30
0.0
 11
447.9130706215899
 21
-415.0389726947182
 31
0.0
  0
LINE
  5
62
330
1F
100
AcDbEntity
  8
1
  6
DOT_CENTER
 62
     2
100
AcDbLine
 10
449.4130706215899
 20
-404.0389726947182
 30
0.0
 11
449.4130706215899
 21
-415.0389726947182
 31
0.0
  0
LINE
  5
63
330
1F
100
AcDbEntity
  8
1
  6
DOT_CENTER
 62
     2
100
AcDbLine
 10
449.4130706215899
 20
-404.0389726947182
 30
0.0
 11
447.9130706215899
 21
-404.0389726947182
 31
0.0
  0
LINE
  5
64
330
1F
100
AcDbEntity
  8
1
  6
Continuous
 62
     2
100
AcDbLine
 10
457.6821900166337
 20
-393.0389726947182
 30
0.0
 11
446.6730771179263
 21
-351.6644638630726
 31
0.0
  0
LINE
  5
65
330
1F
100
AcDbEntity
  8
1
  6
PHANTOM
 62
     2
100
AcDbLine
 10
529.9130706215898
 20
-417.538972694718
 30
0.0
 11
529.9130706215898
 21
-393.5389726947179
 31
0.0
  0
LINE
  5
66
330
1F
100
AcDbEntity
  8
1
  6
Continuous
 62
     7
100
AcDbLine
 10
519.9130706215896
 20
-417.538972694718
 30
0.0
 11
529.9130706215898
 21
-417.538972694718
 31
0.0
  0
LINE
  5
67
330
1F
100
AcDbEntity
  8
1
  6
PHANTOM
 62
     2
100
AcDbLine
 10
529.9130706215898
 20
-393.5389726947179
 30
0.0
 11
529.9130706215898
 21
-381.5389726947179
 31
0.0
  0
LINE
  5
68
330
1F
100
AcDbEntity
  8
1
  6
Continuous
 62
     7
100
AcDbLine
 10
519.9130706215898
 20
-393.5389726947179
 30
0.0
 11
519.9130706215898
 21
-389.5389726947179
 31
0.0
  0
LINE
  5
69
330
1F
100
AcDbEntity
  8
1
  6
Continuous
 62
     7
100
AcDbLine
 10
519.9130706215898
 20
-393.5389726947179
 30
0.0
 11
529.9130706215898
 21
-393.5389726947179
 31
0.0
  0
LINE
  5
6A
330
1F
100
AcDbEntity
  8
1
  6
Continuous
 62
     2
100
AcDbLine
 10
425.7130706215896
 20
-335.0000000000001
 30
0.0
 11
507.7130706215897
 21
-335.0000000000001
 31
0.0
  0
LINE
  5
6B
330
1F
100
AcDbEntity
  8
1
  6
Continuous
 62
     2
100
AcDbLine
 10
448.7130706215896
 20
-408.7165713632533
 30
0.0
 11
425.7130706215896
 21
-335.0000000000001
 31
0.0
  0
LINE
  5
6C
330
1F
100
AcDbEntity
  8
1
  6
DOT_CENTER
 62
     2
100
AcDbLine
 10
484.231570255288
 20
-403.5389726947179
 30
0.0
 11
448.2613936555874
 21
-403.5389726947179
 31
0.0
  0
LINE
  5
6D
330
1F
100
AcDbEntity
  8
1
  6
Continuous
 62
     2
100
AcDbLine
 10
446.6730771179263
 20
-351.6644638630726
 30
0.0
 11
493.1521293483387
 21
-351.6644638630726
 31
0.0
  0
LINE
  5
6E
330
1F
100
AcDbEntity
  8
1
  6
DOT_CENTER
 62
     2
100
AcDbLine
 10
480.9130706215899
 20
-418.538972694718
 30
0.0
 11
480.9130706215899
 21
-389.0389726947179
 31
0.0
  0
LINE
  5
6F
330
1F
100
AcDbEntity
  8
1
  6
Continuous
 62
     7
100
AcDbLine
 10
480.9130706215899
 20
-389.438972694718
 30
0.0
 11
480.9130706215899
 21
-417.6389726947181
 31
0.0
  0
LINE
  5
70
330
1F
100
AcDbEntity
  8
1
  6
Continuous
 62
     7
100
AcDbLine
 10
482.4130706215899
 20
-389.438972694718
 30
0.0
 11
482.4130706215899
 21
-417.6389726947181
 31
0.0
  0
LINE
  5
71
330
1F
100
AcDbEntity
  8
1
  6
Continuous
 62
     7
100
AcDbLine
 10
480.9130706215899
 20
-389.438972694718
 30
0.0
 11
482.4130706215899
 21
-389.438972694718
 31
0.0
  0
LINE
  5
72
330
1F
100
AcDbEntity
  8
1
  6
Continuous
 62
     7
100
AcDbLine
 10
480.9130706215899
 20
-389.438972694718
 30
0.0
 11
480.9130706215899
 21
-365.0389726947179
 31
0.0
  0
LINE
  5
73
330
1F
100
AcDbEntity
  8
1
  6
Continuous
 62
     7
100
AcDbLine
 10
480.9130706215899
 20
-420.0389726947178
 30
0.0
 11
480.9130706215899
 21
-417.6389726947181
 31
0.0
  0
LINE
  5
74
330
1F
100
AcDbEntity
  8
1
  6
Continuous
 62
     7
100
AcDbLine
 10
482.4130706215899
 20
-417.6389726947181
 30
0.0
 11
482.4130706215899
 21
-420.0389726947178
 31
0.0
  0
LINE
  5
75
330
1F
100
AcDbEntity
  8
1
  6
Continuous
 62
     7
100
AcDbLine
 10
482.4130706215899
 20
-379.5389726947179
 30
0.0
 11
482.4130706215899
 21
-389.438972694718
 31
0.0
  0
LINE
  5
76
330
1F
100
AcDbEntity
  8
1
  6
Continuous
 62
     7
100
AcDbLine
 10
495.9130706215899
 20
-376.0389726947179
 30
0.0
 11
495.9130706215898
 21
-345.9462698570174
 31
0.0
  0
LINE
  5
77
330
1F
100
AcDbEntity
  8
1
  6
Continuous
 62
     7
100
AcDbLine
 10
497.4130706215899
 20
-376.5389726947179
 30
0.0
 11
497.4130706215898
 21
-345.9462698570174
 31
0.0
  0
LINE
  5
78
330
1F
100
AcDbEntity
  8
1
  6
Continuous
 62
     7
100
AcDbLine
 10
493.4022072694522
 20
-378.5389726947179
 30
0.0
 11
495.4130706215899
 21
-378.5389726947179
 31
0.0
  0
LINE
  5
79
330
1F
100
AcDbEntity
  8
1
  6
Continuous
 62
     7
100
AcDbLine
 10
494.053819955873
 20
-377.0389726947179
 30
0.0
 11
494.9130706215899
 21
-377.0389726947179
 31
0.0
  0
LINE
  5
7A
330
1F
100
AcDbEntity
  8
1
  6
Continuous
 62
     7
100
AcDbLine
 10
495.8619593610235
 20
-365.4272012623717
 30
0.0
 11
493.0878941295838
 21
-375.7801536496154
 31
0.0
  0
LINE
  5
7B
330
1F
100
AcDbEntity
  8
1
  6
Continuous
 62
     7
100
AcDbLine
 10
482.4130706215899
 20
-363.538972694718
 30
0.0
 11
494.4130706215899
 21
-363.5389726947179
 31
0.0
  0
LINE
  5
7C
330
1F
100
AcDbEntity
  8
1
  6
Continuous
 62
     7
100
AcDbLine
 10
494.2444208483139
 20
-365.6683822172693
 30
0.0
 11
493.4011719819335
 21
-368.8154298300254
 31
0.0
  0
LINE
  5
7D
330
1F
100
AcDbEntity
  8
1
  6
Continuous
 62
     7
100
AcDbLine
 10
482.9130706215899
 20
-365.0389726947179
 30
0.0
 11
485.4130706215899
 21
-365.0389726947179
 31
0.0
  0
LINE
  5
7E
330
1F
100
AcDbEntity
  8
1
  6
Continuous
 62
     7
100
AcDbLine
 10
482.4130706215899
 20
-379.5389726947179
 30
0.0
 11
482.4130706215899
 21
-368.0389726947179
 31
0.0
  0
LINE
  5
7F
330
1F
100
AcDbEntity
  8
1
  6
Continuous
 62
     7
100
AcDbLine
 10
484.4130706215899
 20
-381.5389726947179
 30
0.0
 11
485.9130706215898
 21
-381.5389726947179
 31
0.0
  0
LINE
  5
80
330
1F
100
AcDbEntity
  8
1
  6
Continuous
 62
     7
100
AcDbLine
 10
485.4130706215899
 20
-365.0389726947179
 30
0.0
 11
490.5033945030665
 21
-365.0389726947179
 31
0.0
  0
LINE
  5
81
330
1F
100
AcDbEntity
  8
1
  6
Continuous
 62
     7
100
AcDbLine
 10
482.4130706215899
 20
-368.0389726947179
 30
0.0
 11
482.4130706215899
 21
-365.5389726947179
 31
0.0
  0
LINE
  5
82
330
1F
100
AcDbEntity
  8
1
  6
Continuous
 62
     7
100
AcDbLine
 10
490.5033945030665
 20
-365.0389726947179
 30
0.0
 11
493.7614579351692
 21
-365.0389726947179
 31
0.0
  0
LINE
  5
83
330
1F
100
AcDbEntity
  8
1
  6
Continuous
 62
     7
100
AcDbLine
 10
493.4011719819335
 20
-368.8154298300254
 30
0.0
 11
491.4703556168741
 21
-376.021334604513
 31
0.0
  0
LINE
  5
84
330
1F
100
AcDbEntity
  8
1
  6
Continuous
 62
     7
100
AcDbLine
 10
484.4130706215899
 20
-380.5389726947179
 30
0.0
 11
492.2189913128324
 21
-380.5389726947179
 31
0.0
  0
LINE
  5
85
330
1F
100
AcDbEntity
  8
1
  6
Continuous
 62
     7
100
AcDbLine
 10
483.4130706215899
 20
-379.5389726947179
 30
0.0
 11
483.4130706215899
 21
-368.0389726947179
 31
0.0
  0
LINE
  5
86
330
1F
100
AcDbEntity
  8
1
  6
Continuous
 62
     7
100
AcDbLine
 10
485.4130706215899
 20
-366.0389726947179
 30
0.0
 11
490.5033945030665
 21
-366.0389726947179
 31
0.0
  0
LINE
  5
87
330
1F
100
AcDbEntity
  8
1
  6
Continuous
 62
     7
100
AcDbLine
 10
492.4352461556447
 20
-368.556610784923
 30
0.0
 11
490.5044297905849
 21
-375.7625155594104
 31
0.0
  0
LINE
  5
88
330
1F
100
AcDbEntity
  8
1
  6
Continuous
 62
     7
100
AcDbLine
 10
442.4130706215899
 20
-412.5389726947179
 30
0.0
 11
442.4130706215899
 21
-420.0389726947179
 31
0.0
  0
LINE
  5
89
330
1F
100
AcDbEntity
  8
1
  6
Continuous
 62
     7
100
AcDbLine
 10
444.9130706215899
 20
-422.5389726947179
 30
0.0
 11
479.9130706215899
 21
-422.5389726947178
 31
0.0
  0
LINE
  5
8A
330
1F
100
AcDbEntity
  8
1
  6
Continuous
 62
     7
100
AcDbLine
 10
479.9130706215899
 20
-421.0389726947178
 30
0.0
 11
447.9130706215899
 21
-421.0389726947183
 31
0.0
  0
LINE
  5
8B
330
1F
100
AcDbEntity
  8
1
  6
Continuous
 62
     7
100
AcDbLine
 10
443.9130706215899
 20
-420.0389726947179
 30
0.0
 11
443.9130706215899
 21
-412.5389726947179
 31
0.0
  0
LINE
  5
8C
330
1F
100
AcDbEntity
  8
1
  6
Continuous
 62
     7
100
AcDbLine
 10
442.4130706215899
 20
-412.5389726947179
 30
0.0
 11
443.9130706215899
 21
-412.5389726947179
 31
0.0
  0
LINE
  5
8D
330
1F
100
AcDbEntity
  8
1
  6
Continuous
 62
     7
100
AcDbLine
 10
482.4130706215899
 20
-417.6389726947181
 30
0.0
 11
480.9130706215899
 21
-417.6389726947181
 31
0.0
  0
LINE
  5
8E
330
1F
100
AcDbEntity
  8
1
  6
DOT_CENTER
 62
     2
100
AcDbLine
 10
522.3692746036648
 20
-403.5389726947179
 30
0.0
 11
484.231570255288
 21
-403.5389726947179
 31
0.0
  0
LINE
  5
8F
330
1F
100
AcDbEntity
  8
1
  6
Continuous
 62
     7
100
AcDbLine
 10
495.9130706215896
 20
-417.5389726947177
 30
0.0
 11
519.9130706215896
 21
-417.538972694718
 31
0.0
  0
LINE
  5
90
330
1F
100
AcDbEntity
  8
1
  6
Continuous
 62
     7
100
AcDbLine
 10
495.9130706215898
 20
-389.5389726947177
 30
0.0
 11
485.9130706215898
 21
-389.5389726947178
 31
0.0
  0
LINE
  5
91
330
1F
100
AcDbEntity
  8
1
  6
Continuous
 62
     7
100
AcDbLine
 10
495.9130706215898
 20
-389.5389726947177
 30
0.0
 11
495.9130706215896
 21
-417.5389726947177
 31
0.0
  0
LINE
  5
92
330
1F
100
AcDbEntity
  8
1
  6
Continuous
 62
     7
100
AcDbLine
 10
529.9130706215898
 20
-421.5389726947179
 30
0.0
 11
485.9130706215896
 21
-421.5389726947179
 31
0.0
  0
LINE
  5
93
330
1F
100
AcDbEntity
  8
1
  6
PHANTOM
 62
     2
100
AcDbLine
 10
529.9130706215898
 20
-421.5389726947179
 30
0.0
 11
529.9130706215898
 21
-417.538972694718
 31
0.0
  0
LINE
  5
94
330
1F
100
AcDbEntity
  8
1
  6
Continuous
 62
     7
100
AcDbLine
 10
485.9130706215896
 20
-421.5389726947179
 30
0.0
 11
485.9130706215896
 21
-417.5389726947177
 31
0.0
  0
LINE
  5
95
330
1F
100
AcDbEntity
  8
1
  6
Continuous
 62
     7
100
AcDbLine
 10
485.9130706215896
 20
-417.5389726947177
 30
0.0
 11
495.9130706215896
 21
-417.5389726947177
 31
0.0
  0
LINE
  5
96
330
1F
100
AcDbEntity
  8
1
  6
Continuous
 62
     7
100
AcDbLine
 10
519.9130706215896
 20
-417.538972694718
 30
0.0
 11
519.9130706215898
 21
-393.5389726947179
 31
0.0
  0
LINE
  5
97
330
1F
100
AcDbEntity
  8
1
  6
Continuous
 62
     7
100
AcDbLine
 10
519.9130706215898
 20
-389.5389726947179
 30
0.0
 11
495.9130706215898
 21
-389.5389726947177
 31
0.0
  0
LINE
  5
98
330
1F
100
AcDbEntity
  8
1
  6
Continuous
 62
     7
100
AcDbLine
 10
485.9130706215898
 20
-389.5389726947178
 30
0.0
 11
485.9130706215898
 21
-381.5389726947179
 31
0.0
  0
LINE
  5
99
330
1F
100
AcDbEntity
  8
1
  6
Continuous
 62
     7
100
AcDbLine
 10
485.9130706215898
 20
-381.5389726947179
 30
0.0
 11
529.9130706215898
 21
-381.5389726947179
 31
0.0
  0
LINE
  5
9A
330
1F
100
AcDbEntity
  8
1
  6
PHANTOM
 62
     2
100
AcDbLine
 10
529.9130706215898
 20
-381.5389726947179
 30
0.0
 11
529.9130706215898
 21
-379.5345026950272
 31
0.0
  0
LINE
  5
9B
330
1F
100
AcDbEntity
  8
1
  6
PHANTOM
 62
     2
100
AcDbLine
 10
529.9130706215898
 20
-423.3147033018214
 30
0.0
 11
529.9130706215898
 21
-421.5389726947179
 31
0.0
  0
LINE
  5
9C
330
1F
100
AcDbEntity
  8
1
  6
Continuous
 62
     7
100
AcDbLine
 10
485.9130706215896
 20
-417.5389726947177
 30
0.0
 11
485.9130706215898
 21
-389.5389726947178
 31
0.0
  0
LINE
  5
9D
330
1F
100
AcDbEntity
  8
1
  6
Continuous
 62
     7
100
AcDbLine
 10
459.9130706215896
 20
-421.0389726947182
 30
0.0
 11
469.4130706215896
 21
-421.0389726947182
 31
0.0
  0
LINE
  5
9E
330
1F
100
AcDbEntity
  8
1
  6
Continuous
 62
     7
100
AcDbLine
 10
480.9130706215896
 20
-386.0389726947182
 30
0.0
 11
480.9130706215896
 21
-418.0389726947182
 31
0.0
  0
LINE
  5
9F
330
1F
100
AcDbEntity
  8
1
  6
DOT_CENTER
 62
     2
100
AcDbLine
 10
447.91307062159
 20
-395.7292134696883
 30
0.0
 11
447.9130706215899
 21
-404.0389726947182
 31
0.0
  0
LINE
  5
A0
330
1F
100
AcDbEntity
  8
1
  6
DOT_CENTER
 62
     2
100
AcDbLine
 10
451.1130706215895
 20
-404.0389726947182
 30
0.0
 11
451.1130706215894
 21
-415.0389726947182
 31
0.0
  0
LINE
  5
A1
330
1F
100
AcDbEntity
  8
1
  6
DOT_CENTER
 62
     2
100
AcDbLine
 10
451.1130706215894
 20
-415.0389726947182
 30
0.0
 11
449.6130706215895
 21
-415.0389726947182
 31
0.0
  0
LINE
  5
A2
330
1F
100
AcDbEntity
  8
1
  6
DOT_CENTER
 62
     2
100
AcDbLine
 10
449.6130706215895
 20
-415.0389726947182
 30
0.0
 11
449.6130706215895
 21
-404.0389726947182
 31
0.0
  0
LINE
  5
A3
330
1F
100
AcDbEntity
  8
1
  6
DOT_CENTER
 62
     2
100
AcDbLine
 10
449.6130706215895
 20
-404.0389726947182
 30
0.0
 11
451.1130706215895
 21
-404.0389726947182
 31
0.0
  0
LINE
  5
A4
330
1F
100
AcDbEntity
  8
1
  6
DOT_CENTER
 62
     2
100
AcDbLine
 10
477.9130706215898
 20
-388.038972694718
 30
0.0
 11
480.9130706215896
 21
-388.038972694718
 31
0.0
  0
LINE
  5
A5
330
1F
100
AcDbEntity
  8
1
  6
Continuous
 62
     7
100
AcDbLine
 10
480.9130706215896
 20
-388.038972694718
 30
0.0
 11
480.9130706215896
 21
-386.538972694718
 31
0.0
  0
LINE
  5
A6
330
1F
100
AcDbEntity
  8
1
  6
DOT_CENTER
 62
     2
100
AcDbLine
 10
480.9130706215896
 20
-386.538972694718
 30
0.0
 11
477.4630706215896
 21
-386.538972694718
 31
0.0
  0
LINE
  5
A7
330
1F
100
AcDbEntity
  8
1
  6
DOT_CENTER
 62
     2
100
AcDbLine
 10
477.9130706215898
 20
-388.038972694718
 30
0.0
 11
449.9130706215899
 21
-388.038972694718
 31
0.0
  0
LINE
  5
A8
330
1F
100
AcDbEntity
  8
1
  6
Continuous
 62
     7
100
AcDbLine
 10
444.9130706215899
 20
-421.0389726947183
 30
0.0
 11
449.4130706215899
 21
-421.0389726947183
 31
0.0
  0
LINE
  5
A9
330
1F
100
AcDbEntity
  8
1
  6
DOT_CENTER
 62
     2
100
AcDbLine
 10
449.4130706215899
 20
-388.538972694718
 30
0.0
 11
449.4130706215899
 21
-404.0389726947182
 31
0.0
  0
LINE
  5
AA
330
1F
100
AcDbEntity
  8
1
  6
DOT_CENTER
 62
     2
100
AcDbLine
 10
477.4630706215896
 20
-386.538972694718
 30
0.0
 11
449.9130706215899
 21
-386.538972694718
 31
0.0
  0
LINE
  5
AB
330
1F
100
AcDbEntity
  8
1
  6
DOT_CENTER
 62
     2
100
AcDbLine
 10
447.9130706215899
 20
-388.538972694718
 30
0.0
 11
447.91307062159
 21
-395.7292134696883
 31
0.0
  0
LINE
  5
AC
330
1F
100
AcDbEntity
  8
1
  6
Continuous
 62
     7
100
AcDbLine
 10
449.4130706215899
 20
-421.0389726947183
 30
0.0
 11
477.9130706215897
 21
-421.0389726947182
 31
0.0
  0
LINE
  5
AD
330
1F
100
AcDbEntity
  8
1
  6
DOT_CENTER
 62
     2
100
AcDbLine
 10
388.756935069835
 20
-349.4644326321434
 30
0.0
 11
397.6879440254592
 21
-349.4644326321434
 31
0.0
  0
LINE
  5
AE
330
1F
100
AcDbEntity
  8
1
  6
DOT_CENTER
 62
     2
100
AcDbLine
 10
328.424036656847
 20
-349.4644326321434
 30
0.0
 11
388.756935069835
 21
-349.4644326321434
 31
0.0
  0
LINE
  5
AF
330
1F
100
AcDbEntity
  8
1
  6
DOT_CENTER
 62
     2
100
AcDbLine
 10
350.266978637489
 20
-266.9939651415706
 30
0.0
 11
350.266978637489
 21
-434.1066873512019
 31
0.0
  0
LINE
  5
B0
330
1F
100
AcDbEntity
  8
1
  6
Continuous
 62
     7
100
AcDbLine
 10
364.366978637489
 20
-405.9644326321431
 30
0.0
 11
364.366978637489
 21
-413.4644326321437
 31
0.0
  0
LINE
  5
B1
330
1F
100
AcDbEntity
  8
1
  6
Continuous
 62
     7
100
AcDbLine
 10
336.166978637489
 20
-405.9644326321431
 30
0.0
 11
336.166978637489
 21
-413.4644326321437
 31
0.0
  0
LINE
  5
B2
330
1F
100
AcDbEntity
  8
1
  6
Continuous
 62
     7
100
AcDbLine
 10
336.166978637489
 20
-283.5644326321433
 30
0.0
 11
336.166978637489
 21
-312.4644326321434
 31
0.0
  0
LINE
  5
B3
330
1F
100
AcDbEntity
  8
1
  6
Continuous
 62
     7
100
AcDbLine
 10
364.366978637489
 20
-283.5644326321433
 30
0.0
 11
364.3669786374891
 21
-312.4644326321434
 31
0.0
  0
LINE
  5
B4
330
1F
100
AcDbEntity
  8
1
  6
Continuous
 62
     7
100
AcDbLine
 10
336.166978637489
 20
-349.4644326321434
 30
0.0
 11
336.166978637489
 21
-384.4644326321434
 31
0.0
  0
LINE
  5
B5
330
1F
100
AcDbEntity
  8
1
  6
DOT_CENTER
 62
     2
100
AcDbLine
 10
328.4261963129801
 20
-249.4644326321434
 30
0.0
 11
331.166978637489
 21
-249.4644326321434
 31
0.0
  0
LINE
  5
B6
330
1F
100
AcDbEntity
  8
1
  6
DOT_CENTER
 62
     2
100
AcDbLine
 10
328.4261963129801
 20
-449.4644326321434
 30
0.0
 11
331.166978637489
 21
-449.4644326321434
 31
0.0
  0
LINE
  5
B7
330
1F
100
AcDbEntity
  8
1
  6
DOT_CENTER
 62
     2
100
AcDbLine
 10
394.732495401812
 20
-249.4644326321434
 30
0.0
 11
394.732495401812
 21
-314.4644326321434
 31
0.0
  0
LINE
  5
B8
330
1F
100
AcDbEntity
  8
1
  6
DOT_CENTER
 62
     2
100
AcDbLine
 10
394.732495401812
 20
-249.4644326321434
 30
0.0
 11
397.6879440254592
 21
-249.4644326321434
 31
0.0
  0
LINE
  5
B9
330
1F
100
AcDbEntity
  8
1
  6
DOT_CENTER
 62
     2
100
AcDbLine
 10
394.732495401812
 20
-449.4644326321434
 30
0.0
 11
397.6879440254592
 21
-449.4644326321434
 31
0.0
  0
LINE
  5
BA
330
1F
100
AcDbEntity
  8
1
  6
DOT_CENTER
 62
     2
100
AcDbLine
 10
394.732495401812
 20
-449.4644326321434
 30
0.0
 11
394.732495401812
 21
-452.7446307414014
 31
0.0
  0
LINE
  5
BB
330
1F
100
AcDbEntity
  8
1
  6
DOT_CENTER
 62
     2
100
AcDbLine
 10
394.732495401812
 20
-249.4644326321434
 30
0.0
 11
394.732495401812
 21
-247.0791510034687
 31
0.0
  0
LINE
  5
BC
330
1F
100
AcDbEntity
  8
1
  6
Continuous
 62
     7
100
AcDbLine
 10
331.166978637489
 20
-249.4644326321434
 30
0.0
 11
331.1669786374889
 21
-312.4644326321433
 31
0.0
  0
LINE
  5
BD
330
1F
100
AcDbEntity
  8
1
  6
DOT_CENTER
 62
     2
100
AcDbLine
 10
331.166978637489
 20
-249.4644326321434
 30
0.0
 11
341.1669786374889
 21
-249.4644326321434
 31
0.0
  0
LINE
  5
BE
330
1F
100
AcDbEntity
  8
1
  6
DOT_CENTER
 62
     2
100
AcDbLine
 10
331.166978637489
 20
-449.4644326321434
 30
0.0
 11
341.1669786374889
 21
-449.4644326321434
 31
0.0
  0
LINE
  5
BF
330
1F
100
AcDbEntity
  8
1
  6
Continuous
 62
     7
100
AcDbLine
 10
375.1669786374889
 20
-249.4644326321434
 30
0.0
 11
375.1669786374889
 21
-312.4644326321434
 31
0.0
  0
LINE
  5
C0
330
1F
100
AcDbEntity
  8
1
  6
DOT_CENTER
 62
     2
100
AcDbLine
 10
375.1669786374889
 20
-249.4644326321434
 30
0.0
 11
394.732495401812
 21
-249.4644326321434
 31
0.0
  0
LINE
  5
C1
330
1F
100
AcDbEntity
  8
1
  6
DOT_CENTER
 62
     2
100
AcDbLine
 10
375.1669786374889
 20
-449.4644326321434
 30
0.0
 11
394.732495401812
 21
-449.4644326321434
 31
0.0
  0
LINE
  5
C2
330
1F
100
AcDbEntity
  8
1
  6
Continuous
 62
     7
100
AcDbLine
 10
364.3669786374891
 20
-349.4644326321434
 30
0.0
 11
364.366978637489
 21
-384.4644326321434
 31
0.0
  0
LINE
  5
C3
330
1F
100
AcDbEntity
  8
1
  6
Continuous
 62
     7
100
AcDbLine
 10
331.1669786374889
 20
-312.4644326321433
 30
0.0
 11
331.166978637489
 21
-384.4644326321434
 31
0.0
  0
LINE
  5
C4
330
1F
100
AcDbEntity
  8
1
  6
Continuous
 62
     7
100
AcDbLine
 10
336.166978637489
 20
-312.4644326321434
 30
0.0
 11
336.166978637489
 21
-349.4644326321434
 31
0.0
  0
LINE
  5
C5
330
1F
100
AcDbEntity
  8
1
  6
Continuous
 62
     7
100
AcDbLine
 10
364.3669786374891
 20
-312.4644326321434
 30
0.0
 11
364.3669786374891
 21
-349.4644326321434
 31
0.0
  0
LINE
  5
C6
330
1F
100
AcDbEntity
  8
1
  6
Continuous
 62
     7
100
AcDbLine
 10
375.1669786374889
 20
-312.4644326321434
 30
0.0
 11
375.1669786374889
 21
-384.4644326321434
 31
0.0
  0
LINE
  5
C7
330
1F
100
AcDbEntity
  8
1
  6
Continuous
 62
     7
100
AcDbLine
 10
375.1669786374889
 20
-384.4644326321434
 30
0.0
 11
375.1669786374889
 21
-449.4644326321434
 31
0.0
  0
LINE
  5
C8
330
1F
100
AcDbEntity
  8
1
  6
Continuous
 62
     7
100
AcDbLine
 10
364.366978637489
 20
-384.4644326321434
 30
0.0
 11
364.366978637489
 21
-415.3644326321434
 31
0.0
  0
LINE
  5
C9
330
1F
100
AcDbEntity
  8
1
  6
Continuous
 62
     7
100
AcDbLine
 10
336.166978637489
 20
-384.4644326321434
 30
0.0
 11
336.166978637489
 21
-415.3644326321434
 31
0.0
  0
LINE
  5
CA
330
1F
100
AcDbEntity
  8
1
  6
Continuous
 62
     7
100
AcDbLine
 10
331.166978637489
 20
-384.4644326321434
 30
0.0
 11
331.166978637489
 21
-449.4644326321434
 31
0.0
  0
LINE
  5
CB
330
1F
100
AcDbEntity
  8
1
  6
DOT_CENTER
 62
     2
100
AcDbLine
 10
369.87726790945
 20
-415.3644326321434
 30
0.0
 11
364.366978637489
 21
-415.3644326321434
 31
0.0
  0
LINE
  5
CC
330
1F
100
AcDbEntity
  8
1
  6
DOT_CENTER
 62
     2
100
AcDbLine
 10
334.4478997502778
 20
-283.5644326321433
 30
0.0
 11
336.166978637489
 21
-283.5644326321433
 31
0.0
  0
LINE
  5
CD
330
1F
100
AcDbEntity
  8
1
  6
DOT_CENTER
 62
     2
100
AcDbLine
 10
350.166978637489
 20
-449.4644326321434
 30
0.0
 11
366.450484805019
 21
-449.4644326321434
 31
0.0
  0
LINE
  5
CE
330
1F
100
AcDbEntity
  8
1
  6
DOT_CENTER
 62
     2
100
AcDbLine
 10
350.1669786374889
 20
-249.4644326321434
 30
0.0
 11
375.1669786374889
 21
-249.4644326321434
 31
0.0
  0
LINE
  5
CF
330
1F
100
AcDbEntity
  8
1
  6
DASHED
 62
     2
100
AcDbLine
 10
332.666978637489
 20
-249.4644326321434
 30
0.0
 11
332.666978637489
 21
-312.4644326321434
 31
0.0
  0
LINE
  5
D0
330
1F
100
AcDbEntity
  8
1
  6
DASHED
 62
     2
100
AcDbLine
 10
332.666978637489
 20
-312.4644326321434
 30
0.0
 11
332.666978637489
 21
-384.4644326321434
 31
0.0
  0
LINE
  5
D1
330
1F
100
AcDbEntity
  8
1
  6
DASHED
 62
     2
100
AcDbLine
 10
332.666978637489
 20
-384.4644326321434
 30
0.0
 11
332.666978637489
 21
-449.4644326321434
 31
0.0
  0
LINE
  5
D2
330
1F
100
AcDbEntity
  8
1
  6
DASHED
 62
     2
100
AcDbLine
 10
341.1669786374889
 20
-249.4644326321434
 30
0.0
 11
341.1669786374889
 21
-272.7941030178746
 31
0.0
  0
LINE
  5
D3
330
1F
100
AcDbEntity
  8
1
  6
DOT_CENTER
 62
     2
100
AcDbLine
 10
341.1669786374889
 20
-249.4644326321434
 30
0.0
 11
350.1669786374889
 21
-249.4644326321434
 31
0.0
  0
LINE
  5
D4
330
1F
100
AcDbEntity
  8
1
  6
Continuous
 62
     7
100
AcDbLine
 10
341.1669786374889
 20
-272.7941030178746
 30
0.0
 11
341.1669786374889
 21
-312.4644326321433
 31
0.0
  0
LINE
  5
D5
330
1F
100
AcDbEntity
  8
1
  6
Continuous
 62
     7
100
AcDbLine
 10
341.1669786374889
 20
-312.4644326321433
 30
0.0
 11
341.1669786374889
 21
-384.4644326321434
 31
0.0
  0
LINE
  5
D6
330
1F
100
AcDbEntity
  8
1
  6
Continuous
 62
     7
100
AcDbLine
 10
341.1669786374889
 20
-384.4644326321434
 30
0.0
 11
341.1669786374889
 21
-426.1347622464123
 31
0.0
  0
LINE
  5
D7
330
1F
100
AcDbEntity
  8
1
  6
DASHED
 62
     2
100
AcDbLine
 10
341.1669786374889
 20
-426.1347622464123
 30
0.0
 11
341.1669786374889
 21
-449.4644326321434
 31
0.0
  0
LINE
  5
D8
330
1F
100
AcDbEntity
  8
1
  6
DOT_CENTER
 62
     2
100
AcDbLine
 10
341.1669786374889
 20
-449.4644326321434
 30
0.0
 11
350.166978637489
 21
-449.4644326321434
 31
0.0
  0
LINE
  5
D9
330
1F
100
AcDbEntity
  8
1
  6
DASHED
 62
     2
100
AcDbLine
 10
376.6669786374889
 20
-249.4644326321434
 30
0.0
 11
376.6669786374889
 21
-312.4644326321434
 31
0.0
  0
LINE
  5
DA
330
1F
100
AcDbEntity
  8
1
  6
DASHED
 62
     2
100
AcDbLine
 10
376.6669786374889
 20
-312.4644326321434
 30
0.0
 11
376.6669786374889
 21
-384.4644326321434
 31
0.0
  0
LINE
  5
DB
330
1F
100
AcDbEntity
  8
1
  6
DASHED
 62
     2
100
AcDbLine
 10
376.6669786374889
 20
-384.4644326321434
 30
0.0
 11
376.6669786374889
 21
-449.4644326321434
 31
0.0
  0
LINE
  5
DC
330
1F
100
AcDbEntity
  8
1
  6
DASHED
 62
     2
100
AcDbLine
 10
388.6669786374889
 20
-249.4644326321434
 30
0.0
 11
388.6669786374889
 21
-312.4644326321434
 31
0.0
  0
LINE
  5
DD
330
1F
100
AcDbEntity
  8
1
  6
DASHED
 62
     2
100
AcDbLine
 10
388.6669786374889
 20
-312.4644326321434
 30
0.0
 11
388.6669786374889
 21
-384.4644326321434
 31
0.0
  0
LINE
  5
DE
330
1F
100
AcDbEntity
  8
1
  6
DASHED
 62
     2
100
AcDbLine
 10
388.6669786374889
 20
-384.4644326321434
 30
0.0
 11
388.6669786374889
 21
-449.4644326321434
 31
0.0
  0
LINE
  5
DF
330
1F
100
AcDbEntity
  8
1
  6
DASHED
 62
     2
100
AcDbLine
 10
390.1669786374889
 20
-314.4644326321434
 30
0.0
 11
390.1669786374889
 21
-384.4644326321434
 31
0.0
  0
LINE
  5
E0
330
1F
100
AcDbEntity
  8
1
  6
DASHED
 62
     2
100
AcDbLine
 10
390.1669786374889
 20
-249.4644326321434
 30
0.0
 11
390.1669786374889
 21
-314.4644326321434
 31
0.0
  0
LINE
  5
E1
330
1F
100
AcDbEntity
  8
1
  6
DASHED
 62
     2
100
AcDbLine
 10
390.1669786374889
 20
-384.4644326321434
 30
0.0
 11
390.1669786374889
 21
-449.4644326321434
 31
0.0
  0
LINE
  5
E2
330
1F
100
AcDbEntity
  8
1
  6
DOT_CENTER
 62
     2
100
AcDbLine
 10
394.732495401812
 20
-384.4644326321434
 30
0.0
 11
394.732495401812
 21
-449.4644326321434
 31
0.0
  0
LINE
  5
E3
330
1F
100
AcDbEntity
  8
1
  6
DOT_CENTER
 62
     2
100
AcDbLine
 10
394.732495401812
 20
-314.4644326321434
 30
0.0
 11
394.732495401812
 21
-384.4644326321434
 31
0.0
  0
LINE
  5
E4
330
1F
100
AcDbEntity
  8
1
  6
DOT_CENTER
 62
     2
100
AcDbLine
 10
364.366978637489
 20
-283.5644326321433
 30
0.0
 11
369.87726790945
 21
-283.5644326321433
 31
0.0
  0
LINE
  5
E5
330
1F
100
AcDbEntity
  8
1
  6
DOT_CENTER
 62
     2
100
AcDbLine
 10
336.166978637489
 20
-283.5644326321433
 30
0.0
 11
364.366978637489
 21
-283.5644326321433
 31
0.0
  0
LINE
  5
E6
330
1F
100
AcDbEntity
  8
1
  6
DOT_CENTER
 62
     2
100
AcDbLine
 10
336.166978637489
 20
-415.3644326321434
 30
0.0
 11
334.4478997502778
 21
-415.3644326321434
 31
0.0
  0
LINE
  5
E7
330
1F
100
AcDbEntity
  8
1
  6
DOT_CENTER
 62
     2
100
AcDbLine
 10
364.366978637489
 20
-415.3644326321434
 30
0.0
 11
336.166978637489
 21
-415.3644326321434
 31
0.0
  0
LINE
  5
E8
330
1F
100
AcDbEntity
  8
1
  6
DOT_CENTER
 62
     2
100
AcDbLine
 10
643.6988380778413
 20
-349.4644326321434
 30
0.0
 11
678.4872376274622
 21
-349.4644326321434
 31
0.0
  0
LINE
  5
E9
330
1F
100
AcDbEntity
  8
1
  6
DOT_CENTER
 62
     2
100
AcDbLine
 10
659.9844951225069
 20
-326.0517557271631
 30
0.0
 11
659.9844951225069
 21
-372.0517557271631
 31
0.0
  0
LINE
  5
EA
330
1F
100
AcDbEntity
  8
1
  6
DOT_CENTER
 62
     2
100
AcDbLine
 10
648.2344951225069
 20
-418.4644326321434
 30
0.0
 11
652.7344951225069
 21
-418.4644326321434
 31
0.0
  0
LINE
  5
EB
330
1F
100
AcDbEntity
  8
1
  6
DOT_CENTER
 62
     2
100
AcDbLine
 10
663.2344951225069
 20
-418.4644326321434
 30
0.0
 11
667.7344951225069
 21
-418.4644326321434
 31
0.0
  0
LINE
  5
EC
330
1F
100
AcDbEntity
  8
1
  6
DOT_CENTER
 62
     2
100
AcDbLine
 10
665.4844951225069
 20
-420.7144326321435
 30
0.0
 11
665.4844951225069
 21
-416.2144326321434
 31
0.0
  0
LINE
  5
ED
330
1F
100
AcDbEntity
  8
1
  6
DOT_CENTER
 62
     2
100
AcDbLine
 10
652.7344951225069
 20
-280.4644326321434
 30
0.0
 11
648.2344951225069
 21
-280.4644326321434
 31
0.0
  0
LINE
  5
EE
330
1F
100
AcDbEntity
  8
1
  6
DOT_CENTER
 62
     2
100
AcDbLine
 10
650.4844951225069
 20
-278.2144326321434
 30
0.0
 11
650.4844951225069
 21
-282.7144326321434
 31
0.0
  0
LINE
  5
EF
330
1F
100
AcDbEntity
  8
1
  6
DOT_CENTER
 62
     2
100
AcDbLine
 10
665.4844951225069
 20
-282.7144326321434
 30
0.0
 11
665.4844951225069
 21
-278.2144326321434
 31
0.0
  0
LINE
  5
F0
330
1F
100
AcDbEntity
  8
1
  6
DOT_CENTER
 62
     2
100
AcDbLine
 10
667.7344951225069
 20
-280.4644326321434
 30
0.0
 11
663.2344951225069
 21
-280.4644326321434
 31
0.0
  0
LINE
  5
F1
330
1F
100
AcDbEntity
  8
1
  6
Continuous
 62
     7
100
AcDbLine
 10
553.271161628779
 20
-429.4644326321435
 30
0.0
 11
553.271161628779
 21
-386.4644326321434
 31
0.0
  0
LINE
  5
F2
330
1F
100
AcDbEntity
  8
1
  6
DOT_CENTER
 62
     2
100
AcDbLine
 10
598.2711616287792
 20
-449.4644326321435
 30
0.0
 11
598.2711616287792
 21
-386.4644326321434
 31
0.0
  0
LINE
  5
F3
330
1F
100
AcDbEntity
  8
1
  6
Continuous
 62
     7
100
AcDbLine
 10
587.2711616287792
 20
-414.9644326321436
 30
0.0
 11
587.2711616287792
 21
-386.4644326321435
 31
0.0
  0
LINE
  5
F4
330
1F
100
AcDbEntity
  8
1
  6
Continuous
 62
     7
100
AcDbLine
 10
553.271161628779
 20
-386.4644326321434
 30
0.0
 11
553.271161628779
 21
-312.4644326321434
 31
0.0
  0
LINE
  5
F5
330
1F
100
AcDbEntity
  8
1
  6
DOT_CENTER
 62
     2
100
AcDbLine
 10
598.2711616287792
 20
-386.4644326321434
 30
0.0
 11
598.2711616287792
 21
-369.4644326321434
 31
0.0
  0
LINE
  5
F6
330
1F
100
AcDbEntity
  8
1
  6
Continuous
 62
     7
100
AcDbLine
 10
587.2711616287792
 20
-386.4644326321435
 30
0.0
 11
587.2711616287792
 21
-369.4644326321434
 31
0.0
  0
LINE
  5
F7
330
1F
100
AcDbEntity
  8
1
  6
Continuous
 62
     7
100
AcDbLine
 10
635.9844951225069
 20
-249.4644326321434
 30
0.0
 11
635.9844951225069
 21
-312.4644326321434
 31
0.0
  0
LINE
  5
F8
330
1F
100
AcDbEntity
  8
1
  6
Continuous
 62
     7
100
AcDbLine
 10
643.9844951225069
 20
-386.4644326321434
 30
0.0
 11
643.9844951225069
 21
-312.4644326321434
 31
0.0
  0
LINE
  5
F9
330
1F
100
AcDbEntity
  8
1
  6
Continuous
 62
     7
100
AcDbLine
 10
675.9844951225069
 20
-249.4644326321434
 30
0.0
 11
675.9844951225069
 21
-312.4644326321434
 31
0.0
  0
LINE
  5
FA
330
1F
100
AcDbEntity
  8
1
  6
Continuous
 62
     7
100
AcDbLine
 10
671.9844951225069
 20
-386.4644326321434
 30
0.0
 11
671.9844951225069
 21
-312.4644326321434
 31
0.0
  0
LINE
  5
FB
330
1F
100
AcDbEntity
  8
1
  6
DOT_CENTER
 62
     2
100
AcDbLine
 10
675.9844951225069
 20
-249.4644326321434
 30
0.0
 11
678.4872376274622
 21
-249.4644326321434
 31
0.0
  0
LINE
  5
FC
330
1F
100
AcDbEntity
  8
1
  6
DOT_CENTER
 62
     2
100
AcDbLine
 10
675.9844951225069
 20
-449.4644326321435
 30
0.0
 11
678.4872376274622
 21
-449.4644326321435
 31
0.0
  0
LINE
  5
FD
330
1F
100
AcDbEntity
  8
1
  6
Continuous
 62
     7
100
AcDbLine
 10
675.9844951225069
 20
-386.4644326321434
 30
0.0
 11
675.9844951225069
 21
-449.4644326321435
 31
0.0
  0
LINE
  5
FE
330
1F
100
AcDbEntity
  8
1
  6
DOT_CENTER
 62
     2
100
AcDbLine
 10
635.9844951225069
 20
-249.4644326321434
 30
0.0
 11
675.9844951225069
 21
-249.4644326321434
 31
0.0
  0
LINE
  5
FF
330
1F
100
AcDbEntity
  8
1
  6
DOT_CENTER
 62
     2
100
AcDbLine
 10
635.9844951225069
 20
-449.4644326321435
 30
0.0
 11
675.9844951225069
 21
-449.4644326321435
 31
0.0
  0
LINE
  5
100
330
1F
100
AcDbEntity
  8
1
  6
Continuous
 62
     7
100
AcDbLine
 10
635.9844951225069
 20
-384.4644326321434
 30
0.0
 11
635.9844951225069
 21
-449.4644326321435
 31
0.0
  0
LINE
  5
101
330
1F
100
AcDbEntity
  8
1
  6
DOT_CENTER
 62
     2
100
AcDbLine
 10
633.8068219479691
 20
-249.4644326321434
 30
0.0
 11
635.9844951225069
 21
-249.4644326321434
 31
0.0
  0
LINE
  5
102
330
1F
100
AcDbEntity
  8
1
  6
DOT_CENTER
 62
     2
100
AcDbLine
 10
633.8068219479691
 20
-449.4644326321435
 30
0.0
 11
635.9844951225069
 21
-449.4644326321435
 31
0.0
  0
LINE
  5
103
330
1F
100
AcDbEntity
  8
1
  6
DOT_CENTER
 62
     2
100
AcDbLine
 10
593.2711616287792
 20
-249.4644326321434
 30
0.0
 11
601.4103240408448
 21
-249.4644326321434
 31
0.0
  0
LINE
  5
104
330
1F
100
AcDbEntity
  8
1
  6
DOT_CENTER
 62
     2
100
AcDbLine
 10
553.271161628779
 20
-249.4644326321434
 30
0.0
 11
598.2711616287792
 21
-249.4644326321434
 31
0.0
  0
LINE
  5
105
330
1F
100
AcDbEntity
  8
1
  6
DOT_CENTER
 62
     2
100
AcDbLine
 10
550.5884526862257
 20
-249.4644326321434
 30
0.0
 11
553.271161628779
 21
-249.4644326321434
 31
0.0
  0
LINE
  5
106
330
1F
100
AcDbEntity
  8
1
  6
DOT_CENTER
 62
     2
100
AcDbLine
 10
593.2711616287792
 20
-449.4644326321435
 30
0.0
 11
601.4103240408448
 21
-449.4644326321435
 31
0.0
  0
LINE
  5
107
330
1F
100
AcDbEntity
  8
1
  6
DOT_CENTER
 62
     2
100
AcDbLine
 10
553.271161628779
 20
-449.4644326321435
 30
0.0
 11
598.2711616287792
 21
-449.4644326321435
 31
0.0
  0
LINE
  5
108
330
1F
100
AcDbEntity
  8
1
  6
DOT_CENTER
 62
     2
100
AcDbLine
 10
550.5884526862257
 20
-449.4644326321435
 30
0.0
 11
553.271161628779
 21
-449.4644326321435
 31
0.0
  0
LINE
  5
109
330
1F
100
AcDbEntity
  8
1
  6
Continuous
 62
     7
100
AcDbLine
 10
553.271161628779
 20
-269.4644326321434
 30
0.0
 11
553.271161628779
 21
-249.4644326321434
 31
0.0
  0
LINE
  5
10A
330
1F
100
AcDbEntity
  8
1
  6
Continuous
 62
     7
100
AcDbLine
 10
563.2711616287789
 20
-269.4644326321434
 30
0.0
 11
553.271161628779
 21
-269.4644326321434
 31
0.0
  0
LINE
  5
10B
330
1F
100
AcDbEntity
  8
1
  6
Continuous
 62
     7
100
AcDbLine
 10
553.271161628779
 20
-312.4644326321434
 30
0.0
 11
553.271161628779
 21
-269.4644326321434
 31
0.0
  0
LINE
  5
10C
330
1F
100
AcDbEntity
  8
1
  6
Continuous
 62
     7
100
AcDbLine
 10
563.2711616287789
 20
-283.9644326321434
 30
0.0
 11
563.2711616287789
 21
-269.4644326321434
 31
0.0
  0
LINE
  5
10D
330
1F
100
AcDbEntity
  8
1
  6
Continuous
 62
     7
100
AcDbLine
 10
587.2711616287792
 20
-283.9644326321434
 30
0.0
 11
563.2711616287789
 21
-283.9644326321434
 31
0.0
  0
LINE
  5
10E
330
1F
100
AcDbEntity
  8
1
  6
Continuous
 62
     7
100
AcDbLine
 10
587.2711616287792
 20
-312.4644326321434
 30
0.0
 11
587.2711616287792
 21
-283.9644326321434
 31
0.0
  0
LINE
  5
10F
330
1F
100
AcDbEntity
  8
1
  6
Continuous
 62
     7
100
AcDbLine
 10
563.2711616287789
 20
-414.9644326321437
 30
0.0
 11
587.2711616287792
 21
-414.9644326321436
 31
0.0
  0
LINE
  5
110
330
1F
100
AcDbEntity
  8
1
  6
Continuous
 62
     7
100
AcDbLine
 10
563.2711616287789
 20
-429.4644326321435
 30
0.0
 11
563.2711616287789
 21
-414.9644326321437
 31
0.0
  0
LINE
  5
111
330
1F
100
AcDbEntity
  8
1
  6
Continuous
 62
     7
100
AcDbLine
 10
553.271161628779
 20
-429.4644326321435
 30
0.0
 11
563.2711616287789
 21
-429.4644326321435
 31
0.0
  0
LINE
  5
112
330
1F
100
AcDbEntity
  8
1
  6
Continuous
 62
     7
100
AcDbLine
 10
553.271161628779
 20
-449.4644326321435
 30
0.0
 11
553.271161628779
 21
-429.4644326321435
 31
0.0
  0
LINE
  5
113
330
1F
100
AcDbEntity
  8
1
  6
DOT_CENTER
 62
     2
100
AcDbLine
 10
598.2711616287792
 20
-312.4644326321434
 30
0.0
 11
598.2711616287792
 21
-249.4644326321434
 31
0.0
  0
LINE
  5
114
330
1F
100
AcDbEntity
  8
1
  6
DOT_CENTER
 62
     2
100
AcDbLine
 10
598.2711616287792
 20
-452.5773668142705
 30
0.0
 11
598.2711616287792
 21
-449.4644326321435
 31
0.0
  0
LINE
  5
115
330
1F
100
AcDbEntity
  8
1
  6
DOT_CENTER
 62
     2
100
AcDbLine
 10
598.2711616287792
 20
-247.4216327623225
 30
0.0
 11
598.2711616287792
 21
-249.4644326321434
 31
0.0
  0
LINE
  5
116
330
1F
100
AcDbEntity
  8
1
  6
DOT_CENTER
 62
     2
100
AcDbLine
 10
550.678345430946
 20
-349.4644326321434
 30
0.0
 11
600.2304235475382
 21
-349.4644326321434
 31
0.0
  0
LINE
  5
117
330
1F
100
AcDbEntity
  8
1
  6
Continuous
 62
     7
100
AcDbLine
 10
563.2711616287789
 20
-295.9644326321434
 30
0.0
 11
563.2711616287789
 21
-283.9644326321434
 31
0.0
  0
LINE
  5
118
330
1F
100
AcDbEntity
  8
1
  6
Continuous
 62
     7
100
AcDbLine
 10
563.2711616287789
 20
-403.9644326321437
 30
0.0
 11
563.2711616287789
 21
-414.9644326321437
 31
0.0
  0
LINE
  5
119
330
1F
100
AcDbEntity
  8
1
  6
DOT_CENTER
 62
     2
100
AcDbLine
 10
657.9844951225069
 20
-442.1787257274896
 30
0.0
 11
657.9844951225069
 21
-255.7727005590633
 31
0.0
  0
LINE
  5
11A
330
1F
100
AcDbEntity
  8
1
  6
Continuous
 62
     7
100
AcDbLine
 10
643.9844951225069
 20
-312.4644326321434
 30
0.0
 11
643.9844951225069
 21
-296.7144326321434
 31
0.0
  0
LINE
  5
11B
330
1F
100
AcDbEntity
  8
1
  6
Continuous
 62
     7
100
AcDbLine
 10
671.9844951225069
 20
-312.4644326321434
 30
0.0
 11
671.9844951225069
 21
-283.9644326321434
 31
0.0
  0
LINE
  5
11C
330
1F
100
AcDbEntity
  8
1
  6
Continuous
 62
     7
100
AcDbLine
 10
660.2055558379922
 20
-414.9644326321437
 30
0.0
 11
659.7531693949999
 21
-414.9644326321436
 31
0.0
  0
LINE
  5
11D
330
1F
100
AcDbEntity
  8
1
  6
DOT_CENTER
 62
     2
100
AcDbLine
 10
650.4844951225069
 20
-420.7144326321435
 30
0.0
 11
650.4844951225069
 21
-416.2144326321434
 31
0.0
  0
LINE
  5
11E
330
1F
100
AcDbEntity
  8
1
  6
DOT_CENTER
 62
     2
100
AcDbLine
 10
642.0492344041132
 20
-283.4644326321434
 30
0.0
 11
674.5701240964728
 21
-283.4644326321434
 31
0.0
  0
LINE
  5
11F
330
1F
100
AcDbEntity
  8
1
  6
DOT_CENTER
 62
     2
100
AcDbLine
 10
674.5701240964728
 20
-415.4644326321435
 30
0.0
 11
642.0492344041132
 21
-415.4644326321435
 31
0.0
  0
LINE
  5
120
330
1F
100
AcDbEntity
  8
1
  6
Continuous
 62
     7
100
AcDbLine
 10
675.9844951225069
 20
-312.4644326321434
 30
0.0
 11
675.9844951225069
 21
-386.4644326321434
 31
0.0
  0
LINE
  5
121
330
1F
100
AcDbEntity
  8
1
  6
Continuous
 62
     7
100
AcDbLine
 10
671.9844951225069
 20
-415.4644326321435
 30
0.0
 11
671.9844951225069
 21
-414.9644326321437
 31
0.0
  0
LINE
  5
122
330
1F
100
AcDbEntity
  8
1
  6
Continuous
 62
     7
100
AcDbLine
 10
643.9844951225069
 20
-415.4644326321435
 30
0.0
 11
643.9844951225069
 21
-414.9644326321436
 31
0.0
  0
LINE
  5
123
330
1F
100
AcDbEntity
  8
1
  6
Continuous
 62
     7
100
AcDbLine
 10
635.9844951225069
 20
-312.4644326321434
 30
0.0
 11
635.9844951225069
 21
-384.4644326321434
 31
0.0
  0
LINE
  5
124
330
1F
100
AcDbEntity
  8
1
  6
Continuous
 62
     7
100
AcDbLine
 10
671.9844951225069
 20
-283.9644326321434
 30
0.0
 11
671.9844951225069
 21
-283.4644326321434
 31
0.0
  0
LINE
  5
125
330
1F
100
AcDbEntity
  8
1
  6
Continuous
 62
     7
100
AcDbLine
 10
643.9844951225069
 20
-296.7144326321434
 30
0.0
 11
643.9844951225069
 21
-283.4644326321434
 31
0.0
  0
LINE
  5
126
330
1F
100
AcDbEntity
  8
1
  6
Continuous
 62
     7
100
AcDbLine
 10
655.9844951225069
 20
-283.9644326321434
 30
0.0
 11
659.9844951225069
 21
-283.9644326321434
 31
0.0
  0
LINE
  5
127
330
1F
100
AcDbEntity
  8
1
  6
Continuous
 62
     7
100
AcDbLine
 10
671.9844951225069
 20
-414.9644326321437
 30
0.0
 11
671.9844951225069
 21
-386.4644326321434
 31
0.0
  0
LINE
  5
128
330
1F
100
AcDbEntity
  8
1
  6
Continuous
 62
     7
100
AcDbLine
 10
643.9844951225069
 20
-414.9644326321436
 30
0.0
 11
643.9844951225069
 21
-402.9644326321436
 31
0.0
  0
LINE
  5
129
330
1F
100
AcDbEntity
  8
1
  6
Continuous
 62
     7
100
AcDbLine
 10
643.9844951225069
 20
-402.9644326321436
 30
0.0
 11
643.9844951225069
 21
-386.4644326321434
 31
0.0
  0
LINE
  5
12A
330
1F
100
AcDbEntity
  8
1
  6
Continuous
 62
     7
100
AcDbLine
 10
659.7531693949999
 20
-414.9644326321436
 30
0.0
 11
656.2158208500142
 21
-414.9644326321436
 31
0.0
  0
LINE
  5
12B
330
1F
100
AcDbEntity
  8
1
  6
Continuous
 62
     7
100
AcDbLine
 10
671.9844951225069
 20
-357.4644326321434
 30
0.0
 11
671.9844951225069
 21
-341.4644326321434
 31
0.0
  0
LINE
  5
12C
330
1F
100
AcDbEntity
  8
1
  6
Continuous
 62
     7
100
AcDbLine
 10
647.9844951225069
 20
-341.4644326321434
 30
0.0
 11
647.9844951225069
 21
-349.4644326321434
 31
0.0
  0
LINE
  5
12D
330
1F
100
AcDbEntity
  8
1
  6
Continuous
 62
     7
100
AcDbLine
 10
647.9844951225069
 20
-349.4644326321434
 30
0.0
 11
647.9844951225069
 21
-357.4644326321434
 31
0.0
  0
LINE
  5
12E
330
1F
100
AcDbEntity
  8
1
  6
Continuous
 62
     7
100
AcDbLine
 10
587.2711616287792
 20
-329.4644326321434
 30
0.0
 11
598.2711616287792
 21
-329.4644326321434
 31
0.0
  0
LINE
  5
12F
330
1F
100
AcDbEntity
  8
1
  6
DOT_CENTER
 62
     2
100
AcDbLine
 10
598.2711616287792
 20
-329.4644326321434
 30
0.0
 11
598.2711616287792
 21
-312.4644326321434
 31
0.0
  0
LINE
  5
130
330
1F
100
AcDbEntity
  8
1
  6
Continuous
 62
     7
100
AcDbLine
 10
587.2711616287792
 20
-329.4644326321434
 30
0.0
 11
587.2711616287792
 21
-312.4644326321434
 31
0.0
  0
LINE
  5
131
330
1F
100
AcDbEntity
  8
1
  6
Continuous
 62
     7
100
AcDbLine
 10
598.2711616287792
 20
-369.4644326321434
 30
0.0
 11
587.2711616287792
 21
-369.4644326321434
 31
0.0
  0
LINE
  5
132
330
1F
100
AcDbEntity
  8
1
  6
DOT_CENTER
 62
     2
100
AcDbLine
 10
598.2711616287792
 20
-369.4644326321434
 30
0.0
 11
598.2711616287792
 21
-329.4644326321434
 31
0.0
  0
LINE
  5
133
330
1F
100
AcDbEntity
  8
1
  6
Continuous
 62
     7
100
AcDbLine
 10
587.2711616287792
 20
-369.4644326321434
 30
0.0
 11
587.2711616287792
 21
-329.4644326321434
 31
0.0
  0
ARC
  5
134
330
1F
100
AcDbEntity
  8
1
  6
Continuous
 62
     7
100
AcDbCircle
 10
484.4130706215899
 20
-379.5389726947179
 30
0.0
 40
2.0
100
AcDbArc
 50
180.0
 51
270.0
  0
ARC
  5
135
330
1F
100
AcDbEntity
  8
1
  6
Continuous
 62
     7
100
AcDbCircle
 10
492.2189913128324
 20
-379.9389726947179
 30
0.0
 40
1.600000000000023
100
AcDbArc
 50
270.0
 51
70.81186354628234
  0
ARC
  5
136
330
1F
100
AcDbEntity
  8
1
  6
Continuous
 62
     7
100
AcDbCircle
 10
485.4130706215899
 20
-368.0389726947179
 30
0.0
 40
3.0
100
AcDbArc
 50
90.0
 51
180.0
  0
ARC
  5
137
330
1F
100
AcDbEntity
  8
1
  6
Continuous
 62
     7
100
AcDbCircle
 10
490.5033945030665
 20
-368.0389726947179
 30
0.0
 40
2.999999999999773
100
AcDbArc
 50
345.000000000001
 51
90.0
  0
ARC
  5
138
330
1F
100
AcDbEntity
  8
1
  6
Continuous
 62
     7
100
AcDbCircle
 10
484.4130706215899
 20
-379.5389726947179
 30
0.0
 40
1.0
100
AcDbArc
 50
180.0
 51
270.0
  0
ARC
  5
139
330
1F
100
AcDbEntity
  8
1
  6
Continuous
 62
     7
100
AcDbCircle
 10
485.4130706215899
 20
-368.0389726947179
 30
0.0
 40
2.0
100
AcDbArc
 50
90.0
 51
180.0
  0
ARC
  5
13A
330
1F
100
AcDbEntity
  8
1
  6
Continuous
 62
     7
100
AcDbCircle
 10
490.5033945030665
 20
-368.0389726947179
 30
0.0
 40
2.000000000000061
100
AcDbArc
 50
344.9999999999993
 51
90.0
  0
ARC
  5
13B
330
1F
100
AcDbEntity
  8
1
  6
Continuous
 62
     7
100
AcDbCircle
 10
492.2189913128324
 20
-379.9389726947179
 30
0.0
 40
0.6000000000000227
100
AcDbArc
 50
270.0
 51
70.8118635463024
  0
ARC
  5
13C
330
1F
100
AcDbEntity
  8
1
  6
Continuous
 62
     7
100
AcDbCircle
 10
350.266978637489
 20
-283.5644326321433
 30
0.0
 40
14.09999999999985
100
AcDbArc
 50
90.0
 51
180.0
  0
ARC
  5
13D
330
1F
100
AcDbEntity
  8
1
  6
Continuous
 62
     7
100
AcDbCircle
 10
350.266978637489
 20
-415.3644326321434
 30
0.0
 40
14.09999999999991
100
AcDbArc
 50
270.0
 51
0.0
  0
ARC
  5
13E
330
1F
100
AcDbEntity
  8
1
  6
Continuous
 62
     7
100
AcDbCircle
 10
350.266978637489
 20
-415.3644326321434
 30
0.0
 40
14.09999999999997
100
AcDbArc
 50
180.0
 51
270.0
  0
ARC
  5
13F
330
1F
100
AcDbEntity
  8
1
  6
Continuous
 62
     7
100
AcDbCircle
 10
350.266978637489
 20
-283.5644326321433
 30
0.0
 40
14.10000000000002
100
AcDbArc
 50
0.0
 51
90.0
  0
ARC
  5
140
330
1F
100
AcDbEntity
  8
1
  6
Continuous
 62
     7
100
AcDbCircle
 10
659.9844951225069
 20
-357.4644326321434
 30
0.0
 40
12.0
100
AcDbArc
 50
180.0
 51
270.0
  0
ARC
  5
141
330
1F
100
AcDbEntity
  8
1
  6
Continuous
 62
     7
100
AcDbCircle
 10
659.9844951225069
 20
-341.4644326321434
 30
0.0
 40
12.0
100
AcDbArc
 50
0.0
 51
90.0
  0
ARC
  5
142
330
1F
100
AcDbEntity
  8
1
  6
Continuous
 62
     7
100
AcDbCircle
 10
656.0038220964044
 20
-296.0046815487528
 30
0.0
 40
12.0402644284016
100
AcDbArc
 50
90.09197094608798
 51
183.3794382317689
  0
ARC
  5
143
330
1F
100
AcDbEntity
  8
1
  6
Continuous
 62
     7
100
AcDbCircle
 10
659.9651681486095
 20
-296.0046815487528
 30
0.0
 40
12.04026442840163
100
AcDbArc
 50
356.620561768231
 51
89.908029053912
  0
ARC
  5
144
330
1F
100
AcDbEntity
  8
1
  6
Continuous
 62
     7
100
AcDbCircle
 10
655.9896276285161
 20
-402.9614308357526
 30
0.0
 40
12.00513288129792
100
AcDbArc
 50
180.0143263941895
 51
271.0795952020313
  0
ARC
  5
145
330
1F
100
AcDbEntity
  8
1
  6
Continuous
 62
     7
100
AcDbCircle
 10
659.9793626164977
 20
-402.9614308357526
 30
0.0
 40
12.00513288129783
100
AcDbArc
 50
271.0795952020139
 51
359.9856736058106
  0
ARC
  5
146
330
1F
100
AcDbEntity
  8
1
  6
Continuous
 62
     7
100
AcDbCircle
 10
659.9793626164977
 20
-402.9614308357526
 30
0.0
 40
12.00513288129778
100
AcDbArc
 50
268.9204047979698
 51
271.0795952020139
  0
ARC
  5
147
330
1F
100
AcDbEntity
  8
1
  6
Continuous
 62
     7
100
AcDbCircle
 10
659.9844951225069
 20
-357.4644326321434
 30
0.0
 40
12.0
100
AcDbArc
 50
270.0
 51
0.0
  0
ARC
  5
148
330
1F
100
AcDbEntity
  8
1
  6
Continuous
 62
     7
100
AcDbCircle
 10
659.9844951225069
 20
-341.4644326321434
 30
0.0
 40
12.0
100
AcDbArc
 50
90.0
 51
180.0
  0
CIRCLE
  5
149
330
1F
100
AcDbEntity
  8
1
  6
DOT_CENTER
 62
     2
100
AcDbCircle
 10
653.4844951225069
 20
-415.3644326321434
 30
0.0
 40
9.5
  0
CIRCLE
  5
14A
330
1F
100
AcDbEntity
  8
1
  6
DOT_CENTER
 62
     2
100
AcDbCircle
 10
354.866978637489
 20
-415.3644326321434
 30
0.0
 40
9.5
  0
CIRCLE
  5
14B
330
1F
100
AcDbEntity
  8
1
  6
Continuous
 62
     7
100
AcDbCircle
 10
650.4844951225069
 20
-418.4644326321434
 30
0.0
 40
1.5
  0
CIRCLE
  5
14C
330
1F
100
AcDbEntity
  8
1
  6
Continuous
 62
     7
100
AcDbCircle
 10
665.4844951225069
 20
-418.4644326321434
 30
0.0
 40
1.5
  0
CIRCLE
  5
14D
330
1F
100
AcDbEntity
  8
1
  6
Continuous
 62
     7
100
AcDbCircle
 10
650.4844951225069
 20
-280.4644326321434
 30
0.0
 40
1.5
  0
CIRCLE
  5
14E
330
1F
100
AcDbEntity
  8
1
  6
Continuous
 62
     7
100
AcDbCircle
 10
665.4844951225069
 20
-280.4644326321434
 30
0.0
 40
1.5
  0
SPLINE
  5
14F
330
1F
100
AcDbEntity
  8
1
  6
Continuous
 62
     2
100
AcDbSpline
210
0.0
220
0.0
230
1.0
 70
     8
 71
     3
 72
    12
 73
     8
 74
     6
 42
0.000000001
 43
0.0000000001
 44
0.00000001
 40
0.0
 40
0.0
 40
0.0
 40
0.0
 40
0.2775291655449036
 40
0.5641738590422058
 40
0.8992523004259928
 40
1.297504023811075
 40
1.680834355655263
 40
1.680834355655263
 40
1.680834355655263
 40
1.680834355655263
 10
495.9130706215898
 20
-345.9462698570174
 30
0.0
 10
496.0010144973043
 20
-345.8770701488586
 30
0.0
 10
496.1797907863977
 20
-345.7363978353916
 30
0.0
 10
496.3809383734302
 20
-346.1011458196591
 30
0.0
 10
496.7505220148993
 20
-345.9369936110821
 30
0.0
 10
497.0693698341173
 20
-345.6722114127961
 30
0.0
 10
497.2999711809663
 20
-345.8560871867541
 30
0.0
 10
497.4130706215898
 20
-345.9462698570174
 30
0.0
 11
495.9130706215898
 21
-345.9462698570174
 31
0.0
 11
496.1641785611316
 21
-345.8280867899642
 31
0.0
 11
496.3884298291816
 21
-346.0066268392334
 31
0.0
 11
496.7158715030924
 21
-345.9354965881723
 31
0.0
 11
497.075559750973
 21
-345.7645322656308
 31
0.0
 11
497.4130706215898
 21
-345.9462698570174
 31
0.0
  0
XLINE
  5
150
330
1F
100
AcDbEntity
  8
1
  6
DOT_CENTER
 62
     3
 60
     1
100
AcDbXline
 10
450.3630706215895
 20
-404.0389726947182
 30
0.0
 11
0.0
 21
1.0
 31
0.0
  0
ARC
  5
151
330
1F
100
AcDbEntity
  8
1
  6
Continuous
 62
     7
100
AcDbCircle
 10
482.4130706215899
 20
-365.0389726947179
 30
0.0
 40
1.499999999999943
100
AcDbArc
 50
90.0
 51
180.0
  0
ARC
  5
152
330
1F
100
AcDbEntity
  8
1
  6
Continuous
 62
     7
100
AcDbCircle
 10
482.9130706215899
 20
-365.5389726947179
 30
0.0
 40
0.5
100
AcDbArc
 50
90.0
 51
180.0
  0
ARC
  5
153
330
1F
100
AcDbEntity
  8
1
  6
Continuous
 62
     7
100
AcDbCircle
 10
495.4130706215899
 20
-376.538972694718
 30
0.0
 40
1.999999999999943
100
AcDbArc
 50
270.0
 51
0.00000000000163
  0
ARC
  5
154
330
1F
100
AcDbEntity
  8
1
  6
Continuous
 62
     7
100
AcDbCircle
 10
493.4022072694522
 20
-376.538972694718
 30
0.0
 40
1.999999999999741
100
AcDbArc
 50
250.8118635462778
 51
270.0
  0
ARC
  5
155
330
1F
100
AcDbEntity
  8
1
  6
Continuous
 62
     7
100
AcDbCircle
 10
494.9130706215899
 20
-376.0389726947179
 30
0.0
 40
1.0
100
AcDbArc
 50
270.0
 51
0.0
  0
ARC
  5
156
330
1F
100
AcDbEntity
  8
1
  6
Continuous
 62
     7
100
AcDbCircle
 10
494.053819955873
 20
-376.0389726947179
 30
0.0
 40
1.00000000000014
100
AcDbArc
 50
165.000000000001
 51
270.0
  0
ARC
  5
157
330
1F
100
AcDbEntity
  8
1
  6
Continuous
 62
     7
100
AcDbCircle
 10
494.4130706215899
 20
-365.0389726947179
 30
0.0
 40
1.499999999999976
100
AcDbArc
 50
345.0000000000008
 51
90.0
  0
ARC
  5
158
330
1F
100
AcDbEntity
  8
1
  6
Continuous
 62
     7
100
AcDbCircle
 10
493.7614579351692
 20
-365.5389726947179
 30
0.0
 40
0.5000000000002094
100
AcDbArc
 50
344.9999999999918
 51
90.0
  0
ARC
  5
159
330
1F
100
AcDbEntity
  8
1
  6
Continuous
 62
     7
100
AcDbCircle
 10
493.4022072694522
 20
-376.538972694718
 30
0.0
 40
1.999999999999977
100
AcDbArc
 50
165.000000000002
 51
250.8118635462778
  0
ARC
  5
15A
330
1F
100
AcDbEntity
  8
1
  6
Continuous
 62
     7
100
AcDbCircle
 10
493.4022072694522
 20
-376.538972694718
 30
0.0
 40
3.000000000000132
100
AcDbArc
 50
165.0000000000006
 51
250.8118635462753
  0
ARC
  5
15B
330
1F
100
AcDbEntity
  8
1
  6
Continuous
 62
     7
100
AcDbCircle
 10
479.9130706215899
 20
-420.0389726947178
 30
0.0
 40
2.5
100
AcDbArc
 50
270.0
 51
0.0
  0
ARC
  5
15C
330
1F
100
AcDbEntity
  8
1
  6
Continuous
 62
     7
100
AcDbCircle
 10
479.9130706215899
 20
-420.0389726947178
 30
0.0
 40
1.0
100
AcDbArc
 50
270.0
 51
0.0
  0
ARC
  5
15D
330
1F
100
AcDbEntity
  8
1
  6
DOT_CENTER
 62
     2
100
AcDbCircle
 10
449.9130706215899
 20
-388.538972694718
 30
0.0
 40
2.0
100
AcDbArc
 50
90.0
 51
165.5224878140706
  0
ARC
  5
15E
330
1F
100
AcDbEntity
  8
1
  6
DOT_CENTER
 62
     2
100
AcDbCircle
 10
449.9130706215899
 20
-388.538972694718
 30
0.0
 40
0.5
100
AcDbArc
 50
90.0
 51
180.0
  0
ARC
  5
15F
330
1F
100
AcDbEntity
  8
1
  6
DOT_CENTER
 62
     2
100
AcDbCircle
 10
449.9130706215899
 20
-388.538972694718
 30
0.0
 40
2.000000000000063
100
AcDbArc
 50
165.5224878140706
 51
180.0
  0
ARC
  5
160
330
1F
100
AcDbEntity
  8
1
  6
Continuous
 62
     7
100
AcDbCircle
 10
657.9844951225069
 20
-415.4644326321435
 30
0.0
 40
14.0
100
AcDbArc
 50
270.0
 51
0.0
  0
ARC
  5
161
330
1F
100
AcDbEntity
  8
1
  6
Continuous
 62
     7
100
AcDbCircle
 10
657.9844951225069
 20
-415.4644326321435
 30
0.0
 40
14.0
100
AcDbArc
 50
180.0
 51
270.0
  0
ARC
  5
162
330
1F
100
AcDbEntity
  8
1
  6
Continuous
 62
     7
100
AcDbCircle
 10
657.9844951225069
 20
-283.4644326321434
 30
0.0
 40
14.0
100
AcDbArc
 50
90.0
 51
180.0
  0
ARC
  5
163
330
1F
100
AcDbEntity
  8
1
  6
Continuous
 62
     7
100
AcDbCircle
 10
657.9844951225069
 20
-283.4644326321434
 30
0.0
 40
14.0
100
AcDbArc
 50
0.0
 51
90.0
  0
ARC
  5
164
330
1F
100
AcDbEntity
  8
1
  6
Continuous
 62
     7
100
AcDbCircle
 10
444.9130706215899
 20
-420.0389726947183
 30
0.0
 40
1.0
100
AcDbArc
 50
179.9999999999772
 51
270.0
  0
ARC
  5
165
330
1F
100
AcDbEntity
  8
1
  6
Continuous
 62
     7
100
AcDbCircle
 10
444.9130706215899
 20
-420.0389726947183
 30
0.0
 40
2.5
100
AcDbArc
 50
179.9999999999909
 51
270.0
  0
MTEXT
  5
167
330
1F
100
AcDbEntity
  8
1
 62
     2
100
AcDbMText
 10
467.6908853355778
 20
-332.7165713632533
 30
0.0
 40
2.5
 41
0.0
 71
     5
 72
     1
  1
Break out the metal plate at the bottom\Pof the receiver to create the opening\Pfor the cable!
  7
CONVERTER_11
 73
     1
 44
1.32052821128451
  0
MTEXT
  5
168
330
1F
100
AcDbEntity
  8
1
 62
     2
100
AcDbMText
 10
471.2001371310454
 20
-351.6600633817926
 30
0.0
 40
2.5
 41
0.0
 71
     5
 72
     1
  1
receiver\PTECTUS TE340-3D SZ
  7
CONVERTER_11
 73
     1
 44
1.32052821128451
  0
MTEXT
  5
169
330
1F
100
AcDbEntity
  8
1
 62
     3
100
AcDbMText
 10
458.4618586297131
 20
-449.9789054057928
 30
0.0
 40
3.5
 41
0.0
 71
     5
 72
     1
  1
template\Psteel frame
  7
CONVERTER_11
 73
     1
 44
1.32052821128451
  0
MTEXT
  5
16A
330
1F
100
AcDbEntity
  8
1
 62
     3
100
AcDbMText
 10
511.6700772081748
 20
-431.8930005480058
 30
0.0
 40
3.5
 41
0.0
 71
     5
 72
     1
  1
template\Pdoor panel
  7
CONVERTER_11
 73
     1
 44
1.32052821128451
  0
MTEXT
  5
16B
330
1F
100
AcDbEntity
  8
1
 62
     3
100
AcDbMText
 10
673.944143940792
 20
-483.791601631207
 30
0.0
 40
3.5
 41
0.0
 71
     5
 72
     1
  1
TECTUS TE340-3D Energy
  7
CONVERTER_11
 73
     1
 44
1.32052821128451
  0
DIMENSION
  5
177
330
1F
100
AcDbEntity
  8
1
100
AcDbDimension
  2
*D1
 10
447.9130706215899
 20
-438.930943309171
 30
0.0
 11
426.9597020040263
 21
-435.180943309171
 31
0.0
 70
    32
  1
<>``)
 71
     5
 42
-1.0
 53
0.00013888888889
  3
ME10_DIM_10
100
AcDbAlignedDimension
 13
482.4130706215899
 23
-417.6389726947181
 33
0.0
 14
447.9130706215899
 24
-421.0389726947183
 34
0.0
100
AcDbRotatedDimension
  0
DIMENSION
  5
183
330
1F
100
AcDbEntity
  8
1
100
AcDbDimension
  2
*D2
 10
336.166978637489
 20
-471.1064151869283
 30
0.0
 11
314.4328085017
 21
-467.3564151869283
 31
0.0
 70
    32
  1
<>``)
 71
     5
 42
-1.0
 53
0.00013888888889
  3
ME10_DIM_11
100
AcDbAlignedDimension
 13
364.366978637489
 23
-405.9644326321431
 33
0.0
 14
336.166978637489
 24
-405.9644326321431
 34
0.0
100
AcDbRotatedDimension
  0
DIMENSION
  5
18E
330
1F
100
AcDbEntity
  8
1
100
AcDbDimension
  2
*D3
 10
407.1570267844807
 20
-269.4644326321434
 30
0.0
 11
403.4070267844807
 21
-350.1513819073454
 31
0.0
 70
    32
  1
<>``)
 71
     5
 42
-1.0
 53
90.0
  3
ME10_DIM_12
100
AcDbAlignedDimension
 13
350.266978637489
 23
-429.4644326321433
 33
0.0
 14
350.266978637489
 24
-269.4644326321434
 34
0.0
 50
90.0
100
AcDbRotatedDimension
  0
DIMENSION
  5
19A
330
1F
100
AcDbEntity
  8
1
100
AcDbDimension
  2
*D4
 10
671.9844951225069
 20
-383.2405627585072
 30
0.0
 11
696.5755577850324
 21
-379.4905627585072
 31
0.0
 70
    32
  1
24mm (0.945``)
 71
     5
 42
-1.0
 53
0.00013888888889
  3
ME10_DIM_13
100
AcDbAlignedDimension
 13
647.9844951225069
 23
-357.4644326321434
 33
0.0
 14
671.9844951225069
 24
-357.4644326321434
 34
0.0
100
AcDbRotatedDimension
  0
DIMENSION
  5
1A5
330
1F
100
AcDbEntity
  8
1
100
AcDbDimension
  2
*D5
 10
692.385775807007
 20
-369.4644326321434
 30
0.0
 11
688.635775807007
 21
-349.4644326321434
 31
0.0
 70
    32
  1
<>``)
 71
     5
 42
-1.0
 53
90.0
  3
ME10_DIM_14
100
AcDbAlignedDimension
 13
659.9844951225069
 23
-329.4644326321434
 33
0.0
 14
659.9844951225069
 24
-369.4644326321434
 34
0.0
 50
90.0
100
AcDbRotatedDimension
  0
DIMENSION
  5
1B1
330
1F
100
AcDbEntity
  8
1
100
AcDbDimension
  2
*D6
 10
563.271161628779
 20
-457.5792603018225
 30
0.0
 11
532.7526732927693
 21
-453.8292603018225
 31
0.0
 70
    32
  1
10mm (0.394``)
 71
     5
 42
-1.0
 53
0.00013888888889
  3
ME10_DIM_15
100
AcDbAlignedDimension
 13
553.271161628779
 23
-449.4644326321435
 33
0.0
 14
563.2711616287789
 24
-429.4644326321435
 34
0.0
100
AcDbRotatedDimension
  0
DIMENSION
  5
1BD
330
1F
100
AcDbEntity
  8
1
100
AcDbDimension
  2
*D7
 10
553.271161628779
 20
-470.4639931520168
 30
0.0
 11
533.3246952591034
 21
-466.7139931520168
 31
0.0
 70
    32
  1
<>``)
 71
     5
 42
-1.0
 53
0.00013888888889
  3
ME10_DIM_16
100
AcDbAlignedDimension
 13
587.2711616287792
 23
-414.9644326321436
 33
0.0
 14
553.271161628779
 24
-429.4644326321435
 34
0.0
100
AcDbRotatedDimension
  0
DIMENSION
  5
1C9
330
1F
100
AcDbEntity
  8
1
100
AcDbDimension
  2
*D8
 10
671.9844951225069
 20
-470.5792603018225
 30
0.0
 11
690.9192744529631
 21
-466.8292603018225
 31
0.0
 70
    32
  1
<>``)
 71
     5
 42
-1.0
 53
0.00013888888889
  3
ME10_DIM_17
100
AcDbAlignedDimension
 13
643.9844951225069
 23
-415.4644326321435
 33
0.0
 14
671.9844951225069
 24
-415.4644326321435
 34
0.0
100
AcDbRotatedDimension
  0
DIMENSION
  5
1D5
330
1F
100
AcDbEntity
  8
1
100
AcDbDimension
  2
*D9
 10
665.484495122507
 20
-294.3046272202469
 30
0.0
 11
698.785925112153
 21
-290.5546272202469
 31
0.0
 70
    32
  1
15mm (0.591``)
 71
     5
 42
-1.0
 53
0.00013888888889
  3
ME10_DIM_18
100
AcDbAlignedDimension
 13
650.4844951225069
 23
-282.7144326321434
 33
0.0
 14
665.4844951225069
 24
-282.7144326321434
 34
0.0
100
AcDbRotatedDimension
  0
DIMENSION
  5
1E2
330
1F
100
AcDbEntity
  8
1
100
AcDbDimension
  2
*D10
 10
675.9844951225069
 20
-459.5792603018225
 30
0.0
 11
694.711838612519
 21
-455.8292603018225
 31
0.0
 70
    32
  1
4mm (0.157``)
 71
     5
 42
-1.0
 53
0.00013888888889
  3
ME10_DIM_19
100
AcDbAlignedDimension
 13
671.9844951225069
 23
-415.4644326321435
 33
0.0
 14
675.9844951225069
 24
-449.4644326321435
 34
0.0
100
AcDbRotatedDimension
  0
DIMENSION
  5
1ED
330
1F
100
AcDbEntity
  8
1
100
AcDbDimension
  2
*D11
 10
613.463722714107
 20
-269.4644326321434
 30
0.0
 11
609.713722714107
 21
-349.4993083013814
 31
0.0
 70
    32
  1
<>``)
 71
     5
 42
-1.0
 53
90.0
  3
ME10_DIM_20
100
AcDbAlignedDimension
 13
657.9844951225069
 23
-429.4644326321435
 33
0.0
 14
657.9844951225069
 24
-269.4644326321434
 34
0.0
 50
90.0
100
AcDbRotatedDimension
  0
DIMENSION
  5
1F8
330
1F
100
AcDbEntity
  8
1
100
AcDbDimension
  2
*D12
 10
621.727834981577
 20
-280.4644326321434
 30
0.0
 11
617.977834981577
 21
-349.4993083013814
 31
0.0
 70
    32
  1
<>``)
 71
     5
 42
-1.0
 53
90.0
  3
ME10_DIM_21
100
AcDbAlignedDimension
 13
648.2344951225069
 23
-418.4644326321434
 33
0.0
 14
648.2344951225069
 24
-280.4644326321434
 34
0.0
 50
90.0
100
AcDbRotatedDimension
  0
DIMENSION
  5
203
330
1F
100
AcDbEntity
  8
1
100
AcDbDimension
  2
*D13
 10
629.732514668066
 20
-283.9644326321433
 30
0.0
 11
625.982514668066
 21
-349.4021157972377
 31
0.0
 70
    32
  1
<>``)
 71
     5
 42
-1.0
 53
90.0
  3
ME10_DIM_22
100
AcDbAlignedDimension
 13
659.7531693949999
 23
-414.9644326321436
 33
0.0
 14
655.9844951225069
 24
-283.9644326321434
 34
0.0
 50
90.0
100
AcDbRotatedDimension
  0
DIMENSION
  5
20E
330
1F
100
AcDbEntity
  8
1
100
AcDbDimension
  2
*D14
 10
529.9130706215898
 20
-371.118305307077
 30
0.0
 11
524.062124359923
 21
-367.368305307077
 31
0.0
 70
    32
  1
min. 35mm (1.378``)
 71
     5
 42
-1.0
 53
0.00013888888889
  3
ME10_DIM_23
100
AcDbAlignedDimension
 13
519.9130706215898
 23
-393.5389726947179
 33
0.0
 14
529.9130706215898
 24
-393.5389726947179
 34
0.0
100
AcDbRotatedDimension
  0
DIMENSION
  5
21B
330
1F
100
AcDbEntity
  8
1
100
AcDbDimension
  2
*D15
 10
331.166978637489
 20
-459.1064151869283
 30
0.0
 11
308.305215384095
 21
-455.3564151869283
 31
0.0
 70
    32
  1
5mm (0.197``)
 71
     5
 42
-1.0
 53
0.00013888888889
  3
ME10_DIM_24
100
AcDbAlignedDimension
 13
336.166978637489
 23
-413.4644326321437
 33
0.0
 14
331.166978637489
 24
-449.4644326321434
 34
0.0
100
AcDbRotatedDimension
  0
INSERT
  5
224
330
1F
100
AcDbEntity
  8
1
100
AcDbBlockReference
  2
*D16
 10
0.0
 20
0.0
 30
0.0
  0
INSERT
  5
22D
330
1F
100
AcDbEntity
  8
1
100
AcDbBlockReference
  2
*D17
 10
0.0
 20
0.0
 30
0.0
  0
ENDSEC
  0
SECTION
  2
OBJECTS
  0
DICTIONARY
  5
C
330
0
100
AcDbDictionary
281
     1
  3
ACAD_GROUP
350
D
  3
ACAD_LAYOUT
350
1A
  3
ACAD_MATERIAL
350
3B
  3
ACAD_MLEADERSTYLE
350
230
  3
ACAD_MLINESTYLE
350
17
  3
ACAD_PLOTSETTINGS
350
19
  3
ACAD_PLOTSTYLENAME
350
E
  3
ACAD_VISUALSTYLE
350
2A
  3
AcDbVariableDictionary
350
22E
  0
DICTIONARY
  5
D
102
{ACAD_REACTORS
330
C
102
}
330
C
100
AcDbDictionary
281
     1
  0
DICTIONARY
  5
1A
102
{ACAD_REACTORS
330
C
102
}
330
C
100
AcDbDictionary
281
     1
  3
Layout1
350
1E
  3
Layout2
350
26
  3
Model
350
22
  0
DICTIONARY
  5
3B
102
{ACAD_REACTORS
330
C
102
}
330
C
100
AcDbDictionary
281
     1
  3
ByBlock
350
3D
  3
ByLayer
350
3C
  3
Global
350
3E
  0
DICTIONARY
  5
230
102
{ACAD_REACTORS
330
C
102
}
330
C
100
AcDbDictionary
281
     1
  0
DICTIONARY
  5
17
102
{ACAD_REACTORS
330
C
102
}
330
C
100
AcDbDictionary
281
     1
  3
Standard
350
18
  0
DICTIONARY
  5
19
102
{ACAD_REACTORS
330
C
102
}
330
C
100
AcDbDictionary
281
     1
  0
ACDBDICTIONARYWDFLT
  5
E
102
{ACAD_REACTORS
330
C
102
}
330
C
100
AcDbDictionary
281
     1
  3
Normal
350
F
100
AcDbDictionaryWithDefault
340
F
  0
DICTIONARY
  5
2A
102
{ACAD_REACTORS
330
C
102
}
330
C
100
AcDbDictionary
281
     1
  3
2dWireframe
350
2F
  3
3D Hidden
350
31
  3
3dWireframe
350
30
  3
Basic
350
32
  3
Brighten
350
36
  3
ColorChange
350
3A
  3
Conceptual
350
34
  3
Dim
350
35
  3
Facepattern
350
39
  3
Flat
350
2B
  3
FlatWithEdges
350
2C
  3
Gouraud
350
2D
  3
GouraudWithEdges
350
2E
  3
Linepattern
350
38
  3
Realistic
350
33
  3
Thicken
350
37
  0
DICTIONARY
  5
22E
102
{ACAD_REACTORS
330
C
102
}
330
C
100
AcDbDictionary
281
     1
  3
DIMASSOC
350
231
  3
HIDETEXT
350
232
  0
LAYOUT
  5
1E
102
{ACAD_REACTORS
330
1A
102
}
330
1A
100
AcDbPlotSettings
  1

  2
none_device
  4

  6

 40
0.0
 41
0.0
 42
0.0
 43
0.0
 44
0.0
 45
0.0
 46
0.0
 47
0.0
 48
0.0
 49
0.0
140
0.0
141
0.0
142
1.0
143
1.0
 70
   688
 72
     0
 73
     0
 74
     5
  7

 75
    16
147
1.0
148
0.0
149
0.0
100
AcDbLayout
  1
Layout1
 70
     1
 71
     1
 10
0.0
 20
0.0
 11
12.0
 21
9.0
 12
0.0
 22
0.0
 32
0.0
 14
1.00000000000000E+20
 24
1.00000000000000E+20
 34
1.00000000000000E+20
 15
-1.00000000000000E+20
 25
-1.00000000000000E+20
 35
-1.00000000000000E+20
146
0.0
 13
0.0
 23
0.0
 33
0.0
 16
1.0
 26
0.0
 36
0.0
 17
0.0
 27
1.0
 37
0.0
 76
     0
330
1B
  0
LAYOUT
  5
26
102
{ACAD_REACTORS
330
1A
102
}
330
1A
100
AcDbPlotSettings
  1

  2
none_device
  4

  6

 40
0.0
 41
0.0
 42
0.0
 43
0.0
 44
0.0
 45
0.0
 46
0.0
 47
0.0
 48
0.0
 49
0.0
140
0.0
141
0.0
142
1.0
143
1.0
 70
   688
 72
     0
 73
     0
 74
     5
  7

 75
    16
147
1.0
148
0.0
149
0.0
100
AcDbLayout
  1
Layout2
 70
     1
 71
     2
 10
0.0
 20
0.0
 11
0.0
 21
0.0
 12
0.0
 22
0.0
 32
0.0
 14
0.0
 24
0.0
 34
0.0
 15
0.0
 25
0.0
 35
0.0
146
0.0
 13
0.0
 23
0.0
 33
0.0
 16
1.0
 26
0.0
 36
0.0
 17
0.0
 27
1.0
 37
0.0
 76
     0
330
23
  0
LAYOUT
  5
22
102
{ACAD_REACTORS
330
1A
102
}
330
1A
100
AcDbPlotSettings
  1

  2
none_device
  4

  6

 40
0.0
 41
0.0
 42
0.0
 43
0.0
 44
0.0
 45
0.0
 46
0.0
 47
0.0
 48
0.0
 49
0.0
140
0.0
141
0.0
142
1.0
143
1.0
 70
  1712
 72
     0
 73
     0
 74
     0
  7

 75
     0
147
1.0
148
0.0
149
0.0
100
AcDbLayout
  1
Model
 70
     1
 71
     0
 10
0.0
 20
0.0
 11
12.0
 21
9.0
 12
0.0
 22
0.0
 32
0.0
 14
292.511465384095
 24
-486.591601631207
 34
0.0
 15
715.629675112153
 25
-247.0791510034687
 35
0.0
146
0.0
 13
0.0
 23
0.0
 33
0.0
 16
1.0
 26
0.0
 36
0.0
 17
0.0
 27
1.0
 37
0.0
 76
     0
330
1F
331
29
  0
MATERIAL
  5
3D
102
{ACAD_REACTORS
330
3B
102
}
102
{ACAD_XDICTIONARY
360
255
102
}
330
3B
100
AcDbMaterial
  1
ByBlock
  0
MATERIAL
  5
3C
102
{ACAD_REACTORS
330
3B
102
}
102
{ACAD_XDICTIONARY
360
253
102
}
330
3B
100
AcDbMaterial
  1
ByLayer
  0
MATERIAL
  5
3E
102
{ACAD_REACTORS
330
3B
102
}
102
{ACAD_XDICTIONARY
360
257
102
}
330
3B
100
AcDbMaterial
  1
Global
  0
MLINESTYLE
  5
18
102
{ACAD_REACTORS
330
17
102
}
330
17
100
AcDbMlineStyle
  2
Standard
 70
     0
  3

 62
   256
 51
90.0
 52
90.0
 71
     2
 49
0.5
 62
   256
  6
BYLAYER
 49
-0.5
 62
   256
  6
BYLAYER
  0
ACDBPLACEHOLDER
  5
F
102
{ACAD_REACTORS
330
E
102
}
330
E
  0
VISUALSTYLE
  5
2F
102
{ACAD_REACTORS
330
2A
102
}
102
{ACAD_XDICTIONARY
360
23B
102
}
330
2A
100
AcDbVisualStyle
  2
2dWireframe
 70
     4
 71
     0
 72
     2
 73
     0
 90
        0
 40
-0.6
 41
-30.0
 62
     5
 63
     7
 74
     1
 91
        4
 64
     7
 65
   257
 75
     1
175
     1
 42
1.0
 92
        0
 66
   257
 43
1.0
 76
     1
 77
     6
 78
     2
 67
     7
 79
     5
170
     0
171
     0
290
     0
174
     0
 93
        1
 44
0.0
173
     0
291
     0
 45
0.0
1001
ACAD
1000
AcDbSavedByObjectVersion
1070
     0
  0
VISUALSTYLE
  5
31
102
{ACAD_REACTORS
330
2A
102
}
102
{ACAD_XDICTIONARY
360
23F
102
}
330
2A
100
AcDbVisualStyle
  2
3D Hidden
 70
     6
 71
     1
 72
     2
 73
     2
 90
        0
 40
-0.6
 41
-30.0
 62
     5
 63
     7
 74
     2
 91
        2
 64
     7
 65
   257
 75
     2
175
     1
 42
40.0
 92
        0
 66
   257
 43
1.0
 76
     1
 77
     6
 78
     2
 67
     7
 79
     3
170
     0
171
     0
290
     0
174
     0
 93
        1
 44
0.0
173
     0
291
     0
 45
0.0
1001
ACAD
1000
AcDbSavedByObjectVersion
1070
     0
  0
VISUALSTYLE
  5
30
102
{ACAD_REACTORS
330
2A
102
}
102
{ACAD_XDICTIONARY
360
23D
102
}
330
2A
100
AcDbVisualStyle
  2
3dWireframe
 70
     5
 71
     0
 72
     2
 73
     0
 90
        0
 40
-0.6
 41
-30.0
 62
     5
 63
     7
 74
     1
 91
        4
 64
     7
 65
   257
 75
     1
175
     1
 42
1.0
 92
        0
 66
   257
 43
1.0
 76
     1
 77
     6
 78
     2
 67
     7
 79
     5
170
     0
171
     0
290
     0
174
     0
 93
        1
 44
0.0
173
     0
291
     0
 45
0.0
1001
ACAD
1000
AcDbSavedByObjectVersion
1070
     0
  0
VISUALSTYLE
  5
32
102
{ACAD_REACTORS
330
2A
102
}
102
{ACAD_XDICTIONARY
360
241
102
}
330
2A
100
AcDbVisualStyle
  2
Basic
 70
     7
 71
     1
 72
     0
 73
     1
 90
        0
 40
-0.6
 41
-30.0
 62
     5
 63
     7
 74
     0
 91
        4
 64
     7
 65
   257
 75
     1
175
     1
 42
1.0
 92
        8
 66
     7
 43
1.0
 76
     1
 77
     6
 78
     2
 67
     7
 79
     5
170
     0
171
     0
290
     0
174
     0
 93
        1
 44
0.0
173
     0
291
     1
 45
0.0
1001
ACAD
1000
AcDbSavedByObjectVersion
1070
     0
  0
VISUALSTYLE
  5
36
102
{ACAD_REACTORS
330
2A
102
}
102
{ACAD_XDICTIONARY
360
249
102
}
330
2A
100
AcDbVisualStyle
  2
Brighten
 70
    12
 71
     2
 72
     2
 73
     0
 90
        0
 40
-0.6
 41
-30.0
 62
     5
 63
     7
 74
     1
 91
        4
 64
     7
 65
   257
 75
     1
175
     1
 42
1.0
 92
        8
 66
     7
 43
1.0
 76
     1
 77
     6
 78
     2
 67
     7
 79
     5
170
     0
171
     0
290
     0
174
     0
 93
        1
 44
50.0
173
     0
291
     1
 45
0.0
1001
ACAD
1000
AcDbSavedByObjectVersion
1070
     0
  0
VISUALSTYLE
  5
3A
102
{ACAD_REACTORS
330
2A
102
}
102
{ACAD_XDICTIONARY
360
251
102
}
330
2A
100
AcDbVisualStyle
  2
ColorChange
 70
    16
 71
     2
 72
     2
 73
     3
 90
        0
 40
-0.6
 41
-30.0
 62
     5
 63
     8
 74
     1
 91
        4
 64
     7
 65
   257
 75
     1
175
     1
 42
1.0
 92
        8
 66
     8
 43
1.0
 76
     1
 77
     6
 78
     2
 67
     7
 79
     5
170
     0
171
     0
290
     0
174
     0
 93
        1
 44
0.0
173
     0
291
     1
 45
0.0
1001
ACAD
1000
AcDbSavedByObjectVersion
1070
     0
  0
VISUALSTYLE
  5
34
102
{ACAD_REACTORS
330
2A
102
}
102
{ACAD_XDICTIONARY
360
245
102
}
330
2A
100
AcDbVisualStyle
  2
Conceptual
 70
     9
 71
     3
 72
     2
 73
     0
 90
        0
 40
-0.6
 41
-30.0
 62
     5
 63
     7
 74
     2
 91
        2
 64
     7
 65
   257
 75
     1
175
     1
 42
40.0
 92
        8
 66
     7
 43
1.0
 76
     1
 77
     6
 78
     2
 67
     7
 79
     3
170
     0
171
     0
290
     0
174
     0
 93
        1
 44
0.0
173
     0
291
     0
 45
0.0
1001
ACAD
1000
AcDbSavedByObjectVersion
1070
     0
  0
VISUALSTYLE
  5
35
102
{ACAD_REACTORS
330
2A
102
}
102
{ACAD_XDICTIONARY
360
247
102
}
330
2A
100
AcDbVisualStyle
  2
Dim
 70
    11
 71
     2
 72
     2
 73
     0
 90
        0
 40
-0.6
 41
-30.0
 62
     5
 63
     7
 74
     1
 91
        4
 64
     7
 65
   257
 75
     1
175
     1
 42
1.0
 92
        8
 66
     7
 43
1.0
 76
     1
 77
     6
 78
     2
 67
     7
 79
     5
170
     0
171
     0
290
     0
174
     0
 93
        1
 44
-50.0
173
     0
291
     1
 45
0.0
1001
ACAD
1000
AcDbSavedByObjectVersion
1070
     0
  0
VISUALSTYLE
  5
39
102
{ACAD_REACTORS
330
2A
102
}
102
{ACAD_XDICTIONARY
360
24F
102
}
330
2A
100
AcDbVisualStyle
  2
Facepattern
 70
    15
 71
     2
 72
     2
 73
     0
 90
        0
 40
-0.6
 41
-30.0
 62
     5
 63
     7
 74
     1
 91
        4
 64
     7
 65
   257
 75
     1
175
     1
 42
1.0
 92
        8
 66
     7
 43
1.0
 76
     1
 77
     6
 78
     2
 67
     7
 79
     5
170
     0
171
     0
290
     0
174
     0
 93
        1
 44
0.0
173
     0
291
     1
 45
0.0
1001
ACAD
1000
AcDbSavedByObjectVersion
1070
     0
  0
VISUALSTYLE
  5
2B
102
{ACAD_REACTORS
330
2A
102
}
102
{ACAD_XDICTIONARY
360
233
102
}
330
2A
100
AcDbVisualStyle
  2
Flat
 70
     0
 71
     2
 72
     1
 73
     1
 90
        2
 40
-0.6
 41
30.0
 62
     5
 63
     7
 74
     0
 91
        4
 64
     7
 65
   257
 75
     1
175
     1
 42
1.0
 92
        8
 66
     7
 43
1.0
 76
     1
 77
     6
 78
     2
 67
     7
 79
     5
170
     0
171
     0
290
     0
174
     0
 93
       13
 44
0.0
173
     0
291
     1
 45
0.0
1001
ACAD
1000
AcDbSavedByObjectVersion
1070
     0
  0
VISUALSTYLE
  5
2C
102
{ACAD_REACTORS
330
2A
102
}
102
{ACAD_XDICTIONARY
360
235
102
}
330
2A
100
AcDbVisualStyle
  2
FlatWithEdges
 70
     1
 71
     2
 72
     1
 73
     1
 90
        2
 40
-0.6
 41
30.0
 62
     5
 63
     7
 74
     1
 91
        4
 64
     7
 65
   257
 75
     1
175
     1
 42
1.0
 92
        0
 66
   257
 43
1.0
 76
     1
 77
     6
 78
     2
 67
     7
 79
     5
170
     0
171
     0
290
     0
174
     0
 93
       13
 44
0.0
173
     0
291
     1
 45
0.0
1001
ACAD
1000
AcDbSavedByObjectVersion
1070
     0
  0
VISUALSTYLE
  5
2D
102
{ACAD_REACTORS
330
2A
102
}
102
{ACAD_XDICTIONARY
360
237
102
}
330
2A
100
AcDbVisualStyle
  2
Gouraud
 70
     2
 71
     2
 72
     2
 73
     1
 90
        2
 40
-0.6
 41
30.0
 62
     5
 63
     7
 74
     0
 91
        4
 64
     7
 65
   257
 75
     1
175
     1
 42
1.0
 92
        0
 66
     7
 43
1.0
 76
     1
 77
     6
 78
     2
 67
     7
 79
     5
170
     0
171
     0
290
     0
174
     0
 93
       13
 44
0.0
173
     0
291
     1
 45
0.0
1001
ACAD
1000
AcDbSavedByObjectVersion
1070
     0
  0
VISUALSTYLE
  5
2E
102
{ACAD_REACTORS
330
2A
102
}
102
{ACAD_XDICTIONARY
360
239
102
}
330
2A
100
AcDbVisualStyle
  2
GouraudWithEdges
 70
     3
 71
     2
 72
     2
 73
     1
 90
        2
 40
-0.6
 41
30.0
 62
     5
 63
     7
 74
     1
 91
        4
 64
     7
 65
   257
 75
     1
175
     1
 42
1.0
 92
        0
 66
   257
 43
1.0
 76
     1
 77
     6
 78
     2
 67
     7
 79
     5
170
     0
171
     0
290
     0
174
     0
 93
       13
 44
0.0
173
     0
291
     1
 45
0.0
1001
ACAD
1000
AcDbSavedByObjectVersion
1070
     0
  0
VISUALSTYLE
  5
38
102
{ACAD_REACTORS
330
2A
102
}
102
{ACAD_XDICTIONARY
360
24D
102
}
330
2A
100
AcDbVisualStyle
  2
Linepattern
 70
    14
 71
     2
 72
     2
 73
     0
 90
        0
 40
-0.6
 41
-30.0
 62
     5
 63
     7
 74
     1
 91
        4
 64
     7
 65
   257
 75
     7
175
     7
 42
1.0
 92
        8
 66
     7
 43
1.0
 76
     1
 77
     6
 78
     2
 67
     7
 79
     5
170
     0
171
     0
290
     0
174
     0
 93
        1
 44
0.0
173
     0
291
     1
 45
0.0
1001
ACAD
1000
AcDbSavedByObjectVersion
1070
     0
  0
VISUALSTYLE
  5
33
102
{ACAD_REACTORS
330
2A
102
}
102
{ACAD_XDICTIONARY
360
243
102
}
330
2A
100
AcDbVisualStyle
  2
Realistic
 70
     8
 71
     2
 72
     2
 73
     0
 90
        0
 40
-0.6
 41
-30.0
 62
     5
 63
     7
 74
     1
 91
        0
 64
     7
 65
   257
 75
     1
175
     1
 42
1.0
 92
        8
 66
     8
 43
1.0
 76
     1
 77
     6
 78
     2
 67
     7
 79
     5
170
     0
171
     0
290
     0
174
     0
 93
       13
 44
0.0
173
     0
291
     0
 45
0.0
1001
ACAD
1000
AcDbSavedByObjectVersion
1070
     0
  0
VISUALSTYLE
  5
37
102
{ACAD_REACTORS
330
2A
102
}
102
{ACAD_XDICTIONARY
360
24B
102
}
330
2A
100
AcDbVisualStyle
  2
Thicken
 70
    13
 71
     2
 72
     2
 73
     0
 90
        0
 40
-0.6
 41
-30.0
 62
     5
 63
     7
 74
     1
 91
        4
 64
     7
 65
   257
 75
     1
175
     1
 42
1.0
 92
       12
 66
     7
 43
1.0
 76
     1
 77
     6
 78
     2
 67
     7
 79
     5
170
     0
171
     0
290
     0
174
     0
 93
        1
 44
0.0
173
     0
291
     1
 45
0.0
1001
ACAD
1000
AcDbSavedByObjectVersion
1070
     0
  0
DICTIONARYVAR
  5
231
102
{ACAD_REACTORS
330
22E
102
}
330
22E
100
DictionaryVariables
280
     0
  1
2
  0
DICTIONARYVAR
  5
232
102
{ACAD_REACTORS
330
22E
102
}
330
22E
100
DictionaryVariables
280
     0
  1
1
  0
DICTIONARY
  5
255
330
3D
100
AcDbDictionary
280
     1
281
     1
  3
ACAD_XREC_ROUNDTRIP
360
256
  0
DICTIONARY
  5
253
330
3C
100
AcDbDictionary
280
     1
281
     1
  3
ACAD_XREC_ROUNDTRIP
360
254
  0
DICTIONARY
  5
257
330
3E
100
AcDbDictionary
280
     1
281
     1
  3
ACAD_XREC_ROUNDTRIP
360
258
  0
DICTIONARY
  5
23B
330
2F
100
AcDbDictionary
280
     1
281
     1
  3
ACAD_XREC_ROUNDTRIP
360
23C
  0
DICTIONARY
  5
23F
330
31
100
AcDbDictionary
280
     1
281
     1
  3
ACAD_XREC_ROUNDTRIP
360
240
  0
DICTIONARY
  5
23D
330
30
100
AcDbDictionary
280
     1
281
     1
  3
ACAD_XREC_ROUNDTRIP
360
23E
  0
DICTIONARY
  5
241
330
32
100
AcDbDictionary
280
     1
281
     1
  3
ACAD_XREC_ROUNDTRIP
360
242
  0
DICTIONARY
  5
249
330
36
100
AcDbDictionary
280
     1
281
     1
  3
ACAD_XREC_ROUNDTRIP
360
24A
  0
DICTIONARY
  5
251
330
3A
100
AcDbDictionary
280
     1
281
     1
  3
ACAD_XREC_ROUNDTRIP
360
252
  0
DICTIONARY
  5
245
330
34
100
AcDbDictionary
280
     1
281
     1
  3
ACAD_XREC_ROUNDTRIP
360
246
  0
DICTIONARY
  5
247
330
35
100
AcDbDictionary
280
     1
281
     1
  3
ACAD_XREC_ROUNDTRIP
360
248
  0
DICTIONARY
  5
24F
330
39
100
AcDbDictionary
280
     1
281
     1
  3
ACAD_XREC_ROUNDTRIP
360
250
  0
DICTIONARY
  5
233
330
2B
100
AcDbDictionary
280
     1
281
     1
  3
ACAD_XREC_ROUNDTRIP
360
234
  0
DICTIONARY
  5
235
330
2C
100
AcDbDictionary
280
     1
281
     1
  3
ACAD_XREC_ROUNDTRIP
360
236
  0
DICTIONARY
  5
237
330
2D
100
AcDbDictionary
280
     1
281
     1
  3
ACAD_XREC_ROUNDTRIP
360
238
  0
DICTIONARY
  5
239
330
2E
100
AcDbDictionary
280
     1
281
     1
  3
ACAD_XREC_ROUNDTRIP
360
23A
  0
DICTIONARY
  5
24D
330
38
100
AcDbDictionary
280
     1
281
     1
  3
ACAD_XREC_ROUNDTRIP
360
24E
  0
DICTIONARY
  5
243
330
33
100
AcDbDictionary
280
     1
281
     1
  3
ACAD_XREC_ROUNDTRIP
360
244
  0
DICTIONARY
  5
24B
330
37
100
AcDbDictionary
280
     1
281
     1
  3
ACAD_XREC_ROUNDTRIP
360
24C
  0
XRECORD
  5
256
102
{ACAD_REACTORS
330
255
102
}
330
255
100
AcDbXrecord
280
     1
102
MATERIAL
148
0.0
149
0.0
149
0.0
 93
        0
 94
      127
282
     0
 72
     1
 77
     1
171
     1
175
     1
179
     1
273
     0
  0
XRECORD
  5
254
102
{ACAD_REACTORS
330
253
102
}
330
253
100
AcDbXrecord
280
     1
102
MATERIAL
148
0.0
149
0.0
149
0.0
 93
        0
 94
      127
282
     0
 72
     1
 77
     1
171
     1
175
     1
179
     1
273
     0
  0
XRECORD
  5
258
102
{ACAD_REACTORS
330
257
102
}
330
257
100
AcDbXrecord
280
     1
102
MATERIAL
148
0.0
149
0.0
149
0.0
 93
        0
 94
      127
282
     0
 72
     1
 77
     1
171
     1
175
     1
179
     1
273
     0
  0
XRECORD
  5
23C
102
{ACAD_REACTORS
330
23B
102
}
330
23B
100
AcDbXrecord
280
     1
102
RTVSPropertyOp0
 70
     1
102
RTVSPropertyOp1
 70
     1
102
RTVSPropertyOp2
 70
     1
102
RTVSPropertyOp3
 70
     1
102
RTVSPropertyOp4
 70
     1
102
RTVSPropertyOp5
 70
     1
102
RTVSPropertyOp6
 70
     1
102
RTVSPropertyOp7
 70
     1
102
RTVSPropertyOp8
 70
     1
102
RTVSPropertyOp9
 70
     1
102
RTVSPropertyOp10
 70
     1
102
RTVSPropertyOp11
 70
     1
102
RTVSPropertyOp12
 70
     1
102
RTVSPropertyOp13
 70
     1
102
RTVSPropertyOp14
 70
     1
102
RTVSPropertyOp15
 70
     1
102
RTVSPropertyOp16
 70
     1
102
RTVSPropertyOp17
 70
     1
102
RTVSPropertyOp18
 70
     1
102
RTVSPropertyOp19
 70
     1
102
RTVSPropertyOp20
 70
     1
102
RTVSPropertyOp21
 70
     1
102
RTVSPropertyOp22
 70
     1
102
RTVSPropertyOp23
 70
     1
102
RTVSPropertyOp24
 70
     1
102
RTVSPropertyOp25
 70
     1
102
RTVSPropertyOp26
 70
     1
102
RTVSPropertyOp27
 70
     1
102
RTVSPropertyOp28
 70
     1
102
RTVSPropertyOp29
 70
     1
102
RTVSPropertyOp30
 70
     1
102
RTVSPropertyOp31
 70
     1
102
RTVSPropertyOp32
 70
     1
  0
XRECORD
  5
240
102
{ACAD_REACTORS
330
23F
102
}
330
23F
100
AcDbXrecord
280
     1
102
RTVSPropertyOp0
 70
     1
102
RTVSPropertyOp1
 70
     1
102
RTVSPropertyOp2
 70
     1
102
RTVSPropertyOp3
 70
     1
102
RTVSPropertyOp4
 70
     1
102
RTVSPropertyOp5
 70
     1
102
RTVSPropertyOp6
 70
     1
102
RTVSPropertyOp7
 70
     1
102
RTVSPropertyOp8
 70
     1
102
RTVSPropertyOp9
 70
     1
102
RTVSPropertyOp10
 70
     1
102
RTVSPropertyOp11
 70
     1
102
RTVSPropertyOp12
 70
     1
102
RTVSPropertyOp13
 70
     1
102
RTVSPropertyOp14
 70
     1
102
RTVSPropertyOp15
 70
     1
102
RTVSPropertyOp16
 70
     1
102
RTVSPropertyOp17
 70
     1
102
RTVSPropertyOp18
 70
     1
102
RTVSPropertyOp19
 70
     1
102
RTVSPropertyOp20
 70
     1
102
RTVSPropertyOp21
 70
     1
102
RTVSPropertyOp22
 70
     1
102
RTVSPropertyOp23
 70
     1
102
RTVSPropertyOp24
 70
     1
102
RTVSPropertyOp25
 70
     1
102
RTVSPropertyOp26
 70
     1
102
RTVSPropertyOp27
 70
     1
102
RTVSPropertyOp28
 70
     1
102
RTVSPropertyOp29
 70
     1
102
RTVSPropertyOp30
 70
     1
102
RTVSPropertyOp31
 70
     1
102
RTVSPropertyOp32
 70
     1
  0
XRECORD
  5
23E
102
{ACAD_REACTORS
330
23D
102
}
330
23D
100
AcDbXrecord
280
     1
102
RTVSPropertyOp0
 70
     1
102
RTVSPropertyOp1
 70
     1
102
RTVSPropertyOp2
 70
     1
102
RTVSPropertyOp3
 70
     1
102
RTVSPropertyOp4
 70
     1
102
RTVSPropertyOp5
 70
     1
102
RTVSPropertyOp6
 70
     1
102
RTVSPropertyOp7
 70
     1
102
RTVSPropertyOp8
 70
     1
102
RTVSPropertyOp9
 70
     1
102
RTVSPropertyOp10
 70
     1
102
RTVSPropertyOp11
 70
     1
102
RTVSPropertyOp12
 70
     1
102
RTVSPropertyOp13
 70
     1
102
RTVSPropertyOp14
 70
     1
102
RTVSPropertyOp15
 70
     1
102
RTVSPropertyOp16
 70
     1
102
RTVSPropertyOp17
 70
     1
102
RTVSPropertyOp18
 70
     1
102
RTVSPropertyOp19
 70
     1
102
RTVSPropertyOp20
 70
     1
102
RTVSPropertyOp21
 70
     1
102
RTVSPropertyOp22
 70
     1
102
RTVSPropertyOp23
 70
     1
102
RTVSPropertyOp24
 70
     1
102
RTVSPropertyOp25
 70
     1
102
RTVSPropertyOp26
 70
     1
102
RTVSPropertyOp27
 70
     1
102
RTVSPropertyOp28
 70
     1
102
RTVSPropertyOp29
 70
     1
102
RTVSPropertyOp30
 70
     1
102
RTVSPropertyOp31
 70
     1
102
RTVSPropertyOp32
 70
     1
  0
XRECORD
  5
242
102
{ACAD_REACTORS
330
241
102
}
330
241
100
AcDbXrecord
280
     1
102
RTVSPropertyOp0
 70
     1
102
RTVSPropertyOp1
 70
     1
102
RTVSPropertyOp2
 70
     1
102
RTVSPropertyOp3
 70
     1
102
RTVSPropertyOp4
 70
     1
102
RTVSPropertyOp5
 70
     1
102
RTVSPropertyOp6
 70
     1
102
RTVSPropertyOp7
 70
     1
102
RTVSPropertyOp8
 70
     1
102
RTVSPropertyOp9
 70
     1
102
RTVSPropertyOp10
 70
     1
102
RTVSPropertyOp11
 70
     1
102
RTVSPropertyOp12
 70
     1
102
RTVSPropertyOp13
 70
     1
102
RTVSPropertyOp14
 70
     1
102
RTVSPropertyOp15
 70
     1
102
RTVSPropertyOp16
 70
     1
102
RTVSPropertyOp17
 70
     1
102
RTVSPropertyOp18
 70
     1
102
RTVSPropertyOp19
 70
     1
102
RTVSPropertyOp20
 70
     1
102
RTVSPropertyOp21
 70
     1
102
RTVSPropertyOp22
 70
     1
102
RTVSPropertyOp23
 70
     1
102
RTVSPropertyOp24
 70
     1
102
RTVSPropertyOp25
 70
     1
102
RTVSPropertyOp26
 70
     1
102
RTVSPropertyOp27
 70
     1
102
RTVSPropertyOp28
 70
     1
102
RTVSPropertyOp29
 70
     1
102
RTVSPropertyOp30
 70
     1
102
RTVSPropertyOp31
 70
     1
102
RTVSPropertyOp32
 70
     1
  0
XRECORD
  5
24A
102
{ACAD_REACTORS
330
249
102
}
330
249
100
AcDbXrecord
280
     1
102
RTVSPropertyOp0
 70
     1
102
RTVSPropertyOp1
 70
     1
102
RTVSPropertyOp2
 70
     1
102
RTVSPropertyOp3
 70
     1
102
RTVSPropertyOp4
 70
     1
102
RTVSPropertyOp5
 70
     1
102
RTVSPropertyOp6
 70
     1
102
RTVSPropertyOp7
 70
     1
102
RTVSPropertyOp8
 70
     1
102
RTVSPropertyOp9
 70
     1
102
RTVSPropertyOp10
 70
     1
102
RTVSPropertyOp11
 70
     1
102
RTVSPropertyOp12
 70
     1
102
RTVSPropertyOp13
 70
     1
102
RTVSPropertyOp14
 70
     1
102
RTVSPropertyOp15
 70
     1
102
RTVSPropertyOp16
 70
     1
102
RTVSPropertyOp17
 70
     1
102
RTVSPropertyOp18
 70
     1
102
RTVSPropertyOp19
 70
     1
102
RTVSPropertyOp20
 70
     1
102
RTVSPropertyOp21
 70
     1
102
RTVSPropertyOp22
 70
     1
102
RTVSPropertyOp23
 70
     1
102
RTVSPropertyOp24
 70
     1
102
RTVSPropertyOp25
 70
     1
102
RTVSPropertyOp26
 70
     1
102
RTVSPropertyOp27
 70
     1
102
RTVSPropertyOp28
 70
     1
102
RTVSPropertyOp29
 70
     1
102
RTVSPropertyOp30
 70
     1
102
RTVSPropertyOp31
 70
     1
102
RTVSPropertyOp32
 70
     1
  0
XRECORD
  5
252
102
{ACAD_REACTORS
330
251
102
}
330
251
100
AcDbXrecord
280
     1
102
RTVSPropertyOp0
 70
     1
102
RTVSPropertyOp1
 70
     1
102
RTVSPropertyOp2
 70
     1
102
RTVSPropertyOp3
 70
     1
102
RTVSPropertyOp4
 70
     1
102
RTVSPropertyOp5
 70
     1
102
RTVSPropertyOp6
 70
     1
102
RTVSPropertyOp7
 70
     1
102
RTVSPropertyOp8
 70
     1
102
RTVSPropertyOp9
 70
     1
102
RTVSPropertyOp10
 70
     1
102
RTVSPropertyOp11
 70
     1
102
RTVSPropertyOp12
 70
     1
102
RTVSPropertyOp13
 70
     1
102
RTVSPropertyOp14
 70
     1
102
RTVSPropertyOp15
 70
     1
102
RTVSPropertyOp16
 70
     1
102
RTVSPropertyOp17
 70
     1
102
RTVSPropertyOp18
 70
     1
102
RTVSPropertyOp19
 70
     1
102
RTVSPropertyOp20
 70
     1
102
RTVSPropertyOp21
 70
     1
102
RTVSPropertyOp22
 70
     1
102
RTVSPropertyOp23
 70
     1
102
RTVSPropertyOp24
 70
     1
102
RTVSPropertyOp25
 70
     1
102
RTVSPropertyOp26
 70
     1
102
RTVSPropertyOp27
 70
     1
102
RTVSPropertyOp28
 70
     1
102
RTVSPropertyOp29
 70
     1
102
RTVSPropertyOp30
 70
     1
102
RTVSPropertyOp31
 70
     1
102
RTVSPropertyOp32
 70
     1
  0
XRECORD
  5
246
102
{ACAD_REACTORS
330
245
102
}
330
245
100
AcDbXrecord
280
     1
102
RTVSPropertyOp0
 70
     1
102
RTVSPropertyOp1
 70
     1
102
RTVSPropertyOp2
 70
     1
102
RTVSPropertyOp3
 70
     1
102
RTVSPropertyOp4
 70
     1
102
RTVSPropertyOp5
 70
     1
102
RTVSPropertyOp6
 70
     1
102
RTVSPropertyOp7
 70
     1
102
RTVSPropertyOp8
 70
     1
102
RTVSPropertyOp9
 70
     1
102
RTVSPropertyOp10
 70
     1
102
RTVSPropertyOp11
 70
     1
102
RTVSPropertyOp12
 70
     1
102
RTVSPropertyOp13
 70
     1
102
RTVSPropertyOp14
 70
     1
102
RTVSPropertyOp15
 70
     1
102
RTVSPropertyOp16
 70
     1
102
RTVSPropertyOp17
 70
     1
102
RTVSPropertyOp18
 70
     1
102
RTVSPropertyOp19
 70
     1
102
RTVSPropertyOp20
 70
     1
102
RTVSPropertyOp21
 70
     1
102
RTVSPropertyOp22
 70
     1
102
RTVSPropertyOp23
 70
     1
102
RTVSPropertyOp24
 70
     1
102
RTVSPropertyOp25
 70
     1
102
RTVSPropertyOp26
 70
     1
102
RTVSPropertyOp27
 70
     1
102
RTVSPropertyOp28
 70
     1
102
RTVSPropertyOp29
 70
     1
102
RTVSPropertyOp30
 70
     1
102
RTVSPropertyOp31
 70
     1
102
RTVSPropertyOp32
 70
     1
  0
XRECORD
  5
248
102
{ACAD_REACTORS
330
247
102
}
330
247
100
AcDbXrecord
280
     1
102
RTVSPropertyOp0
 70
     1
102
RTVSPropertyOp1
 70
     1
102
RTVSPropertyOp2
 70
     1
102
RTVSPropertyOp3
 70
     1
102
RTVSPropertyOp4
 70
     1
102
RTVSPropertyOp5
 70
     1
102
RTVSPropertyOp6
 70
     1
102
RTVSPropertyOp7
 70
     1
102
RTVSPropertyOp8
 70
     1
102
RTVSPropertyOp9
 70
     1
102
RTVSPropertyOp10
 70
     1
102
RTVSPropertyOp11
 70
     1
102
RTVSPropertyOp12
 70
     1
102
RTVSPropertyOp13
 70
     1
102
RTVSPropertyOp14
 70
     1
102
RTVSPropertyOp15
 70
     1
102
RTVSPropertyOp16
 70
     1
102
RTVSPropertyOp17
 70
     1
102
RTVSPropertyOp18
 70
     1
102
RTVSPropertyOp19
 70
     1
102
RTVSPropertyOp20
 70
     1
102
RTVSPropertyOp21
 70
     1
102
RTVSPropertyOp22
 70
     1
102
RTVSPropertyOp23
 70
     1
102
RTVSPropertyOp24
 70
     1
102
RTVSPropertyOp25
 70
     1
102
RTVSPropertyOp26
 70
     1
102
RTVSPropertyOp27
 70
     1
102
RTVSPropertyOp28
 70
     1
102
RTVSPropertyOp29
 70
     1
102
RTVSPropertyOp30
 70
     1
102
RTVSPropertyOp31
 70
     1
102
RTVSPropertyOp32
 70
     1
  0
XRECORD
  5
250
102
{ACAD_REACTORS
330
24F
102
}
330
24F
100
AcDbXrecord
280
     1
102
RTVSPropertyOp0
 70
     1
102
RTVSPropertyOp1
 70
     1
102
RTVSPropertyOp2
 70
     1
102
RTVSPropertyOp3
 70
     1
102
RTVSPropertyOp4
 70
     1
102
RTVSPropertyOp5
 70
     1
102
RTVSPropertyOp6
 70
     1
102
RTVSPropertyOp7
 70
     1
102
RTVSPropertyOp8
 70
     1
102
RTVSPropertyOp9
 70
     1
102
RTVSPropertyOp10
 70
     1
102
RTVSPropertyOp11
 70
     1
102
RTVSPropertyOp12
 70
     1
102
RTVSPropertyOp13
 70
     1
102
RTVSPropertyOp14
 70
     1
102
RTVSPropertyOp15
 70
     1
102
RTVSPropertyOp16
 70
     1
102
RTVSPropertyOp17
 70
     1
102
RTVSPropertyOp18
 70
     1
102
RTVSPropertyOp19
 70
     1
102
RTVSPropertyOp20
 70
     1
102
RTVSPropertyOp21
 70
     1
102
RTVSPropertyOp22
 70
     1
102
RTVSPropertyOp23
 70
     1
102
RTVSPropertyOp24
 70
     1
102
RTVSPropertyOp25
 70
     1
102
RTVSPropertyOp26
 70
     1
102
RTVSPropertyOp27
 70
     1
102
RTVSPropertyOp28
 70
     1
102
RTVSPropertyOp29
 70
     1
102
RTVSPropertyOp30
 70
     1
102
RTVSPropertyOp31
 70
     1
102
RTVSPropertyOp32
 70
     1
  0
XRECORD
  5
234
102
{ACAD_REACTORS
330
233
102
}
330
233
100
AcDbXrecord
280
     1
102
RTVSPropertyOp0
 70
     1
102
RTVSPropertyOp1
 70
     1
102
RTVSPropertyOp2
 70
     1
102
RTVSPropertyOp3
 70
     1
102
RTVSPropertyOp4
 70
     1
102
RTVSPropertyOp5
 70
     1
102
RTVSPropertyOp6
 70
     1
102
RTVSPropertyOp7
 70
     1
102
RTVSPropertyOp8
 70
     1
102
RTVSPropertyOp9
 70
     1
102
RTVSPropertyOp10
 70
     1
102
RTVSPropertyOp11
 70
     1
102
RTVSPropertyOp12
 70
     1
102
RTVSPropertyOp13
 70
     1
102
RTVSPropertyOp14
 70
     1
102
RTVSPropertyOp15
 70
     1
102
RTVSPropertyOp16
 70
     1
102
RTVSPropertyOp17
 70
     1
102
RTVSPropertyOp18
 70
     1
102
RTVSPropertyOp19
 70
     1
102
RTVSPropertyOp20
 70
     1
102
RTVSPropertyOp21
 70
     1
102
RTVSPropertyOp22
 70
     1
102
RTVSPropertyOp23
 70
     1
102
RTVSPropertyOp24
 70
     1
102
RTVSPropertyOp25
 70
     1
102
RTVSPropertyOp26
 70
     1
102
RTVSPropertyOp27
 70
     1
102
RTVSPropertyOp28
 70
     1
102
RTVSPropertyOp29
 70
     1
102
RTVSPropertyOp30
 70
     1
102
RTVSPropertyOp31
 70
     1
102
RTVSPropertyOp32
 70
     1
  0
XRECORD
  5
236
102
{ACAD_REACTORS
330
235
102
}
330
235
100
AcDbXrecord
280
     1
102
RTVSPropertyOp0
 70
     1
102
RTVSPropertyOp1
 70
     1
102
RTVSPropertyOp2
 70
     1
102
RTVSPropertyOp3
 70
     1
102
RTVSPropertyOp4
 70
     1
102
RTVSPropertyOp5
 70
     1
102
RTVSPropertyOp6
 70
     1
102
RTVSPropertyOp7
 70
     1
102
RTVSPropertyOp8
 70
     1
102
RTVSPropertyOp9
 70
     1
102
RTVSPropertyOp10
 70
     1
102
RTVSPropertyOp11
 70
     1
102
RTVSPropertyOp12
 70
     1
102
RTVSPropertyOp13
 70
     1
102
RTVSPropertyOp14
 70
     1
102
RTVSPropertyOp15
 70
     1
102
RTVSPropertyOp16
 70
     1
102
RTVSPropertyOp17
 70
     1
102
RTVSPropertyOp18
 70
     1
102
RTVSPropertyOp19
 70
     1
102
RTVSPropertyOp20
 70
     1
102
RTVSPropertyOp21
 70
     1
102
RTVSPropertyOp22
 70
     1
102
RTVSPropertyOp23
 70
     1
102
RTVSPropertyOp24
 70
     1
102
RTVSPropertyOp25
 70
     1
102
RTVSPropertyOp26
 70
     1
102
RTVSPropertyOp27
 70
     1
102
RTVSPropertyOp28
 70
     1
102
RTVSPropertyOp29
 70
     1
102
RTVSPropertyOp30
 70
     1
102
RTVSPropertyOp31
 70
     1
102
RTVSPropertyOp32
 70
     1
  0
XRECORD
  5
238
102
{ACAD_REACTORS
330
237
102
}
330
237
100
AcDbXrecord
280
     1
102
RTVSPropertyOp0
 70
     1
102
RTVSPropertyOp1
 70
     1
102
RTVSPropertyOp2
 70
     1
102
RTVSPropertyOp3
 70
     1
102
RTVSPropertyOp4
 70
     1
102
RTVSPropertyOp5
 70
     1
102
RTVSPropertyOp6
 70
     1
102
RTVSPropertyOp7
 70
     1
102
RTVSPropertyOp8
 70
     1
102
RTVSPropertyOp9
 70
     1
102
RTVSPropertyOp10
 70
     1
102
RTVSPropertyOp11
 70
     1
102
RTVSPropertyOp12
 70
     1
102
RTVSPropertyOp13
 70
     1
102
RTVSPropertyOp14
 70
     1
102
RTVSPropertyOp15
 70
     1
102
RTVSPropertyOp16
 70
     1
102
RTVSPropertyOp17
 70
     1
102
RTVSPropertyOp18
 70
     1
102
RTVSPropertyOp19
 70
     1
102
RTVSPropertyOp20
 70
     1
102
RTVSPropertyOp21
 70
     1
102
RTVSPropertyOp22
 70
     1
102
RTVSPropertyOp23
 70
     1
102
RTVSPropertyOp24
 70
     1
102
RTVSPropertyOp25
 70
     1
102
RTVSPropertyOp26
 70
     1
102
RTVSPropertyOp27
 70
     1
102
RTVSPropertyOp28
 70
     1
102
RTVSPropertyOp29
 70
     1
102
RTVSPropertyOp30
 70
     1
102
RTVSPropertyOp31
 70
     1
102
RTVSPropertyOp32
 70
     1
  0
XRECORD
  5
23A
102
{ACAD_REACTORS
330
239
102
}
330
239
100
AcDbXrecord
280
     1
102
RTVSPropertyOp0
 70
     1
102
RTVSPropertyOp1
 70
     1
102
RTVSPropertyOp2
 70
     1
102
RTVSPropertyOp3
 70
     1
102
RTVSPropertyOp4
 70
     1
102
RTVSPropertyOp5
 70
     1
102
RTVSPropertyOp6
 70
     1
102
RTVSPropertyOp7
 70
     1
102
RTVSPropertyOp8
 70
     1
102
RTVSPropertyOp9
 70
     1
102
RTVSPropertyOp10
 70
     1
102
RTVSPropertyOp11
 70
     1
102
RTVSPropertyOp12
 70
     1
102
RTVSPropertyOp13
 70
     1
102
RTVSPropertyOp14
 70
     1
102
RTVSPropertyOp15
 70
     1
102
RTVSPropertyOp16
 70
     1
102
RTVSPropertyOp17
 70
     1
102
RTVSPropertyOp18
 70
     1
102
RTVSPropertyOp19
 70
     1
102
RTVSPropertyOp20
 70
     1
102
RTVSPropertyOp21
 70
     1
102
RTVSPropertyOp22
 70
     1
102
RTVSPropertyOp23
 70
     1
102
RTVSPropertyOp24
 70
     1
102
RTVSPropertyOp25
 70
     1
102
RTVSPropertyOp26
 70
     1
102
RTVSPropertyOp27
 70
     1
102
RTVSPropertyOp28
 70
     1
102
RTVSPropertyOp29
 70
     1
102
RTVSPropertyOp30
 70
     1
102
RTVSPropertyOp31
 70
     1
102
RTVSPropertyOp32
 70
     1
  0
XRECORD
  5
24E
102
{ACAD_REACTORS
330
24D
102
}
330
24D
100
AcDbXrecord
280
     1
102
RTVSPropertyOp0
 70
     1
102
RTVSPropertyOp1
 70
     1
102
RTVSPropertyOp2
 70
     1
102
RTVSPropertyOp3
 70
     1
102
RTVSPropertyOp4
 70
     1
102
RTVSPropertyOp5
 70
     1
102
RTVSPropertyOp6
 70
     1
102
RTVSPropertyOp7
 70
     1
102
RTVSPropertyOp8
 70
     1
102
RTVSPropertyOp9
 70
     1
102
RTVSPropertyOp10
 70
     1
102
RTVSPropertyOp11
 70
     1
102
RTVSPropertyOp12
 70
     1
102
RTVSPropertyOp13
 70
     1
102
RTVSPropertyOp14
 70
     1
102
RTVSPropertyOp15
 70
     1
102
RTVSPropertyOp16
 70
     1
102
RTVSPropertyOp17
 70
     1
102
RTVSPropertyOp18
 70
     1
102
RTVSPropertyOp19
 70
     1
102
RTVSPropertyOp20
 70
     1
102
RTVSPropertyOp21
 70
     1
102
RTVSPropertyOp22
 70
     1
102
RTVSPropertyOp23
 70
     1
102
RTVSPropertyOp24
 70
     1
102
RTVSPropertyOp25
 70
     1
102
RTVSPropertyOp26
 70
     1
102
RTVSPropertyOp27
 70
     1
102
RTVSPropertyOp28
 70
     1
102
RTVSPropertyOp29
 70
     1
102
RTVSPropertyOp30
 70
     1
102
RTVSPropertyOp31
 70
     1
102
RTVSPropertyOp32
 70
     1
  0
XRECORD
  5
244
102
{ACAD_REACTORS
330
243
102
}
330
243
100
AcDbXrecord
280
     1
102
RTVSPropertyOp0
 70
     1
102
RTVSPropertyOp1
 70
     1
102
RTVSPropertyOp2
 70
     1
102
RTVSPropertyOp3
 70
     1
102
RTVSPropertyOp4
 70
     1
102
RTVSPropertyOp5
 70
     1
102
RTVSPropertyOp6
 70
     1
102
RTVSPropertyOp7
 70
     1
102
RTVSPropertyOp8
 70
     1
102
RTVSPropertyOp9
 70
     1
102
RTVSPropertyOp10
 70
     1
102
RTVSPropertyOp11
 70
     1
102
RTVSPropertyOp12
 70
     1
102
RTVSPropertyOp13
 70
     1
102
RTVSPropertyOp14
 70
     1
102
RTVSPropertyOp15
 70
     1
102
RTVSPropertyOp16
 70
     1
102
RTVSPropertyOp17
 70
     1
102
RTVSPropertyOp18
 70
     1
102
RTVSPropertyOp19
 70
     1
102
RTVSPropertyOp20
 70
     1
102
RTVSPropertyOp21
 70
     1
102
RTVSPropertyOp22
 70
     1
102
RTVSPropertyOp23
 70
     1
102
RTVSPropertyOp24
 70
     1
102
RTVSPropertyOp25
 70
     1
102
RTVSPropertyOp26
 70
     1
102
RTVSPropertyOp27
 70
     1
102
RTVSPropertyOp28
 70
     1
102
RTVSPropertyOp29
 70
     1
102
RTVSPropertyOp30
 70
     1
102
RTVSPropertyOp31
 70
     1
102
RTVSPropertyOp32
 70
     1
  0
XRECORD
  5
24C
102
{ACAD_REACTORS
330
24B
102
}
330
24B
100
AcDbXrecord
280
     1
102
RTVSPropertyOp0
 70
     1
102
RTVSPropertyOp1
 70
     1
102
RTVSPropertyOp2
 70
     1
102
RTVSPropertyOp3
 70
     1
102
RTVSPropertyOp4
 70
     1
102
RTVSPropertyOp5
 70
     1
102
RTVSPropertyOp6
 70
     1
102
RTVSPropertyOp7
 70
     1
102
RTVSPropertyOp8
 70
     1
102
RTVSPropertyOp9
 70
     1
102
RTVSPropertyOp10
 70
     1
102
RTVSPropertyOp11
 70
     1
102
RTVSPropertyOp12
 70
     1
102
RTVSPropertyOp13
 70
     1
102
RTVSPropertyOp14
 70
     1
102
RTVSPropertyOp15
 70
     1
102
RTVSPropertyOp16
 70
     1
102
RTVSPropertyOp17
 70
     1
102
RTVSPropertyOp18
 70
     1
102
RTVSPropertyOp19
 70
     1
102
RTVSPropertyOp20
 70
     1
102
RTVSPropertyOp21
 70
     1
102
RTVSPropertyOp22
 70
     1
102
RTVSPropertyOp23
 70
     1
102
RTVSPropertyOp24
 70
     1
102
RTVSPropertyOp25
 70
     1
102
RTVSPropertyOp26
 70
     1
102
RTVSPropertyOp27
 70
     1
102
RTVSPropertyOp28
 70
     1
102
RTVSPropertyOp29
 70
     1
102
RTVSPropertyOp30
 70
     1
102
RTVSPropertyOp31
 70
     1
102
RTVSPropertyOp32
 70
     1
  0
ENDSEC
  0
EOF
