  0
SECTION
  2
HEADER
  9
$ACADVER
  1
AC1018
  9
$ACADMAINTVER
 70
     0
  9
$DWGCODEPAGE
  3
ANSI_1252
  9
$INSBASE
 10
0.0
 20
0.0
 30
0.0
  9
$EXTMIN
 10
-269.593877844302
 20
-152.276286478481
 30
0.0
  9
$EXTMAX
 10
223.770469707191
 20
81.77063309968568
 30
0.0
  9
$LIMMIN
 10
0.0
 20
0.0
  9
$LIMMAX
 10
12.0
 20
9.0
  9
$ORTHOMODE
 70
     0
  9
$REGENMODE
 70
     1
  9
$FILLMODE
 70
     1
  9
$QTEXTMODE
 70
     0
  9
$MIRRTEXT
 70
     1
  9
$LTSCALE
 40
1.0
  9
$ATTMODE
 70
     1
  9
$TEXTSIZE
 40
0.2
  9
$TRACEWID
 40
0.05
  9
$TEXTSTYLE
  7
Standard
  9
$CLAYER
  8
0
  9
$CELTYPE
  6
ByLayer
  9
$CECOLOR
 62
   256
  9
$CELTSCALE
 40
1.0
  9
$DISPSILH
 70
     0
  9
$DIMSCALE
 40
1.0
  9
$DIMASZ
 40
0.18
  9
$DIMEXO
 40
0.0625
  9
$DIMDLI
 40
0.38
  9
$DIMRND
 40
0.0
  9
$DIMDLE
 40
0.0
  9
$DIMEXE
 40
0.18
  9
$DIMTP
 40
0.0
  9
$DIMTM
 40
0.0
  9
$DIMTXT
 40
0.18
  9
$DIMCEN
 40
0.09
  9
$DIMTSZ
 40
0.0
  9
$DIMTOL
 70
     0
  9
$DIMLIM
 70
     0
  9
$DIMTIH
 70
     1
  9
$DIMTOH
 70
     1
  9
$DIMSE1
 70
     0
  9
$DIMSE2
 70
     0
  9
$DIMTAD
 70
     0
  9
$DIMZIN
 70
     0
  9
$DIMBLK
  1

  9
$DIMASO
 70
     1
  9
$DIMSHO
 70
     1
  9
$DIMPOST
  1

  9
$DIMAPOST
  1

  9
$DIMALT
 70
     0
  9
$DIMALTD
 70
     2
  9
$DIMALTF
 40
25.4
  9
$DIMLFAC
 40
1.0
  9
$DIMTOFL
 70
     0
  9
$DIMTVP
 40
0.0
  9
$DIMTIX
 70
     0
  9
$DIMSOXD
 70
     0
  9
$DIMSAH
 70
     0
  9
$DIMBLK1
  1

  9
$DIMBLK2
  1

  9
$DIMSTYLE
  2
Standard
  9
$DIMCLRD
 70
     0
  9
$DIMCLRE
 70
     0
  9
$DIMCLRT
 70
     0
  9
$DIMTFAC
 40
1.0
  9
$DIMGAP
 40
0.09
  9
$DIMJUST
 70
     0
  9
$DIMSD1
 70
     0
  9
$DIMSD2
 70
     0
  9
$DIMTOLJ
 70
     1
  9
$DIMTZIN
 70
     0
  9
$DIMALTZ
 70
     0
  9
$DIMALTTZ
 70
     0
  9
$DIMUPT
 70
     0
  9
$DIMDEC
 70
     4
  9
$DIMTDEC
 70
     4
  9
$DIMALTU
 70
     2
  9
$DIMALTTD
 70
     2
  9
$DIMTXSTY
  7
Standard
  9
$DIMAUNIT
 70
     0
  9
$DIMADEC
 70
     0
  9
$DIMALTRND
 40
0.0
  9
$DIMAZIN
 70
     0
  9
$DIMDSEP
 70
    46
  9
$DIMATFIT
 70
     3
  9
$DIMFRAC
 70
     0
  9
$DIMLDRBLK
  1

  9
$DIMLUNIT
 70
     2
  9
$DIMLWD
 70
    -2
  9
$DIMLWE
 70
    -2
  9
$DIMTMOVE
 70
     0
  9
$LUNITS
 70
     2
  9
$LUPREC
 70
     4
  9
$SKETCHINC
 40
0.1
  9
$FILLETRAD
 40
0.5
  9
$AUNITS
 70
     0
  9
$AUPREC
 70
     0
  9
$MENU
  1
.
  9
$ELEVATION
 40
0.0
  9
$PELEVATION
 40
0.0
  9
$THICKNESS
 40
0.0
  9
$LIMCHECK
 70
     0
  9
$CHAMFERA
 40
0.5
  9
$CHAMFERB
 40
0.5
  9
$CHAMFERC
 40
1.0
  9
$CHAMFERD
 40
0.0
  9
$SKPOLY
 70
     0
  9
$TDCREATE
 40
2456905.419632407
  9
$TDUCREATE
 40
2456905.336299074
  9
$TDUPDATE
 40
2456905.419632847
  9
$TDUUPDATE
 40
2456905.336299514
  9
$TDINDWG
 40
0.0000000116
  9
$TDUSRTIMER
 40
0.0000000116
  9
$USRTIMER
 70
     1
  9
$ANGBASE
 50
0.0
  9
$ANGDIR
 70
     0
  9
$PDMODE
 70
     0
  9
$PDSIZE
 40
0.0
  9
$PLINEWID
 40
0.0
  9
$SPLFRAME
 70
     0
  9
$SPLINETYPE
 70
     6
  9
$SPLINESEGS
 70
     8
  9
$HANDSEED
  5
2E8
  9
$SURFTAB1
 70
     6
  9
$SURFTAB2
 70
     6
  9
$SURFTYPE
 70
     6
  9
$SURFU
 70
     6
  9
$SURFV
 70
     6
  9
$UCSBASE
  2

  9
$UCSNAME
  2

  9
$UCSORG
 10
0.0
 20
0.0
 30
0.0
  9
$UCSXDIR
 10
1.0
 20
0.0
 30
0.0
  9
$UCSYDIR
 10
0.0
 20
1.0
 30
0.0
  9
$UCSORTHOREF
  2

  9
$UCSORTHOVIEW
 70
     0
  9
$UCSORGTOP
 10
0.0
 20
0.0
 30
0.0
  9
$UCSORGBOTTOM
 10
0.0
 20
0.0
 30
0.0
  9
$UCSORGLEFT
 10
0.0
 20
0.0
 30
0.0
  9
$UCSORGRIGHT
 10
0.0
 20
0.0
 30
0.0
  9
$UCSORGFRONT
 10
0.0
 20
0.0
 30
0.0
  9
$UCSORGBACK
 10
0.0
 20
0.0
 30
0.0
  9
$PUCSBASE
  2

  9
$PUCSNAME
  2

  9
$PUCSORG
 10
0.0
 20
0.0
 30
0.0
  9
$PUCSXDIR
 10
1.0
 20
0.0
 30
0.0
  9
$PUCSYDIR
 10
0.0
 20
1.0
 30
0.0
  9
$PUCSORTHOREF
  2

  9
$PUCSORTHOVIEW
 70
     0
  9
$PUCSORGTOP
 10
0.0
 20
0.0
 30
0.0
  9
$PUCSORGBOTTOM
 10
0.0
 20
0.0
 30
0.0
  9
$PUCSORGLEFT
 10
0.0
 20
0.0
 30
0.0
  9
$PUCSORGRIGHT
 10
0.0
 20
0.0
 30
0.0
  9
$PUCSORGFRONT
 10
0.0
 20
0.0
 30
0.0
  9
$PUCSORGBACK
 10
0.0
 20
0.0
 30
0.0
  9
$USERI1
 70
     0
  9
$USERI2
 70
     0
  9
$USERI3
 70
     0
  9
$USERI4
 70
     0
  9
$USERI5
 70
     0
  9
$USERR1
 40
18.1
  9
$USERR2
 40
0.0
  9
$USERR3
 40
0.0
  9
$USERR4
 40
0.0
  9
$USERR5
 40
0.0
  9
$WORLDVIEW
 70
     1
  9
$SHADEDGE
 70
     3
  9
$SHADEDIF
 70
    70
  9
$TILEMODE
 70
     1
  9
$MAXACTVP
 70
    64
  9
$PINSBASE
 10
0.0
 20
0.0
 30
0.0
  9
$PLIMCHECK
 70
     0
  9
$PEXTMIN
 10
1.00000000000000E+20
 20
1.00000000000000E+20
 30
1.00000000000000E+20
  9
$PEXTMAX
 10
-1.00000000000000E+20
 20
-1.00000000000000E+20
 30
-1.00000000000000E+20
  9
$PLIMMIN
 10
0.0
 20
0.0
  9
$PLIMMAX
 10
12.0
 20
9.0
  9
$UNITMODE
 70
     0
  9
$VISRETAIN
 70
     1
  9
$PLINEGEN
 70
     0
  9
$PSLTSCALE
 70
     1
  9
$TREEDEPTH
 70
  3020
  9
$CMLSTYLE
  2
Standard
  9
$CMLJUST
 70
     0
  9
$CMLSCALE
 40
1.0
  9
$PROXYGRAPHICS
 70
     1
  9
$MEASUREMENT
 70
     1
  9
$CELWEIGHT
370
    -1
  9
$ENDCAPS
280
     0
  9
$JOINSTYLE
280
     0
  9
$LWDISPLAY
290
     0
  9
$INSUNITS
 70
     4
  9
$HYPERLINKBASE
  1

  9
$STYLESHEET
  1

  9
$XEDIT
290
     1
  9
$CEPSNTYPE
380
     0
  9
$PSTYLEMODE
290
     1
  9
$FINGERPRINTGUID
  2
{AE707E2D-26D3-4885-8783-19CF4AFF2D47}
  9
$VERSIONGUID
  2
{FAEB1C32-E019-11D5-929B-00C0DF256EC4}
  9
$EXTNAMES
290
     1
  9
$PSVPSCALE
 40
0.0
  9
$OLESTARTUP
290
     0
  9
$SORTENTS
280
   127
  9
$INDEXCTL
280
     0
  9
$HIDETEXT
280
     1
  9
$XCLIPFRAME
290
     0
  9
$HALOGAP
280
     0
  9
$OBSCOLOR
 70
   257
  9
$OBSLTYPE
280
     0
  9
$INTERSECTIONDISPLAY
280
     0
  9
$INTERSECTIONCOLOR
 70
   257
  9
$DIMASSOC
280
     2
  9
$PROJECTNAME
  1

  0
ENDSEC
  0
SECTION
  2
CLASSES
  0
CLASS
  1
ACDBDICTIONARYWDFLT
  2
AcDbDictionaryWithDefault
  3
ObjectDBX Classes
 90
        0
 91
        4
280
     0
281
     0
  0
CLASS
  1
VISUALSTYLE
  2
AcDbVisualStyle
  3
ObjectDBX Classes
 90
     4095
 91
        4
280
     0
281
     0
  0
CLASS
  1
MATERIAL
  2
AcDbMaterial
  3
ObjectDBX Classes
 90
     1153
 91
        4
280
     0
281
     0
  0
ENDSEC
  0
SECTION
  2
TABLES
  0
TABLE
  2
VPORT
  5
8
330
0
100
AcDbSymbolTable
 70
     1
  0
VPORT
  5
29
330
8
100
AcDbSymbolTableRecord
100
AcDbViewportTableRecord
  2
*Active
 70
     0
 10
0.0
 20
0.0
 11
1.0
 21
1.0
 12
-22.91170406855551
 22
-35.25282668939766
 13
0.0
 23
0.0
 14
0.5
 24
0.5
 15
0.5
 25
0.5
 16
0.0
 26
0.0
 36
1.0
 17
0.0
 27
0.0
 37
0.0
 40
338.6211009378494
 41
1.60267857142857
 42
50.0
 43
0.0
 44
0.0
 50
0.0
 51
0.0
 71
     0
 72
   100
 73
     1
 74
     3
 75
     0
 76
     0
 77
     0
 78
     0
281
     0
 65
     1
110
0.0
120
0.0
130
0.0
111
1.0
121
0.0
131
0.0
112
0.0
122
1.0
132
0.0
 79
     0
146
0.0
  0
ENDTAB
  0
TABLE
  2
LTYPE
  5
5
330
0
100
AcDbSymbolTable
 70
     8
  0
LTYPE
  5
14
330
5
100
AcDbSymbolTableRecord
100
AcDbLinetypeTableRecord
  2
ByBlock
 70
     0
  3

 72
    65
 73
     0
 40
0.0
  0
LTYPE
  5
15
330
5
100
AcDbSymbolTableRecord
100
AcDbLinetypeTableRecord
  2
ByLayer
 70
     0
  3

 72
    65
 73
     0
 40
0.0
  0
LTYPE
  5
16
330
5
100
AcDbSymbolTableRecord
100
AcDbLinetypeTableRecord
  2
Continuous
 70
     0
  3
Solid line
 72
    65
 73
     0
 40
0.0
  0
LTYPE
  5
3F
330
5
100
AcDbSymbolTableRecord
100
AcDbLinetypeTableRecord
  2
DASHED
 70
     0
  3
Dashed
 72
    65
 73
     2
 40
15.0
 49
7.0
 74
     0
 49
-8.0
 74
     0
  0
LTYPE
  5
40
330
5
100
AcDbSymbolTableRecord
100
AcDbLinetypeTableRecord
  2
DOTTED
 70
     0
  3
Dotted
 72
    65
 73
     2
 40
1.0
 49
0.0
 74
     0
 49
-1.0
 74
     0
  0
LTYPE
  5
41
330
5
100
AcDbSymbolTableRecord
100
AcDbLinetypeTableRecord
  2
DOT_CENTER
 70
     0
  3
Dot_Center
 72
    65
 73
     4
 40
14.0
 49
12.0
 74
     0
 49
-1.0
 74
     0
 49
0.0
 74
     0
 49
-1.0
 74
     0
  0
LTYPE
  5
42
330
5
100
AcDbSymbolTableRecord
100
AcDbLinetypeTableRecord
  2
LONG_DASHED
 70
     0
  3
Long_Dashed
 72
    65
 73
     2
 40
15.0
 49
10.0
 74
     0
 49
-5.0
 74
     0
  0
LTYPE
  5
43
330
5
100
AcDbSymbolTableRecord
100
AcDbLinetypeTableRecord
  2
DASH_CENTER
 70
     0
  3
Dash_Center
 72
    65
 73
     4
 40
14.0
 49
11.0
 74
     0
 49
-1.0
 74
     0
 49
1.0
 74
     0
 49
-1.0
 74
     0
  0
LTYPE
  5
44
330
5
100
AcDbSymbolTableRecord
100
AcDbLinetypeTableRecord
  2
PHANTOM
 70
     0
  3
Phantom
 72
    65
 73
     6
 40
13.0
 49
10.0
 74
     0
 49
-1.0
 74
     0
 49
0.0
 74
     0
 49
-1.0
 74
     0
 49
0.0
 74
     0
 49
-1.0
 74
     0
  0
LTYPE
  5
45
330
5
100
AcDbSymbolTableRecord
100
AcDbLinetypeTableRecord
  2
CENTER_DASH_DASH
 70
     0
  3
Center_Dash_Dash
 72
    65
 73
     6
 40
14.0
 49
9.0
 74
     0
 49
-1.0
 74
     0
 49
1.0
 74
     0
 49
-1.0
 74
     0
 49
1.0
 74
     0
 49
-1.0
 74
     0
  0
ENDTAB
  0
TABLE
  2
LAYER
  5
2
330
0
100
AcDbSymbolTable
 70
     2
  0
LAYER
  5
10
330
2
100
AcDbSymbolTableRecord
100
AcDbLayerTableRecord
  2
0
 70
     0
 62
     7
  6
Continuous
370
    -3
390
F
  0
LAYER
  5
46
330
2
100
AcDbSymbolTableRecord
100
AcDbLayerTableRecord
  2
1
 70
     0
 62
     7
  6
Continuous
370
    -3
390
F
  0
ENDTAB
  0
TABLE
  2
STYLE
  5
3
330
0
100
AcDbSymbolTable
 70
     2
  0
STYLE
  5
11
330
3
100
AcDbSymbolTableRecord
100
AcDbTextStyleTableRecord
  2
Standard
 70
     0
 40
0.0
 41
1.0
 50
0.0
 71
     0
 42
0.2
  3
txt
  4

  0
STYLE
  5
18E
330
3
100
AcDbSymbolTableRecord
100
AcDbTextStyleTableRecord
  2
CONVERTER_11
 70
     0
 40
0.0
 41
0.9
 50
0.0
 71
     0
 42
0.2
  3
txt.shx
  4

  0
ENDTAB
  0
TABLE
  2
VIEW
  5
6
330
0
100
AcDbSymbolTable
 70
     0
  0
ENDTAB
  0
TABLE
  2
UCS
  5
7
330
0
100
AcDbSymbolTable
 70
     0
  0
ENDTAB
  0
TABLE
  2
APPID
  5
9
330
0
100
AcDbSymbolTable
 70
     1
  0
APPID
  5
12
330
9
100
AcDbSymbolTableRecord
100
AcDbRegAppTableRecord
  2
ACAD
 70
     0
  0
ENDTAB
  0
TABLE
  2
DIMSTYLE
  5
A
330
0
100
AcDbSymbolTable
 70
    25
100
AcDbDimStyleTable
  0
DIMSTYLE
105
27
330
A
100
AcDbSymbolTableRecord
100
AcDbDimStyleTableRecord
  2
Standard
 70
     0
178
     0
340
11
  0
DIMSTYLE
105
19C
102
{ACAD_REACTORS
330
19D
102
}
330
A
100
AcDbSymbolTableRecord
100
AcDbDimStyleTableRecord
  2
ME10_DIM_10
 70
     0
 41
3.5
 42
0.0
 44
2.0
 73
     0
 74
     0
 77
     1
 78
     4
140
3.5
144
0.03937007874016
147
2.0
172
     1
173
     1
174
     1
175
     1
176
     2
177
     2
271
     3
178
     2
271
     3
340
18E
  0
DIMSTYLE
105
1A8
102
{ACAD_REACTORS
330
1A9
102
}
330
A
100
AcDbSymbolTableRecord
100
AcDbDimStyleTableRecord
  2
ME10_DIM_11
 70
     0
  3
24mm (<>``)
 41
3.5
 42
0.0
 44
2.0
 73
     0
 74
     0
 77
     1
 78
     4
140
3.5
144
0.03937007874016
147
2.0
172
     1
173
     1
174
     1
175
     1
176
     2
177
     2
271
     3
178
     2
271
     3
340
18E
  0
DIMSTYLE
105
1B4
102
{ACAD_REACTORS
330
1B5
102
}
330
A
100
AcDbSymbolTableRecord
100
AcDbDimStyleTableRecord
  2
ME10_DIM_12
 70
     0
  3
24mm (<>``)
 41
3.5
 42
0.0
 44
2.0
 73
     0
 74
     0
 77
     1
 78
     4
140
3.5
144
0.03937007874016
147
2.0
172
     1
173
     1
174
     1
175
     1
176
     2
177
     2
271
     3
178
     2
271
     3
340
18E
  0
DIMSTYLE
105
1BF
102
{ACAD_REACTORS
330
1C0
102
}
330
A
100
AcDbSymbolTableRecord
100
AcDbDimStyleTableRecord
  2
ME10_DIM_13
 70
     0
  3
40mm (<>``)
 41
3.5
 42
0.0
 44
2.0
 73
     0
 74
     0
 77
     1
 78
     4
140
3.5
144
0.03937007874016
147
2.0
172
     1
173
     1
174
     1
175
     1
176
     2
177
     2
271
     3
178
     2
271
     3
340
18E
  0
DIMSTYLE
105
1CA
102
{ACAD_REACTORS
330
1CB
102
}
330
A
100
AcDbSymbolTableRecord
100
AcDbDimStyleTableRecord
  2
ME10_DIM_14
 70
     0
  3
40mm (<>``)
 41
3.5
 42
0.0
 44
2.0
 73
     0
 74
     0
 77
     1
 78
     4
140
3.5
144
0.03937007874016
147
2.0
172
     1
173
     1
174
     1
175
     1
176
     2
177
     2
271
     3
178
     2
271
     3
340
18E
  0
DIMSTYLE
105
1D6
102
{ACAD_REACTORS
330
1D7
102
}
330
A
100
AcDbSymbolTableRecord
100
AcDbDimStyleTableRecord
  2
ME10_DIM_15
 70
     0
  3
31.5mm (<>``)
 41
3.5
 42
0.0
 44
2.0
 73
     0
 74
     0
 77
     1
 78
     4
140
3.5
144
0.03937007874016
147
2.0
172
     1
173
     1
174
     1
175
     1
176
     2
177
     2
271
     3
178
     2
271
     3
340
18E
  0
DIMSTYLE
105
1E3
102
{ACAD_REACTORS
330
1E4
102
}
330
A
100
AcDbSymbolTableRecord
100
AcDbDimStyleTableRecord
  2
ME10_DIM_16
 70
     0
 41
3.5
 42
0.0
 44
2.0
 73
     0
 74
     0
 77
     1
 78
     4
140
3.5
144
0.03937007874016
147
2.0
172
     1
173
     1
174
     1
175
     1
176
     2
177
     2
271
     3
178
     2
271
     3
340
18E
  0
DIMSTYLE
105
1EF
102
{ACAD_REACTORS
330
1F0
102
}
330
A
100
AcDbSymbolTableRecord
100
AcDbDimStyleTableRecord
  2
ME10_DIM_17
 70
     0
 41
3.5
 42
0.0
 44
2.0
 73
     0
 74
     0
 77
     1
 78
     4
140
3.5
144
0.03937007874016
147
2.0
172
     1
173
     1
174
     1
175
     1
176
     2
177
     2
271
     3
178
     2
271
     3
340
18E
  0
DIMSTYLE
105
1FA
102
{ACAD_REACTORS
330
1FB
102
}
330
A
100
AcDbSymbolTableRecord
100
AcDbDimStyleTableRecord
  2
ME10_DIM_18
 70
     0
 41
3.5
 42
0.0
 44
2.0
 73
     0
 74
     0
 77
     1
 78
     4
140
3.5
144
0.03937007874016
147
2.0
172
     1
173
     1
174
     1
175
     1
176
     2
177
     2
271
     3
178
     2
271
     3
340
18E
  0
DIMSTYLE
105
205
102
{ACAD_REACTORS
330
206
102
}
330
A
100
AcDbSymbolTableRecord
100
AcDbDimStyleTableRecord
  2
ME10_DIM_19
 70
     0
  3
160mm (<>``)
 41
3.5
 42
0.0
 44
2.0
 73
     0
 74
     0
 77
     1
 78
     4
140
3.5
144
0.03937007874016
147
2.0
172
     1
173
     1
174
     1
175
     1
176
     2
177
     2
271
     3
178
     2
271
     3
340
18E
  0
DIMSTYLE
105
211
102
{ACAD_REACTORS
330
212
102
}
330
A
100
AcDbSymbolTableRecord
100
AcDbDimStyleTableRecord
  2
ME10_DIM_20
 70
     0
  3
10mm (<>``)
 41
3.5
 42
0.0
 44
2.0
 73
     0
 74
     0
 77
     1
 78
     4
140
3.5
144
0.03937007874016
147
2.0
172
     1
173
     1
174
     1
175
     1
176
     2
177
     2
271
     3
178
     2
271
     3
340
18E
  0
DIMSTYLE
105
21D
102
{ACAD_REACTORS
330
21E
102
}
330
A
100
AcDbSymbolTableRecord
100
AcDbDimStyleTableRecord
  2
ME10_DIM_21
 70
     0
  3
34mm (<>``)
 41
3.5
 42
0.0
 44
2.0
 73
     0
 74
     0
 77
     1
 78
     4
140
3.5
144
0.03937007874016
147
2.0
172
     1
173
     1
174
     1
175
     1
176
     2
177
     2
271
     3
178
     2
271
     3
340
18E
  0
DIMSTYLE
105
229
102
{ACAD_REACTORS
330
22A
102
}
330
A
100
AcDbSymbolTableRecord
100
AcDbDimStyleTableRecord
  2
ME10_DIM_22
 70
     0
  3
28mm (<>``)
 41
3.5
 42
0.0
 44
2.0
 73
     0
 74
     0
 77
     1
 78
     4
140
3.5
144
0.03937007874016
147
2.0
172
     1
173
     1
174
     1
175
     1
176
     2
177
     2
271
     3
178
     2
271
     3
340
18E
  0
DIMSTYLE
105
235
102
{ACAD_REACTORS
330
236
102
}
330
A
100
AcDbSymbolTableRecord
100
AcDbDimStyleTableRecord
  2
ME10_DIM_23
 70
     0
  3
15mm (<>``)
 41
3.5
 42
0.0
 44
2.0
 73
     0
 74
     0
 77
     1
 78
     4
140
3.5
144
0.03937007874016
147
2.0
172
     1
173
     1
174
     1
175
     1
176
     2
177
     2
271
     3
178
     2
271
     3
340
18E
  0
DIMSTYLE
105
242
102
{ACAD_REACTORS
330
243
102
}
330
A
100
AcDbSymbolTableRecord
100
AcDbDimStyleTableRecord
  2
ME10_DIM_24
 70
     0
  3
4mm (<>``)
 41
3.5
 42
0.0
 44
2.0
 73
     0
 74
     0
 77
     1
 78
     4
140
3.5
144
0.03937007874016
147
2.0
172
     1
173
     1
174
     1
175
     1
176
     2
177
     2
271
     3
178
     2
271
     3
340
18E
  0
DIMSTYLE
105
24D
102
{ACAD_REACTORS
330
24E
102
}
330
A
100
AcDbSymbolTableRecord
100
AcDbDimStyleTableRecord
  2
ME10_DIM_25
 70
     0
  3
160mm (<>``)
 41
3.5
 42
0.0
 44
2.0
 73
     0
 74
     0
 77
     1
 78
     4
140
3.5
144
0.03937007874016
147
2.0
172
     1
173
     1
174
     1
175
     1
176
     2
177
     2
271
     3
178
     2
271
     3
340
18E
  0
DIMSTYLE
105
258
102
{ACAD_REACTORS
330
259
102
}
330
A
100
AcDbSymbolTableRecord
100
AcDbDimStyleTableRecord
  2
ME10_DIM_26
 70
     0
  3
138mm (<>``)
 41
3.5
 42
0.0
 44
2.0
 73
     0
 74
     0
 77
     1
 78
     4
140
3.5
144
0.03937007874016
147
2.0
172
     1
173
     1
174
     1
175
     1
176
     2
177
     2
271
     3
178
     2
271
     3
340
18E
  0
DIMSTYLE
105
263
102
{ACAD_REACTORS
330
264
102
}
330
A
100
AcDbSymbolTableRecord
100
AcDbDimStyleTableRecord
  2
ME10_DIM_27
 70
     0
  3
131mm (<>``)
 41
3.5
 42
0.0
 44
2.0
 73
     0
 74
     0
 77
     1
 78
     4
140
3.5
144
0.03937007874016
147
2.0
172
     1
173
     1
174
     1
175
     1
176
     2
177
     2
271
     3
178
     2
271
     3
340
18E
  0
DIMSTYLE
105
270
102
{ACAD_REACTORS
330
271
102
}
330
A
100
AcDbSymbolTableRecord
100
AcDbDimStyleTableRecord
  2
ME10_DIM_28
 70
     0
  3
4mm (<>``)
 41
3.5
 42
0.0
 44
2.0
 73
     0
 74
     0
 77
     1
 78
     4
140
3.5
144
0.03937007874016
147
2.0
172
     1
173
     1
174
     1
175
     1
176
     2
177
     2
271
     3
178
     2
271
     3
340
18E
  0
DIMSTYLE
105
27D
102
{ACAD_REACTORS
330
27E
102
}
330
A
100
AcDbSymbolTableRecord
100
AcDbDimStyleTableRecord
  2
ME10_DIM_29
 70
     0
 41
3.5
 42
0.0
 44
2.0
 73
     0
 74
     0
 77
     1
 78
     4
140
3.5
144
0.03937007874016
147
2.0
172
     1
173
     1
174
     1
175
     1
176
     2
177
     2
271
     3
178
     2
271
     3
340
18E
  0
DIMSTYLE
105
289
102
{ACAD_REACTORS
330
28A
102
}
330
A
100
AcDbSymbolTableRecord
100
AcDbDimStyleTableRecord
  2
ME10_DIM_30
 70
     0
  3
31.5mm (<>``)
 41
3.5
 42
0.0
 44
2.0
 73
     0
 74
     0
 77
     1
 78
     4
140
3.5
144
0.03937007874016
147
2.0
172
     1
173
     1
174
     1
175
     1
176
     2
177
     2
271
     3
178
     2
271
     3
340
18E
  0
DIMSTYLE
105
295
102
{ACAD_REACTORS
330
296
102
}
330
A
100
AcDbSymbolTableRecord
100
AcDbDimStyleTableRecord
  2
ME10_DIM_31
 70
     0
 41
3.5
 42
0.0
 44
2.0
 73
     0
 74
     0
 77
     1
 78
     4
140
3.5
144
0.03937007874016
147
2.0
172
     1
173
     1
174
     1
175
     1
176
     2
177
     2
271
     3
178
     2
271
     3
340
18E
  0
DIMSTYLE
105
2A2
102
{ACAD_REACTORS
330
2A3
102
}
330
A
100
AcDbSymbolTableRecord
100
AcDbDimStyleTableRecord
  2
ME10_DIM_32
 70
     0
 41
3.5
 42
0.0
 44
2.0
 73
     0
 74
     0
 77
     1
 78
     4
140
3.5
144
0.03937007874016
147
2.0
172
     1
173
     1
174
     1
175
     1
176
     2
177
     2
271
     3
178
     2
271
     3
340
18E
  0
DIMSTYLE
105
2AE
102
{ACAD_REACTORS
330
2AF
102
}
330
A
100
AcDbSymbolTableRecord
100
AcDbDimStyleTableRecord
  2
ME10_DIM_33
 70
     0
  3
28mm (<>``)
 41
3.5
 42
0.0
 44
2.0
 73
     0
 74
     0
 77
     1
 78
     4
140
3.5
144
0.03937007874016
147
2.0
172
     1
173
     1
174
     1
175
     1
176
     2
177
     2
271
     3
178
     2
271
     3
340
18E
  0
ENDTAB
  0
TABLE
  2
BLOCK_RECORD
  5
1
330
0
100
AcDbSymbolTable
 70
    27
  0
BLOCK_RECORD
  5
1F
330
1
100
AcDbSymbolTableRecord
100
AcDbBlockTableRecord
  2
*Model_Space
340
22
  0
BLOCK_RECORD
  5
1B
330
1
100
AcDbSymbolTableRecord
100
AcDbBlockTableRecord
  2
*Paper_Space
340
1E
  0
BLOCK_RECORD
  5
23
330
1
100
AcDbSymbolTableRecord
100
AcDbBlockTableRecord
  2
*Paper_Space0
340
26
  0
BLOCK_RECORD
  5
193
330
1
100
AcDbSymbolTableRecord
100
AcDbBlockTableRecord
  2
*D1
340
0
  0
BLOCK_RECORD
  5
19E
330
1
100
AcDbSymbolTableRecord
100
AcDbBlockTableRecord
  2
*D2
340
0
  0
BLOCK_RECORD
  5
1AA
330
1
100
AcDbSymbolTableRecord
100
AcDbBlockTableRecord
  2
*D3
340
0
  0
BLOCK_RECORD
  5
1B6
330
1
100
AcDbSymbolTableRecord
100
AcDbBlockTableRecord
  2
*D4
340
0
  0
BLOCK_RECORD
  5
1C1
330
1
100
AcDbSymbolTableRecord
100
AcDbBlockTableRecord
  2
*D5
340
0
  0
BLOCK_RECORD
  5
1CC
330
1
100
AcDbSymbolTableRecord
100
AcDbBlockTableRecord
  2
*D6
340
0
  0
BLOCK_RECORD
  5
1D8
330
1
100
AcDbSymbolTableRecord
100
AcDbBlockTableRecord
  2
*D7
340
0
  0
BLOCK_RECORD
  5
1E5
330
1
100
AcDbSymbolTableRecord
100
AcDbBlockTableRecord
  2
*D8
340
0
  0
BLOCK_RECORD
  5
1F1
330
1
100
AcDbSymbolTableRecord
100
AcDbBlockTableRecord
  2
*D9
340
0
  0
BLOCK_RECORD
  5
1FC
330
1
100
AcDbSymbolTableRecord
100
AcDbBlockTableRecord
  2
*D10
340
0
  0
BLOCK_RECORD
  5
207
330
1
100
AcDbSymbolTableRecord
100
AcDbBlockTableRecord
  2
*D11
340
0
  0
BLOCK_RECORD
  5
213
330
1
100
AcDbSymbolTableRecord
100
AcDbBlockTableRecord
  2
*D12
340
0
  0
BLOCK_RECORD
  5
21F
330
1
100
AcDbSymbolTableRecord
100
AcDbBlockTableRecord
  2
*D13
340
0
  0
BLOCK_RECORD
  5
22B
330
1
100
AcDbSymbolTableRecord
100
AcDbBlockTableRecord
  2
*D14
340
0
  0
BLOCK_RECORD
  5
237
330
1
100
AcDbSymbolTableRecord
100
AcDbBlockTableRecord
  2
*D15
340
0
  0
BLOCK_RECORD
  5
244
330
1
100
AcDbSymbolTableRecord
100
AcDbBlockTableRecord
  2
*D16
340
0
  0
BLOCK_RECORD
  5
24F
330
1
100
AcDbSymbolTableRecord
100
AcDbBlockTableRecord
  2
*D17
340
0
  0
BLOCK_RECORD
  5
25A
330
1
100
AcDbSymbolTableRecord
100
AcDbBlockTableRecord
  2
*D18
340
0
  0
BLOCK_RECORD
  5
265
330
1
100
AcDbSymbolTableRecord
100
AcDbBlockTableRecord
  2
*D19
340
0
  0
BLOCK_RECORD
  5
272
330
1
100
AcDbSymbolTableRecord
100
AcDbBlockTableRecord
  2
*D20
340
0
  0
BLOCK_RECORD
  5
27F
330
1
100
AcDbSymbolTableRecord
100
AcDbBlockTableRecord
  2
*D21
340
0
  0
BLOCK_RECORD
  5
28B
330
1
100
AcDbSymbolTableRecord
100
AcDbBlockTableRecord
  2
*D22
340
0
  0
BLOCK_RECORD
  5
297
330
1
100
AcDbSymbolTableRecord
100
AcDbBlockTableRecord
  2
*D23
340
0
  0
BLOCK_RECORD
  5
2A4
330
1
100
AcDbSymbolTableRecord
100
AcDbBlockTableRecord
  2
*D24
340
0
  0
BLOCK_RECORD
  5
2B0
330
1
100
AcDbSymbolTableRecord
100
AcDbBlockTableRecord
  2
*D25
340
0
102
{BLKREFS
331
2B7
102
}
  0
BLOCK_RECORD
  5
2B8
330
1
100
AcDbSymbolTableRecord
100
AcDbBlockTableRecord
  2
*D26
340
0
102
{BLKREFS
331
2BF
102
}
  0
ENDTAB
  0
ENDSEC
  0
SECTION
  2
BLOCKS
  0
BLOCK
  5
20
330
1F
100
AcDbEntity
  8
0
100
AcDbBlockBegin
  2
*Model_Space
 70
     0
 10
0.0
 20
0.0
 30
0.0
  3
*Model_Space
  1

  0
ENDBLK
  5
21
330
1F
100
AcDbEntity
  8
0
100
AcDbBlockEnd
  0
BLOCK
  5
1C
330
1B
100
AcDbEntity
 67
     1
  8
0
100
AcDbBlockBegin
  2
*Paper_Space
 70
     0
 10
0.0
 20
0.0
 30
0.0
  3
*Paper_Space
  1

  0
ENDBLK
  5
1D
330
1B
100
AcDbEntity
 67
     1
  8
0
100
AcDbBlockEnd
  0
BLOCK
  5
24
330
23
100
AcDbEntity
  8
0
100
AcDbBlockBegin
  2
*Paper_Space0
 70
     0
 10
0.0
 20
0.0
 30
0.0
  3
*Paper_Space0
  1

  0
ENDBLK
  5
25
330
23
100
AcDbEntity
  8
0
100
AcDbBlockEnd
  0
BLOCK
  5
19A
330
193
100
AcDbEntity
  8
0
100
AcDbBlockBegin
  2
*D1
 70
     1
 10
0.0
 20
0.0
 30
0.0
  3
*D1
  1

  0
LINE
  5
194
330
193
100
AcDbEntity
  8
1
  6
Continuous
 62
     2
100
AcDbLine
 10
56.83123967983067
 20
-42.7616985461792
 30
0.0
 11
46.83123967983064
 21
-42.7616985461792
 31
0.0
  0
LINE
  5
195
330
193
100
AcDbEntity
  8
1
  6
Continuous
 62
     2
100
AcDbLine
 10
56.83123967983067
 20
-52.68918859156351
 30
0.0
 11
56.83123967983067
 21
-40.7616985461792
 31
0.0
  0
LINE
  5
196
330
193
100
AcDbEntity
  8
1
  6
Continuous
 62
     2
100
AcDbLine
 10
46.83123967983064
 20
-64.68918859156351
 30
0.0
 11
46.83123967983064
 21
-40.7616985461792
 31
0.0
  0
SOLID
  5
197
330
193
100
AcDbEntity
  8
1
 62
     2
100
AcDbTrace
 10
53.33123967983067
 20
-43.22248228773508
 30
0.0
 11
53.33123967983067
 21
-42.30091480462331
 31
0.0
 12
56.83123967983067
 22
-42.7616985461792
 32
0.0
 13
56.83123967983067
 23
-42.7616985461792
 33
0.0
  0
SOLID
  5
198
330
193
100
AcDbEntity
  8
1
 62
     2
100
AcDbTrace
 10
50.33123967983064
 20
-42.30091480462331
 30
0.0
 11
50.33123967983064
 21
-43.22248228773508
 31
0.0
 12
46.83123967983064
 22
-42.7616985461792
 32
0.0
 13
46.83123967983064
 23
-42.7616985461792
 33
0.0
  0
MTEXT
  5
199
330
193
100
AcDbEntity
  8
1
 62
     2
100
AcDbMText
 10
25.6944376731524
 20
-40.7616985461792
 30
0.0
 40
3.5
 41
0.0
 71
     7
 72
     1
  1
min. 35 (1.378``)
  7
CONVERTER_11
 11
0.9999999999970619
 21
2.424068405545306E-6
 31
0.0
 73
     1
 44
0.60024009603842
  0
ENDBLK
  5
19B
330
193
100
AcDbEntity
  8
0
100
AcDbBlockEnd
  0
BLOCK
  5
1A6
330
19E
100
AcDbEntity
  8
0
100
AcDbBlockBegin
  2
*D2
 70
     1
 10
0.0
 20
0.0
 30
0.0
  3
*D2
  1

  0
LINE
  5
19F
330
19E
100
AcDbEntity
  8
1
  6
Continuous
 62
     2
100
AcDbLine
 10
223.770469707191
 20
-51.3907786553527
 30
0.0
 11
180.2856570446656
 21
-51.3907786553527
 31
0.0
  0
LINE
  5
1A0
330
19E
100
AcDbEntity
  8
1
  6
Continuous
 62
     2
100
AcDbLine
 10
180.2856570446656
 20
-51.3907786553527
 30
0.0
 11
156.2856570446656
 21
-51.3907786553527
 31
0.0
  0
LINE
  5
1A1
330
19E
100
AcDbEntity
  8
1
  6
Continuous
 62
     2
100
AcDbLine
 10
180.2856570446656
 20
-28.61464852898895
 30
0.0
 11
180.2856570446656
 21
-53.3907786553527
 31
0.0
  0
LINE
  5
1A2
330
19E
100
AcDbEntity
  8
1
  6
Continuous
 62
     2
100
AcDbLine
 10
156.2856570446656
 20
-28.61464852898895
 30
0.0
 11
156.2856570446656
 21
-53.3907786553527
 31
0.0
  0
SOLID
  5
1A3
330
19E
100
AcDbEntity
  8
1
 62
     2
100
AcDbTrace
 10
176.7856570446656
 20
-51.85156239690858
 30
0.0
 11
176.7856570446656
 21
-50.92999491379681
 31
0.0
 12
180.2856570446656
 22
-51.3907786553527
 32
0.0
 13
180.2856570446656
 23
-51.3907786553527
 33
0.0
  0
SOLID
  5
1A4
330
19E
100
AcDbEntity
  8
1
 62
     2
100
AcDbTrace
 10
159.7856570446656
 20
-50.92999491379681
 30
0.0
 11
159.7856570446656
 21
-51.85156239690858
 31
0.0
 12
156.2856570446656
 22
-51.3907786553527
 32
0.0
 13
156.2856570446656
 23
-51.3907786553527
 33
0.0
  0
MTEXT
  5
1A5
330
19E
100
AcDbEntity
  8
1
 62
     2
100
AcDbMText
 10
189.1379697072416
 20
-49.39082039781064
 30
0.0
 40
3.5
 41
0.0
 71
     7
 72
     1
  1
\C2;24mm (\C2;0.945\C2;``)
  7
CONVERTER_11
 11
0.9999999999970619
 21
2.424068405545306E-6
 31
0.0
 73
     1
 44
0.60024009603842
  0
ENDBLK
  5
1A7
330
19E
100
AcDbEntity
  8
0
100
AcDbBlockEnd
  0
BLOCK
  5
1B2
330
1AA
100
AcDbEntity
  8
0
100
AcDbBlockBegin
  2
*D3
 70
     1
 10
0.0
 20
0.0
 30
0.0
  3
*D3
  1

  0
LINE
  5
1AB
330
1AA
100
AcDbEntity
  8
1
  6
Continuous
 62
     2
100
AcDbLine
 10
-269.593877844302
 20
-52.6950036504869
 30
0.0
 11
-226.91485230427
 21
-52.6950036504869
 31
0.0
  0
LINE
  5
1AC
330
1AA
100
AcDbEntity
  8
1
  6
Continuous
 62
     2
100
AcDbLine
 10
-226.91485230427
 20
-52.6950036504869
 30
0.0
 11
-202.91485230427
 21
-52.6950036504869
 31
0.0
  0
LINE
  5
1AD
330
1AA
100
AcDbEntity
  8
1
  6
Continuous
 62
     2
100
AcDbLine
 10
-226.91485230427
 20
-12.61464852898895
 30
0.0
 11
-226.91485230427
 21
-54.6950036504869
 31
0.0
  0
LINE
  5
1AE
330
1AA
100
AcDbEntity
  8
1
  6
Continuous
 62
     2
100
AcDbLine
 10
-202.91485230427
 20
-12.61464852898895
 30
0.0
 11
-202.91485230427
 21
-54.6950036504869
 31
0.0
  0
SOLID
  5
1AF
330
1AA
100
AcDbEntity
  8
1
 62
     2
100
AcDbTrace
 10
-223.41485230427
 20
-52.23421990893102
 30
0.0
 11
-223.41485230427
 21
-53.15578739204279
 31
0.0
 12
-226.91485230427
 22
-52.6950036504869
 32
0.0
 13
-226.91485230427
 23
-52.6950036504869
 33
0.0
  0
SOLID
  5
1B0
330
1AA
100
AcDbEntity
  8
1
 62
     2
100
AcDbTrace
 10
-206.41485230427
 20
-53.15578739204279
 30
0.0
 11
-206.41485230427
 21
-52.23421990893102
 31
0.0
 12
-202.91485230427
 22
-52.6950036504869
 32
0.0
 13
-202.91485230427
 23
-52.6950036504869
 33
0.0
  0
MTEXT
  5
1B1
330
1AA
100
AcDbEntity
  8
1
 62
     2
100
AcDbMText
 10
-268.4388778442514
 20
-50.69504539294485
 30
0.0
 40
3.5
 41
0.0
 71
     7
 72
     1
  1
\C2;24mm (\C2;0.945\C2;``)
  7
CONVERTER_11
 11
0.9999999999970619
 21
2.424068405545306E-6
 31
0.0
 73
     1
 44
0.60024009603842
  0
ENDBLK
  5
1B3
330
1AA
100
AcDbEntity
  8
0
100
AcDbBlockEnd
  0
BLOCK
  5
1BD
330
1B6
100
AcDbEntity
  8
0
100
AcDbBlockBegin
  2
*D4
 70
     1
 10
0.0
 20
0.0
 30
0.0
  3
*D4
  1

  0
LINE
  5
1B7
330
1B6
100
AcDbEntity
  8
1
  6
Continuous
 62
     2
100
AcDbLine
 10
-238.317751094296
 20
-40.61464852898895
 30
0.0
 11
-238.317751094296
 21
-0.61464852898895
 31
0.0
  0
LINE
  5
1B8
330
1B6
100
AcDbEntity
  8
1
  6
Continuous
 62
     2
100
AcDbLine
 10
-214.91485230427
 20
-40.61464852898895
 30
0.0
 11
-240.317751094296
 21
-40.61464852898895
 31
0.0
  0
LINE
  5
1B9
330
1B6
100
AcDbEntity
  8
1
  6
Continuous
 62
     2
100
AcDbLine
 10
-214.91485230427
 20
-0.61464852898895
 30
0.0
 11
-240.317751094296
 21
-0.61464852898895
 31
0.0
  0
SOLID
  5
1BA
330
1B6
100
AcDbEntity
  8
1
 62
     2
100
AcDbTrace
 10
-238.7785348358519
 20
-37.11464852898895
 30
0.0
 11
-237.8569673527401
 21
-37.11464852898895
 31
0.0
 12
-238.317751094296
 22
-40.61464852898895
 32
0.0
 13
-238.317751094296
 23
-40.61464852898895
 33
0.0
  0
SOLID
  5
1BB
330
1B6
100
AcDbEntity
  8
1
 62
     2
100
AcDbTrace
 10
-237.8569673527401
 20
-4.11464852898895
 30
0.0
 11
-238.7785348358519
 21
-4.11464852898895
 31
0.0
 12
-238.317751094296
 22
-0.61464852898895
 32
0.0
 13
-238.317751094296
 23
-0.61464852898895
 33
0.0
  0
MTEXT
  5
1BC
330
1B6
100
AcDbEntity
  8
1
 62
     2
100
AcDbMText
 10
-240.317751094296
 20
-34.82839852898896
 30
0.0
 40
3.5
 41
0.0
 71
     7
 72
     1
  1
\C2;40mm (\C2;1.575\C2;``)
  7
CONVERTER_11
 11
0.0
 21
1.0
 31
0.0
 73
     1
 44
0.60024009603842
  0
ENDBLK
  5
1BE
330
1B6
100
AcDbEntity
  8
0
100
AcDbBlockEnd
  0
BLOCK
  5
1C8
330
1C1
100
AcDbEntity
  8
0
100
AcDbBlockBegin
  2
*D5
 70
     1
 10
0.0
 20
0.0
 30
0.0
  3
*D5
  1

  0
LINE
  5
1C2
330
1C1
100
AcDbEntity
  8
1
  6
Continuous
 62
     2
100
AcDbLine
 10
197.684555561614
 20
-40.61464852898895
 30
0.0
 11
197.684555561614
 21
-0.61464852898895
 31
0.0
  0
LINE
  5
1C3
330
1C1
100
AcDbEntity
  8
1
  6
Continuous
 62
     2
100
AcDbLine
 10
168.2856570446656
 20
-40.61464852898895
 30
0.0
 11
199.684555561614
 21
-40.61464852898895
 31
0.0
  0
LINE
  5
1C4
330
1C1
100
AcDbEntity
  8
1
  6
Continuous
 62
     2
100
AcDbLine
 10
168.2856570446656
 20
-0.61464852898895
 30
0.0
 11
199.684555561614
 21
-0.61464852898895
 31
0.0
  0
SOLID
  5
1C5
330
1C1
100
AcDbEntity
  8
1
 62
     2
100
AcDbTrace
 10
197.2237718200581
 20
-37.11464852898895
 30
0.0
 11
198.1453393031699
 21
-37.11464852898895
 31
0.0
 12
197.684555561614
 22
-40.61464852898895
 32
0.0
 13
197.684555561614
 23
-40.61464852898895
 33
0.0
  0
SOLID
  5
1C6
330
1C1
100
AcDbEntity
  8
1
 62
     2
100
AcDbTrace
 10
198.1453393031699
 20
-4.11464852898895
 30
0.0
 11
197.2237718200581
 21
-4.11464852898895
 31
0.0
 12
197.684555561614
 22
-0.61464852898895
 32
0.0
 13
197.684555561614
 23
-0.61464852898895
 33
0.0
  0
MTEXT
  5
1C7
330
1C1
100
AcDbEntity
  8
1
 62
     2
100
AcDbMText
 10
195.684555561614
 20
-36.82839852898896
 30
0.0
 40
3.5
 41
0.0
 71
     7
 72
     1
  1
\C2;40mm (\C2;1.575\C2;``)
  7
CONVERTER_11
 11
0.0
 21
1.0
 31
0.0
 73
     1
 44
0.60024009603842
  0
ENDBLK
  5
1C9
330
1C1
100
AcDbEntity
  8
0
100
AcDbBlockEnd
  0
BLOCK
  5
1D4
330
1CC
100
AcDbEntity
  8
0
100
AcDbBlockBegin
  2
*D6
 70
     1
 10
0.0
 20
0.0
 30
0.0
  3
*D6
  1

  0
LINE
  5
1CD
330
1CC
100
AcDbEntity
  8
1
  6
Continuous
 62
     2
100
AcDbLine
 10
-70.34642340609417
 20
-130.2566310837739
 30
0.0
 11
-111.3573326447174
 21
-130.2566310837739
 31
0.0
  0
LINE
  5
1CE
330
1CC
100
AcDbEntity
  8
1
  6
Continuous
 62
     2
100
AcDbLine
 10
-111.3573326447174
 20
-130.2566310837739
 30
0.0
 11
-142.8573326447174
 21
-130.2566310837739
 31
0.0
  0
LINE
  5
1CF
330
1CC
100
AcDbEntity
  8
1
  6
Continuous
 62
     2
100
AcDbLine
 10
-111.3573326447174
 20
-100.614648528989
 30
0.0
 11
-111.3573326447174
 21
-132.2566310837739
 31
0.0
  0
LINE
  5
1D0
330
1CC
100
AcDbEntity
  8
1
  6
Continuous
 62
     2
100
AcDbLine
 10
-142.8573326447174
 20
-100.614648528989
 30
0.0
 11
-142.8573326447174
 21
-132.2566310837739
 31
0.0
  0
SOLID
  5
1D1
330
1CC
100
AcDbEntity
  8
1
 62
     2
100
AcDbTrace
 10
-114.8573326447174
 20
-130.7174148253298
 30
0.0
 11
-114.8573326447174
 21
-129.795847342218
 31
0.0
 12
-111.3573326447174
 22
-130.2566310837739
 32
0.0
 13
-111.3573326447174
 23
-130.2566310837739
 33
0.0
  0
SOLID
  5
1D2
330
1CC
100
AcDbEntity
  8
1
 62
     2
100
AcDbTrace
 10
-139.3573326447174
 20
-129.795847342218
 30
0.0
 11
-139.3573326447174
 21
-130.7174148253298
 31
0.0
 12
-142.8573326447174
 22
-130.2566310837739
 32
0.0
 13
-142.8573326447174
 23
-130.2566310837739
 33
0.0
  0
MTEXT
  5
1D3
330
1CC
100
AcDbEntity
  8
1
 62
     2
100
AcDbMText
 10
-109.6689234060267
 20
-128.2566867403845
 30
0.0
 40
3.5
 41
0.0
 71
     7
 72
     1
  1
\C2;31.5mm (\C2;1.240\C2;``)
  7
CONVERTER_11
 11
0.9999999999970619
 21
2.424068405545306E-6
 31
0.0
 73
     1
 44
0.60024009603842
  0
ENDBLK
  5
1D5
330
1CC
100
AcDbEntity
  8
0
100
AcDbBlockEnd
  0
BLOCK
  5
1E1
330
1D8
100
AcDbEntity
  8
0
100
AcDbBlockBegin
  2
*D7
 70
     1
 10
0.0
 20
0.0
 30
0.0
  3
*D7
  1

  0
LINE
  5
1D9
330
1D8
100
AcDbEntity
  8
1
  6
Continuous
 62
     2
100
AcDbLine
 10
6.61812698915924
 20
-99.68918859156351
 30
0.0
 11
6.61812698915924
 21
-92.68918859156351
 31
0.0
  0
LINE
  5
1DA
330
1D8
100
AcDbEntity
  8
1
  6
Continuous
 62
     2
100
AcDbLine
 10
6.61812698915924
 20
-92.68918859156351
 30
0.0
 11
6.61812698915924
 21
-88.68918859156351
 31
0.0
  0
LINE
  5
1DB
330
1D8
100
AcDbEntity
  8
1
  6
Continuous
 62
     2
100
AcDbLine
 10
6.61812698915924
 20
-88.68918859156351
 30
0.0
 11
6.61812698915924
 21
-81.68918859156351
 31
0.0
  0
LINE
  5
1DC
330
1D8
100
AcDbEntity
  8
1
  6
Continuous
 62
     2
100
AcDbLine
 10
-68.66876032016924
 20
-92.68918859156351
 30
0.0
 11
8.61812698915924
 21
-92.68918859156351
 31
0.0
  0
LINE
  5
1DD
330
1D8
100
AcDbEntity
  8
1
  6
Continuous
 62
     2
100
AcDbLine
 10
-22.16876032016922
 20
-88.68918859156351
 30
0.0
 11
8.61812698915924
 21
-88.68918859156351
 31
0.0
  0
SOLID
  5
1DE
330
1D8
100
AcDbEntity
  8
1
 62
     2
100
AcDbTrace
 10
7.07891073071512
 20
-96.18918859156351
 30
0.0
 11
6.15734324760335
 21
-96.18918859156351
 31
0.0
 12
6.61812698915924
 22
-92.68918859156351
 32
0.0
 13
6.61812698915924
 23
-92.68918859156351
 33
0.0
  0
SOLID
  5
1DF
330
1D8
100
AcDbEntity
  8
1
 62
     2
100
AcDbTrace
 10
6.15734324760335
 20
-85.18918859156351
 30
0.0
 11
7.07891073071512
 21
-85.18918859156351
 31
0.0
 12
6.61812698915924
 22
-88.68918859156351
 32
0.0
 13
6.61812698915924
 23
-88.68918859156351
 33
0.0
  0
MTEXT
  5
1E0
330
1D8
100
AcDbEntity
  8
1
 62
     2
100
AcDbMText
 10
4.61812698915924
 20
-99.46161379617469
 30
0.0
 40
3.5
 41
0.0
 71
     7
 72
     1
  1
X
  7
CONVERTER_11
 11
0.0
 21
1.0
 31
0.0
 73
     1
 44
0.60024009603842
  0
ENDBLK
  5
1E2
330
1D8
100
AcDbEntity
  8
0
100
AcDbBlockEnd
  0
BLOCK
  5
1ED
330
1E5
100
AcDbEntity
  8
0
100
AcDbBlockBegin
  2
*D8
 70
     1
 10
0.0
 20
0.0
 30
0.0
  3
*D8
  1

  0
LINE
  5
1E6
330
1E5
100
AcDbEntity
  8
1
  6
Continuous
 62
     2
100
AcDbLine
 10
-86.9979375139541
 20
-92.68918859156351
 30
0.0
 11
-86.9979375139541
 21
-52.68918859156351
 31
0.0
  0
LINE
  5
1E7
330
1E5
100
AcDbEntity
  8
1
  6
Continuous
 62
     2
100
AcDbLine
 10
-68.66876032016924
 20
-92.68918859156351
 30
0.0
 11
-88.9979375139541
 21
-92.68918859156351
 31
0.0
  0
LINE
  5
1E8
330
1E5
100
AcDbEntity
  8
1
  6
Continuous
 62
     2
100
AcDbLine
 10
-82.1507235400011
 20
-52.68918859156351
 30
0.0
 11
-88.9979375139541
 21
-52.68918859156351
 31
0.0
  0
LINE
  5
1E9
330
1E5
100
AcDbEntity
  8
1
  6
Continuous
 62
     2
100
AcDbLine
 10
11.0632904873995
 20
-52.68918859156351
 30
0.0
 11
-72.6903059598443
 21
-52.68918859156351
 31
0.0
  0
SOLID
  5
1EA
330
1E5
100
AcDbEntity
  8
1
 62
     2
100
AcDbTrace
 10
-87.45872125550999
 20
-89.18918859156351
 30
0.0
 11
-86.53715377239821
 21
-89.18918859156351
 31
0.0
 12
-86.9979375139541
 22
-92.68918859156351
 32
0.0
 13
-86.9979375139541
 23
-92.68918859156351
 33
0.0
  0
SOLID
  5
1EB
330
1E5
100
AcDbEntity
  8
1
 62
     2
100
AcDbTrace
 10
-86.53715377239821
 20
-56.18918859156351
 30
0.0
 11
-87.45872125550999
 21
-56.18918859156351
 31
0.0
 12
-86.9979375139541
 22
-52.68918859156351
 32
0.0
 13
-86.9979375139541
 23
-52.68918859156351
 33
0.0
  0
MTEXT
  5
1EC
330
1E5
100
AcDbEntity
  8
1
 62
     2
100
AcDbMText
 10
-88.9979375139541
 20
-73.0611977059893
 30
0.0
 40
3.5
 41
0.0
 71
     7
 72
     1
  1
A
  7
CONVERTER_11
 11
0.0
 21
1.0
 31
0.0
 73
     1
 44
0.60024009603842
  0
ENDBLK
  5
1EE
330
1E5
100
AcDbEntity
  8
0
100
AcDbBlockEnd
  0
BLOCK
  5
1F8
330
1F1
100
AcDbEntity
  8
0
100
AcDbBlockBegin
  2
*D9
 70
     1
 10
0.0
 20
0.0
 30
0.0
  3
*D9
  1

  0
LINE
  5
1F2
330
1F1
100
AcDbEntity
  8
1
  6
Continuous
 62
     2
100
AcDbLine
 10
63.4242124444423
 20
-92.68918859156351
 30
0.0
 11
63.4242124444423
 21
-52.68918859156351
 31
0.0
  0
LINE
  5
1F3
330
1F1
100
AcDbEntity
  8
1
  6
Continuous
 62
     2
100
AcDbLine
 10
56.83123967983067
 20
-92.68918859156351
 30
0.0
 11
65.4242124444423
 21
-92.68918859156351
 31
0.0
  0
LINE
  5
1F4
330
1F1
100
AcDbEntity
  8
1
  6
Continuous
 62
     2
100
AcDbLine
 10
56.83123967983067
 20
-52.68918859156351
 30
0.0
 11
65.4242124444423
 21
-52.68918859156351
 31
0.0
  0
SOLID
  5
1F5
330
1F1
100
AcDbEntity
  8
1
 62
     2
100
AcDbTrace
 10
62.96342870288641
 20
-89.18918859156351
 30
0.0
 11
63.88499618599818
 21
-89.18918859156351
 31
0.0
 12
63.4242124444423
 22
-92.68918859156351
 32
0.0
 13
63.4242124444423
 23
-92.68918859156351
 33
0.0
  0
SOLID
  5
1F6
330
1F1
100
AcDbEntity
  8
1
 62
     2
100
AcDbTrace
 10
63.88499618599818
 20
-56.18918859156351
 30
0.0
 11
62.96342870288641
 21
-56.18918859156351
 31
0.0
 12
63.4242124444423
 22
-52.68918859156351
 32
0.0
 13
63.4242124444423
 23
-52.68918859156351
 33
0.0
  0
MTEXT
  5
1F7
330
1F1
100
AcDbEntity
  8
1
 62
     2
100
AcDbMText
 10
61.4242124444423
 20
-73.9105098904355
 30
0.0
 40
3.5
 41
0.0
 71
     7
 72
     1
  1
B
  7
CONVERTER_11
 11
0.0
 21
1.0
 31
0.0
 73
     1
 44
0.60024009603842
  0
ENDBLK
  5
1F9
330
1F1
100
AcDbEntity
  8
0
100
AcDbBlockEnd
  0
BLOCK
  5
203
330
1FC
100
AcDbEntity
  8
0
100
AcDbBlockBegin
  2
*D10
 70
     1
 10
0.0
 20
0.0
 30
0.0
  3
*D10
  1

  0
LINE
  5
1FD
330
1FC
100
AcDbEntity
  8
1
  6
Continuous
 62
     2
100
AcDbLine
 10
-177.782875217365
 20
59.38535147101106
 30
0.0
 11
-177.782875217365
 21
-100.614648528989
 31
0.0
  0
LINE
  5
1FE
330
1FC
100
AcDbEntity
  8
1
  6
Continuous
 62
     2
100
AcDbLine
 10
-212.91485230427
 20
59.38535147101105
 30
0.0
 11
-175.782875217365
 21
59.38535147101105
 31
0.0
  0
LINE
  5
1FF
330
1FC
100
AcDbEntity
  8
1
  6
Continuous
 62
     2
100
AcDbLine
 10
-212.91485230427
 20
-100.614648528989
 30
0.0
 11
-175.782875217365
 21
-100.614648528989
 31
0.0
  0
SOLID
  5
200
330
1FC
100
AcDbEntity
  8
1
 62
     2
100
AcDbTrace
 10
-177.3220914758091
 20
55.88535147101106
 30
0.0
 11
-178.2436589589209
 21
55.88535147101106
 31
0.0
 12
-177.782875217365
 22
59.38535147101106
 32
0.0
 13
-177.782875217365
 23
59.38535147101106
 33
0.0
  0
SOLID
  5
201
330
1FC
100
AcDbEntity
  8
1
 62
     2
100
AcDbTrace
 10
-178.2436589589209
 20
-97.114648528989
 30
0.0
 11
-177.3220914758091
 21
-97.114648528989
 31
0.0
 12
-177.782875217365
 22
-100.614648528989
 32
0.0
 13
-177.782875217365
 23
-100.614648528989
 33
0.0
  0
MTEXT
  5
202
330
1FC
100
AcDbEntity
  8
1
 62
     2
100
AcDbMText
 10
-179.782875217365
 20
-39.609438687666
 30
0.0
 40
3.5
 41
0.0
 71
     7
 72
     1
  1
\C2;160mm (\C2;6.299\C2;``)
  7
CONVERTER_11
 11
0.0
 21
1.0
 31
0.0
 73
     1
 44
0.60024009603842
  0
ENDBLK
  5
204
330
1FC
100
AcDbEntity
  8
0
100
AcDbBlockEnd
  0
BLOCK
  5
20F
330
207
100
AcDbEntity
  8
0
100
AcDbBlockBegin
  2
*D11
 70
     1
 10
0.0
 20
0.0
 30
0.0
  3
*D11
  1

  0
LINE
  5
208
330
207
100
AcDbEntity
  8
1
  6
Continuous
 62
     2
100
AcDbLine
 10
77.57232355093777
 20
-135.729476198668
 30
0.0
 11
67.57232355093777
 21
-135.729476198668
 31
0.0
  0
LINE
  5
209
330
207
100
AcDbEntity
  8
1
  6
Continuous
 62
     2
100
AcDbLine
 10
67.57232355093777
 20
-135.729476198668
 30
0.0
 11
28.68508521492796
 21
-135.729476198668
 31
0.0
  0
LINE
  5
20A
330
207
100
AcDbEntity
  8
1
  6
Continuous
 62
     2
100
AcDbLine
 10
77.57232355093777
 20
-100.614648528989
 30
0.0
 11
77.57232355093777
 21
-137.729476198668
 31
0.0
  0
LINE
  5
20B
330
207
100
AcDbEntity
  8
1
  6
Continuous
 62
     2
100
AcDbLine
 10
67.57232355093777
 20
-120.614648528989
 30
0.0
 11
67.57232355093777
 21
-137.729476198668
 31
0.0
  0
SOLID
  5
20C
330
207
100
AcDbEntity
  8
1
 62
     2
100
AcDbTrace
 10
74.07232355093777
 20
-136.1902599402239
 30
0.0
 11
74.07232355093777
 21
-135.2686924571121
 31
0.0
 12
77.57232355093777
 22
-135.729476198668
 32
0.0
 13
77.57232355093777
 23
-135.729476198668
 33
0.0
  0
SOLID
  5
20D
330
207
100
AcDbEntity
  8
1
 62
     2
100
AcDbTrace
 10
71.07232355093777
 20
-135.2686924571121
 30
0.0
 11
71.07232355093777
 21
-136.1902599402239
 31
0.0
 12
67.57232355093777
 22
-135.729476198668
 32
0.0
 13
67.57232355093777
 23
-135.729476198668
 33
0.0
  0
MTEXT
  5
20E
330
207
100
AcDbEntity
  8
1
 62
     2
100
AcDbMText
 10
28.79008521497856
 20
-133.7295179411259
 30
0.0
 40
3.5
 41
0.0
 71
     7
 72
     1
  1
\C2;10mm (\C2;0.394\C2;``)
  7
CONVERTER_11
 11
0.9999999999970619
 21
2.424068405545306E-6
 31
0.0
 73
     1
 44
0.60024009603842
  0
ENDBLK
  5
210
330
207
100
AcDbEntity
  8
0
100
AcDbBlockEnd
  0
BLOCK
  5
21B
330
213
100
AcDbEntity
  8
0
100
AcDbBlockBegin
  2
*D12
 70
     1
 10
0.0
 20
0.0
 30
0.0
  3
*D12
  1

  0
LINE
  5
214
330
213
100
AcDbEntity
  8
1
  6
Continuous
 62
     2
100
AcDbLine
 10
27.25710718126205
 20
-147.6142090488623
 30
0.0
 11
67.57232355093777
 21
-147.6142090488623
 31
0.0
  0
LINE
  5
215
330
213
100
AcDbEntity
  8
1
  6
Continuous
 62
     2
100
AcDbLine
 10
67.57232355093777
 20
-147.6142090488623
 30
0.0
 11
101.5723235509378
 21
-147.6142090488623
 31
0.0
  0
LINE
  5
216
330
213
100
AcDbEntity
  8
1
  6
Continuous
 62
     2
100
AcDbLine
 10
67.57232355093777
 20
-100.614648528989
 30
0.0
 11
67.57232355093777
 21
-149.6142090488623
 31
0.0
  0
LINE
  5
217
330
213
100
AcDbEntity
  8
1
  6
Continuous
 62
     2
100
AcDbLine
 10
101.5723235509378
 20
-86.11464852898916
 30
0.0
 11
101.5723235509378
 21
-149.6142090488623
 31
0.0
  0
SOLID
  5
218
330
213
100
AcDbEntity
  8
1
 62
     2
100
AcDbTrace
 10
71.07232355093777
 20
-147.1534253073064
 30
0.0
 11
71.07232355093777
 21
-148.0749927904182
 31
0.0
 12
67.57232355093777
 22
-147.6142090488623
 32
0.0
 13
67.57232355093777
 23
-147.6142090488623
 33
0.0
  0
SOLID
  5
219
330
213
100
AcDbEntity
  8
1
 62
     2
100
AcDbTrace
 10
98.0723235509378
 20
-148.0749927904182
 30
0.0
 11
98.0723235509378
 21
-147.1534253073064
 31
0.0
 12
101.5723235509378
 22
-147.6142090488623
 32
0.0
 13
101.5723235509378
 23
-147.6142090488623
 33
0.0
  0
MTEXT
  5
21A
330
213
100
AcDbEntity
  8
1
 62
     2
100
AcDbMText
 10
28.41210718131266
 20
-145.6142507913202
 30
0.0
 40
3.5
 41
0.0
 71
     7
 72
     1
  1
\C2;34mm (\C2;1.339\C2;``)
  7
CONVERTER_11
 11
0.9999999999970619
 21
2.424068405545306E-6
 31
0.0
 73
     1
 44
0.60024009603842
  0
ENDBLK
  5
21C
330
213
100
AcDbEntity
  8
0
100
AcDbBlockEnd
  0
BLOCK
  5
227
330
21F
100
AcDbEntity
  8
0
100
AcDbBlockBegin
  2
*D13
 70
     1
 10
0.0
 20
0.0
 30
0.0
  3
*D13
  1

  0
LINE
  5
220
330
21F
100
AcDbEntity
  8
1
  6
Continuous
 62
     2
100
AcDbLine
 10
220.0641863751218
 20
-138.729476198668
 30
0.0
 11
180.2856570446656
 21
-138.729476198668
 31
0.0
  0
LINE
  5
221
330
21F
100
AcDbEntity
  8
1
  6
Continuous
 62
     2
100
AcDbLine
 10
180.2856570446656
 20
-138.729476198668
 30
0.0
 11
152.2856570446656
 21
-138.729476198668
 31
0.0
  0
LINE
  5
222
330
21F
100
AcDbEntity
  8
1
  6
Continuous
 62
     2
100
AcDbLine
 10
180.2856570446656
 20
-86.614648528989
 30
0.0
 11
180.2856570446656
 21
-140.729476198668
 31
0.0
  0
LINE
  5
223
330
21F
100
AcDbEntity
  8
1
  6
Continuous
 62
     2
100
AcDbLine
 10
152.2856570446656
 20
-86.614648528989
 30
0.0
 11
152.2856570446656
 21
-140.729476198668
 31
0.0
  0
SOLID
  5
224
330
21F
100
AcDbEntity
  8
1
 62
     2
100
AcDbTrace
 10
176.7856570446656
 20
-139.1902599402239
 30
0.0
 11
176.7856570446656
 21
-138.2686924571121
 31
0.0
 12
180.2856570446656
 22
-138.729476198668
 32
0.0
 13
180.2856570446656
 23
-138.729476198668
 33
0.0
  0
SOLID
  5
225
330
21F
100
AcDbEntity
  8
1
 62
     2
100
AcDbTrace
 10
155.7856570446656
 20
-138.2686924571121
 30
0.0
 11
155.7856570446656
 21
-139.1902599402239
 31
0.0
 12
152.2856570446656
 22
-138.729476198668
 32
0.0
 13
152.2856570446656
 23
-138.729476198668
 33
0.0
  0
MTEXT
  5
226
330
21F
100
AcDbEntity
  8
1
 62
     2
100
AcDbMText
 10
187.5316863751724
 20
-136.7295179411259
 30
0.0
 40
3.5
 41
0.0
 71
     7
 72
     1
  1
\C2;28mm (\C2;1.102\C2;``)
  7
CONVERTER_11
 11
0.9999999999970619
 21
2.424068405545306E-6
 31
0.0
 73
     1
 44
0.60024009603842
  0
ENDBLK
  5
228
330
21F
100
AcDbEntity
  8
0
100
AcDbBlockEnd
  0
BLOCK
  5
233
330
22B
100
AcDbEntity
  8
0
100
AcDbBlockBegin
  2
*D14
 70
     1
 10
0.0
 20
0.0
 30
0.0
  3
*D14
  1

  0
LINE
  5
22C
330
22B
100
AcDbEntity
  8
1
  6
Continuous
 62
     2
100
AcDbLine
 10
221.9308370343117
 20
32.54515688290759
 30
0.0
 11
173.7856570446657
 21
32.54515688290759
 31
0.0
  0
LINE
  5
22D
330
22B
100
AcDbEntity
  8
1
  6
Continuous
 62
     2
100
AcDbLine
 10
173.7856570446657
 20
32.54515688290759
 30
0.0
 11
158.7856570446657
 21
32.54515688290759
 31
0.0
  0
LINE
  5
22E
330
22B
100
AcDbEntity
  8
1
  6
Continuous
 62
     2
100
AcDbLine
 10
173.7856570446656
 20
46.13535147101105
 30
0.0
 11
173.7856570446656
 21
30.54515688290759
 31
0.0
  0
LINE
  5
22F
330
22B
100
AcDbEntity
  8
1
  6
Continuous
 62
     2
100
AcDbLine
 10
158.7856570446656
 20
46.13535147101105
 30
0.0
 11
158.7856570446656
 21
30.54515688290759
 31
0.0
  0
SOLID
  5
230
330
22B
100
AcDbEntity
  8
1
 62
     2
100
AcDbTrace
 10
170.2856570446657
 20
32.0843731413517
 30
0.0
 11
170.2856570446657
 21
33.00594062446348
 31
0.0
 12
173.7856570446657
 22
32.54515688290759
 32
0.0
 13
173.7856570446657
 23
32.54515688290759
 33
0.0
  0
SOLID
  5
231
330
22B
100
AcDbEntity
  8
1
 62
     2
100
AcDbTrace
 10
162.2856570446657
 20
33.00594062446348
 30
0.0
 11
162.2856570446657
 21
32.0843731413517
 31
0.0
 12
158.7856570446657
 22
32.54515688290759
 32
0.0
 13
158.7856570446657
 23
32.54515688290759
 33
0.0
  0
MTEXT
  5
232
330
22B
100
AcDbEntity
  8
1
 62
     2
100
AcDbMText
 10
188.3483370343623
 20
34.54511514044965
 30
0.0
 40
3.5
 41
0.0
 71
     7
 72
     1
  1
\C2;15mm (\C2;0.591\C2;``)
  7
CONVERTER_11
 11
0.9999999999970619
 21
2.424068405545306E-6
 31
0.0
 73
     1
 44
0.60024009603842
  0
ENDBLK
  5
234
330
22B
100
AcDbEntity
  8
0
100
AcDbBlockEnd
  0
BLOCK
  5
240
330
237
100
AcDbEntity
  8
0
100
AcDbBlockBegin
  2
*D15
 70
     1
 10
0.0
 20
0.0
 30
0.0
  3
*D15
  1

  0
LINE
  5
238
330
237
100
AcDbEntity
  8
1
  6
Continuous
 62
     2
100
AcDbLine
 10
220.8067505346778
 20
-128.729476198668
 30
0.0
 11
184.2856570446656
 21
-128.729476198668
 31
0.0
  0
LINE
  5
239
330
237
100
AcDbEntity
  8
1
  6
Continuous
 62
     2
100
AcDbLine
 10
184.2856570446656
 20
-128.729476198668
 30
0.0
 11
180.2856570446657
 21
-128.729476198668
 31
0.0
  0
LINE
  5
23A
330
237
100
AcDbEntity
  8
1
  6
Continuous
 62
     2
100
AcDbLine
 10
180.2856570446657
 20
-128.729476198668
 30
0.0
 11
173.2856570446657
 21
-128.729476198668
 31
0.0
  0
LINE
  5
23B
330
237
100
AcDbEntity
  8
1
  6
Continuous
 62
     2
100
AcDbLine
 10
184.2856570446656
 20
-120.6146485289889
 30
0.0
 11
184.2856570446656
 21
-130.729476198668
 31
0.0
  0
LINE
  5
23C
330
237
100
AcDbEntity
  8
1
  6
Continuous
 62
     2
100
AcDbLine
 10
180.2856570446657
 20
-86.61464852898892
 30
0.0
 11
180.2856570446657
 21
-130.729476198668
 31
0.0
  0
SOLID
  5
23D
330
237
100
AcDbEntity
  8
1
 62
     2
100
AcDbTrace
 10
187.7856570446656
 20
-128.2686924571121
 30
0.0
 11
187.7856570446656
 21
-129.1902599402239
 31
0.0
 12
184.2856570446656
 22
-128.729476198668
 32
0.0
 13
184.2856570446656
 23
-128.729476198668
 33
0.0
  0
SOLID
  5
23E
330
237
100
AcDbEntity
  8
1
 62
     2
100
AcDbTrace
 10
176.7856570446657
 20
-129.1902599402239
 30
0.0
 11
176.7856570446657
 21
-128.2686924571121
 31
0.0
 12
180.2856570446657
 22
-128.729476198668
 32
0.0
 13
180.2856570446657
 23
-128.729476198668
 33
0.0
  0
MTEXT
  5
23F
330
237
100
AcDbEntity
  8
1
 62
     2
100
AcDbMText
 10
190.0942505347199
 20
-126.7295109840496
 30
0.0
 40
3.5
 41
0.0
 71
     7
 72
     1
  1
\C2;4mm (\C2;0.157\C2;``)
  7
CONVERTER_11
 11
0.9999999999970619
 21
2.424068405545306E-6
 31
0.0
 73
     1
 44
0.60024009603842
  0
ENDBLK
  5
241
330
237
100
AcDbEntity
  8
0
100
AcDbBlockEnd
  0
BLOCK
  5
24B
330
244
100
AcDbEntity
  8
0
100
AcDbBlockBegin
  2
*D16
 70
     1
 10
0.0
 20
0.0
 30
0.0
  3
*D16
  1

  0
LINE
  5
245
330
244
100
AcDbEntity
  8
1
  6
Continuous
 62
     2
100
AcDbLine
 10
123.579042964559
 20
59.38535147101106
 30
0.0
 11
123.579042964559
 21
-100.614648528989
 31
0.0
  0
LINE
  5
246
330
244
100
AcDbEntity
  8
1
  6
Continuous
 62
     2
100
AcDbLine
 10
166.2856570446656
 20
59.38535147101105
 30
0.0
 11
121.579042964559
 21
59.38535147101105
 31
0.0
  0
LINE
  5
247
330
244
100
AcDbEntity
  8
1
  6
Continuous
 62
     2
100
AcDbLine
 10
166.2856570446656
 20
-100.614648528989
 30
0.0
 11
121.579042964559
 21
-100.614648528989
 31
0.0
  0
SOLID
  5
248
330
244
100
AcDbEntity
  8
1
 62
     2
100
AcDbTrace
 10
124.0398267061149
 20
55.88535147101106
 30
0.0
 11
123.1182592230031
 21
55.88535147101106
 31
0.0
 12
123.579042964559
 22
59.38535147101106
 32
0.0
 13
123.579042964559
 23
59.38535147101106
 33
0.0
  0
SOLID
  5
249
330
244
100
AcDbEntity
  8
1
 62
     2
100
AcDbTrace
 10
123.1182592230031
 20
-97.114648528989
 30
0.0
 11
124.0398267061149
 21
-97.114648528989
 31
0.0
 12
123.579042964559
 22
-100.614648528989
 32
0.0
 13
123.579042964559
 23
-100.614648528989
 33
0.0
  0
MTEXT
  5
24A
330
244
100
AcDbEntity
  8
1
 62
     2
100
AcDbMText
 10
121.579042964559
 20
-39.2082741982269
 30
0.0
 40
3.5
 41
0.0
 71
     7
 72
     1
  1
\C2;160mm (\C2;6.299\C2;``)
  7
CONVERTER_11
 11
0.0
 21
1.0
 31
0.0
 73
     1
 44
0.60024009603842
  0
ENDBLK
  5
24C
330
244
100
AcDbEntity
  8
0
100
AcDbBlockEnd
  0
BLOCK
  5
256
330
24F
100
AcDbEntity
  8
0
100
AcDbBlockBegin
  2
*D17
 70
     1
 10
0.0
 20
0.0
 30
0.0
  3
*D17
  1

  0
LINE
  5
250
330
24F
100
AcDbEntity
  8
1
  6
Continuous
 62
     2
100
AcDbLine
 10
131.034325602814
 20
48.38535147101105
 30
0.0
 11
131.034325602814
 21
-89.61464852898895
 31
0.0
  0
LINE
  5
251
330
24F
100
AcDbEntity
  8
1
  6
Continuous
 62
     2
100
AcDbLine
 10
156.5356570446656
 20
48.38535147101105
 30
0.0
 11
129.034325602814
 21
48.38535147101105
 31
0.0
  0
LINE
  5
252
330
24F
100
AcDbEntity
  8
1
  6
Continuous
 62
     2
100
AcDbLine
 10
156.5356570446656
 20
-89.61464852898895
 30
0.0
 11
129.034325602814
 21
-89.61464852898895
 31
0.0
  0
SOLID
  5
253
330
24F
100
AcDbEntity
  8
1
 62
     2
100
AcDbTrace
 10
131.4951093443699
 20
44.88535147101105
 30
0.0
 11
130.5735418612581
 21
44.88535147101105
 31
0.0
 12
131.034325602814
 22
48.38535147101105
 32
0.0
 13
131.034325602814
 23
48.38535147101105
 33
0.0
  0
SOLID
  5
254
330
24F
100
AcDbEntity
  8
1
 62
     2
100
AcDbTrace
 10
130.5735418612581
 20
-86.11464852898895
 30
0.0
 11
131.4951093443699
 21
-86.11464852898895
 31
0.0
 12
131.034325602814
 22
-89.61464852898895
 32
0.0
 13
131.034325602814
 23
-89.61464852898895
 33
0.0
  0
MTEXT
  5
255
330
24F
100
AcDbEntity
  8
1
 62
     2
100
AcDbMText
 10
129.034325602814
 20
-39.2082741982269
 30
0.0
 40
3.5
 41
0.0
 71
     7
 72
     1
  1
\C2;138mm (\C2;5.433\C2;``)
  7
CONVERTER_11
 11
0.0
 21
1.0
 31
0.0
 73
     1
 44
0.60024009603842
  0
ENDBLK
  5
257
330
24F
100
AcDbEntity
  8
0
100
AcDbBlockEnd
  0
BLOCK
  5
261
330
25A
100
AcDbEntity
  8
0
100
AcDbBlockBegin
  2
*D18
 70
     1
 10
0.0
 20
0.0
 30
0.0
  3
*D18
  1

  0
LINE
  5
25B
330
25A
100
AcDbEntity
  8
1
  6
Continuous
 62
     2
100
AcDbLine
 10
140.181351617846
 20
44.88535147101106
 30
0.0
 11
140.181351617846
 21
-86.11464852898919
 31
0.0
  0
LINE
  5
25C
330
25A
100
AcDbEntity
  8
1
  6
Continuous
 62
     2
100
AcDbLine
 10
164.2856570446656
 20
44.88535147101106
 30
0.0
 11
138.181351617846
 21
44.88535147101106
 31
0.0
  0
LINE
  5
25D
330
25A
100
AcDbEntity
  8
1
  6
Continuous
 62
     2
100
AcDbLine
 10
168.0543313171585
 20
-86.11464852898919
 30
0.0
 11
138.181351617846
 21
-86.11464852898919
 31
0.0
  0
SOLID
  5
25E
330
25A
100
AcDbEntity
  8
1
 62
     2
100
AcDbTrace
 10
140.6421353594019
 20
41.38535147101106
 30
0.0
 11
139.7205678762901
 21
41.38535147101106
 31
0.0
 12
140.181351617846
 22
44.88535147101106
 32
0.0
 13
140.181351617846
 23
44.88535147101106
 33
0.0
  0
SOLID
  5
25F
330
25A
100
AcDbEntity
  8
1
 62
     2
100
AcDbTrace
 10
139.7205678762901
 20
-82.61464852898919
 30
0.0
 11
140.6421353594019
 21
-82.61464852898919
 31
0.0
 12
140.181351617846
 22
-86.11464852898919
 32
0.0
 13
140.181351617846
 23
-86.11464852898919
 33
0.0
  0
MTEXT
  5
260
330
25A
100
AcDbEntity
  8
1
 62
     2
100
AcDbMText
 10
138.181351617846
 20
-39.11108169408329
 30
0.0
 40
3.5
 41
0.0
 71
     7
 72
     1
  1
\C2;131mm (\C2;5.157\C2;``)
  7
CONVERTER_11
 11
0.0
 21
1.0
 31
0.0
 73
     1
 44
0.60024009603842
  0
ENDBLK
  5
262
330
25A
100
AcDbEntity
  8
0
100
AcDbBlockEnd
  0
BLOCK
  5
26E
330
265
100
AcDbEntity
  8
0
100
AcDbBlockBegin
  2
*D19
 70
     1
 10
0.0
 20
0.0
 30
0.0
  3
*D19
  1

  0
LINE
  5
266
330
265
100
AcDbEntity
  8
1
  6
Continuous
 62
     2
100
AcDbLine
 10
37.3301561924627
 20
-81.68918859156332
 30
0.0
 11
37.3301561924627
 21
-88.68918859156332
 31
0.0
  0
LINE
  5
267
330
265
100
AcDbEntity
  8
1
  6
Continuous
 62
     2
100
AcDbLine
 10
37.3301561924627
 20
-88.68918859156332
 30
0.0
 11
37.3301561924627
 21
-92.68918859156351
 31
0.0
  0
LINE
  5
268
330
265
100
AcDbEntity
  8
1
  6
Continuous
 62
     2
100
AcDbLine
 10
37.3301561924627
 20
-92.68918859156351
 30
0.0
 11
37.3301561924627
 21
-127.072955836143
 31
0.0
  0
LINE
  5
269
330
265
100
AcDbEntity
  8
1
  6
Continuous
 62
     2
100
AcDbLine
 10
22.83123967983047
 20
-88.68918859156332
 30
0.0
 11
39.3301561924627
 21
-88.68918859156332
 31
0.0
  0
LINE
  5
26A
330
265
100
AcDbEntity
  8
1
  6
Continuous
 62
     2
100
AcDbLine
 10
12.83123967983048
 20
-92.68918859156351
 30
0.0
 11
39.3301561924627
 21
-92.68918859156351
 31
0.0
  0
SOLID
  5
26B
330
265
100
AcDbEntity
  8
1
 62
     2
100
AcDbTrace
 10
36.86937245090682
 20
-85.18918859156332
 30
0.0
 11
37.79093993401859
 21
-85.18918859156332
 31
0.0
 12
37.3301561924627
 22
-88.68918859156332
 32
0.0
 13
37.3301561924627
 23
-88.68918859156332
 33
0.0
  0
SOLID
  5
26C
330
265
100
AcDbEntity
  8
1
 62
     2
100
AcDbTrace
 10
37.79093993401859
 20
-96.18918859156351
 30
0.0
 11
36.86937245090682
 21
-96.18918859156351
 31
0.0
 12
37.3301561924627
 22
-92.68918859156351
 32
0.0
 13
37.3301561924627
 23
-92.68918859156351
 33
0.0
  0
MTEXT
  5
26D
330
265
100
AcDbEntity
  8
1
 62
     2
100
AcDbMText
 10
35.3301561924627
 20
-126.197955836143
 30
0.0
 40
3.5
 41
0.0
 71
     7
 72
     1
  1
\C2;4mm (\C2;0.157\C2;``)
  7
CONVERTER_11
 11
0.0
 21
1.0
 31
0.0
 73
     1
 44
0.60024009603842
  0
ENDBLK
  5
26F
330
265
100
AcDbEntity
  8
0
100
AcDbBlockEnd
  0
BLOCK
  5
27B
330
272
100
AcDbEntity
  8
0
100
AcDbBlockBegin
  2
*D20
 70
     1
 10
0.0
 20
0.0
 30
0.0
  3
*D20
  1

  0
LINE
  5
273
330
272
100
AcDbEntity
  8
1
  6
Continuous
 62
     2
100
AcDbLine
 10
21.9246179086446
 20
-121.670521243206
 30
0.0
 11
-22.16876032016922
 21
-121.670521243206
 31
0.0
  0
LINE
  5
274
330
272
100
AcDbEntity
  8
1
  6
Continuous
 62
     2
100
AcDbLine
 10
-22.16876032016922
 20
-121.670521243206
 30
0.0
 11
-52.16876032016923
 21
-121.670521243206
 31
0.0
  0
LINE
  5
275
330
272
100
AcDbEntity
  8
1
  6
Continuous
 62
     2
100
AcDbLine
 10
-22.16876032016922
 20
-88.68918859156351
 30
0.0
 11
-22.16876032016922
 21
-123.670521243206
 31
0.0
  0
LINE
  5
276
330
272
100
AcDbEntity
  8
1
  6
Continuous
 62
     2
100
AcDbLine
 10
-52.16876032016923
 20
-112.418808649677
 30
0.0
 11
-52.16876032016923
 21
-123.670521243206
 31
0.0
  0
LINE
  5
277
330
272
100
AcDbEntity
  8
1
  6
Continuous
 62
     2
100
AcDbLine
 10
-52.16876032016923
 20
-88.68918859156351
 30
0.0
 11
-52.16876032016923
 21
-97.4935686746876
 31
0.0
  0
SOLID
  5
278
330
272
100
AcDbEntity
  8
1
 62
     2
100
AcDbTrace
 10
-25.66876032016922
 20
-122.1313049847619
 30
0.0
 11
-25.66876032016922
 21
-121.2097375016501
 31
0.0
 12
-22.16876032016922
 22
-121.670521243206
 32
0.0
 13
-22.16876032016922
 23
-121.670521243206
 33
0.0
  0
SOLID
  5
279
330
272
100
AcDbEntity
  8
1
 62
     2
100
AcDbTrace
 10
-48.66876032016923
 20
-121.2097375016501
 30
0.0
 11
-48.66876032016923
 21
-122.1313049847619
 31
0.0
 12
-52.16876032016923
 22
-121.670521243206
 32
0.0
 13
-52.16876032016923
 23
-121.670521243206
 33
0.0
  0
MTEXT
  5
27A
330
272
100
AcDbEntity
  8
1
 62
     2
100
AcDbMText
 10
-20.9503820913554
 20
-119.670521243206
 30
0.0
 40
3.5
 41
0.0
 71
     7
 72
     1
  1
min. 30mm (1.181``)
  7
CONVERTER_11
 11
0.9999999999970619
 21
2.424068405545306E-6
 31
0.0
 73
     1
 44
0.60024009603842
  0
ENDBLK
  5
27C
330
272
100
AcDbEntity
  8
0
100
AcDbBlockEnd
  0
BLOCK
  5
287
330
27F
100
AcDbEntity
  8
0
100
AcDbBlockBegin
  2
*D21
 70
     1
 10
0.0
 20
0.0
 30
0.0
  3
*D21
  1

  0
LINE
  5
280
330
27F
100
AcDbEntity
  8
1
  6
Continuous
 62
     2
100
AcDbLine
 10
9.33123967983076
 20
-107.730844203633
 30
0.0
 11
-22.16876032016922
 21
-107.730844203633
 31
0.0
  0
LINE
  5
281
330
27F
100
AcDbEntity
  8
1
  6
Continuous
 62
     2
100
AcDbLine
 10
-22.16876032016922
 20
-107.730844203633
 30
0.0
 11
-62.7303972530141
 21
-107.730844203633
 31
0.0
  0
LINE
  5
282
330
27F
100
AcDbEntity
  8
1
  6
Continuous
 62
     2
100
AcDbLine
 10
9.33123967983076
 20
-88.68918859156351
 30
0.0
 11
9.33123967983076
 21
-109.730844203633
 31
0.0
  0
LINE
  5
283
330
27F
100
AcDbEntity
  8
1
  6
Continuous
 62
     2
100
AcDbLine
 10
-22.16876032016922
 20
-88.68918859156351
 30
0.0
 11
-22.16876032016922
 21
-109.730844203633
 31
0.0
  0
SOLID
  5
284
330
27F
100
AcDbEntity
  8
1
 62
     2
100
AcDbTrace
 10
5.83123967983076
 20
-108.1916279451889
 30
0.0
 11
5.83123967983076
 21
-107.2700604620771
 31
0.0
 12
9.33123967983076
 22
-107.730844203633
 32
0.0
 13
9.33123967983076
 23
-107.730844203633
 33
0.0
  0
SOLID
  5
285
330
27F
100
AcDbEntity
  8
1
 62
     2
100
AcDbTrace
 10
-18.66876032016922
 20
-107.2700604620771
 30
0.0
 11
-18.66876032016922
 21
-108.1916279451889
 31
0.0
 12
-22.16876032016922
 22
-107.730844203633
 32
0.0
 13
-22.16876032016922
 23
-107.730844203633
 33
0.0
  0
MTEXT
  5
286
330
27F
100
AcDbEntity
  8
1
 62
     2
100
AcDbMText
 10
-64.07789725294664
 20
-105.7308998602436
 30
0.0
 40
3.5
 41
0.0
 71
     7
 72
     1
  1
\C2;31.5mm (\C2;1.240\C2;``)
  7
CONVERTER_11
 11
0.9999999999970619
 21
2.424068405545306E-6
 31
0.0
 73
     1
 44
0.60024009603842
  0
ENDBLK
  5
288
330
27F
100
AcDbEntity
  8
0
100
AcDbBlockEnd
  0
BLOCK
  5
293
330
28B
100
AcDbEntity
  8
0
100
AcDbBlockBegin
  2
*D22
 70
     1
 10
0.0
 20
0.0
 30
0.0
  3
*D22
  1

  0
LINE
  5
28C
330
28B
100
AcDbEntity
  8
1
  6
Continuous
 62
     2
100
AcDbLine
 10
-74.67658095267512
 20
-92.68918859156351
 30
0.0
 11
-74.67658095267512
 21
-74.6891885915635
 31
0.0
  0
LINE
  5
28D
330
28B
100
AcDbEntity
  8
1
  6
Continuous
 62
     2
100
AcDbLine
 10
-74.67658095267512
 20
-74.6891885915635
 30
0.0
 11
-74.67658095267512
 21
-23.54648647636999
 31
0.0
  0
LINE
  5
28E
330
28B
100
AcDbEntity
  8
1
  6
Continuous
 62
     2
100
AcDbLine
 10
-68.66876032016924
 20
-92.68918859156351
 30
0.0
 11
-76.67658095267512
 21
-92.68918859156351
 31
0.0
  0
LINE
  5
28F
330
28B
100
AcDbEntity
  8
1
  6
Continuous
 62
     2
100
AcDbLine
 10
-68.66876032016924
 20
-74.6891885915635
 30
0.0
 11
-76.67658095267512
 21
-74.6891885915635
 31
0.0
  0
SOLID
  5
290
330
28B
100
AcDbEntity
  8
1
 62
     2
100
AcDbTrace
 10
-75.13736469423101
 20
-89.18918859156351
 30
0.0
 11
-74.21579721111924
 21
-89.18918859156351
 31
0.0
 12
-74.67658095267512
 22
-92.68918859156351
 32
0.0
 13
-74.67658095267512
 23
-92.68918859156351
 33
0.0
  0
SOLID
  5
291
330
28B
100
AcDbEntity
  8
1
 62
     2
100
AcDbTrace
 10
-74.21579721111924
 20
-78.1891885915635
 30
0.0
 11
-75.13736469423101
 21
-78.1891885915635
 31
0.0
 12
-74.67658095267512
 22
-74.6891885915635
 32
0.0
 13
-74.67658095267512
 23
-74.6891885915635
 33
0.0
  0
MTEXT
  5
292
330
28B
100
AcDbEntity
  8
1
 62
     2
100
AcDbMText
 10
-76.67658095267512
 20
-71.84648647636999
 30
0.0
 40
3.5
 41
0.0
 71
     7
 72
     1
  1
max. 24mm (0.827``)
  7
CONVERTER_11
 11
0.0
 21
1.0
 31
0.0
 73
     1
 44
0.60024009603842
  0
ENDBLK
  5
294
330
28B
100
AcDbEntity
  8
0
100
AcDbBlockEnd
  0
BLOCK
  5
2A0
330
297
100
AcDbEntity
  8
0
100
AcDbBlockBegin
  2
*D23
 70
     1
 10
0.0
 20
0.0
 30
0.0
  3
*D23
  1

  0
LINE
  5
298
330
297
100
AcDbEntity
  8
1
  6
Continuous
 62
     2
100
AcDbLine
 10
-237.9148523042699
 20
-130.2566310837739
 30
0.0
 11
-230.9148523042699
 21
-130.2566310837739
 31
0.0
  0
LINE
  5
299
330
297
100
AcDbEntity
  8
1
  6
Continuous
 62
     2
100
AcDbLine
 10
-230.9148523042699
 20
-130.2566310837739
 30
0.0
 11
-226.9148523042699
 21
-130.2566310837739
 31
0.0
  0
LINE
  5
29A
330
297
100
AcDbEntity
  8
1
  6
Continuous
 62
     2
100
AcDbLine
 10
-226.9148523042699
 20
-130.2566310837739
 30
0.0
 11
-219.9148523042699
 21
-130.2566310837739
 31
0.0
  0
LINE
  5
29B
330
297
100
AcDbEntity
  8
1
  6
Continuous
 62
     2
100
AcDbLine
 10
-230.9148523042699
 20
-120.614648528989
 30
0.0
 11
-230.9148523042699
 21
-132.2566310837739
 31
0.0
  0
LINE
  5
29C
330
297
100
AcDbEntity
  8
1
  6
Continuous
 62
     2
100
AcDbLine
 10
-226.9148523042699
 20
-86.61464852898894
 30
0.0
 11
-226.9148523042699
 21
-132.2566310837739
 31
0.0
  0
SOLID
  5
29D
330
297
100
AcDbEntity
  8
1
 62
     2
100
AcDbTrace
 10
-234.4148523042699
 20
-130.7174148253298
 30
0.0
 11
-234.4148523042699
 21
-129.795847342218
 31
0.0
 12
-230.9148523042699
 22
-130.2566310837739
 32
0.0
 13
-230.9148523042699
 23
-130.2566310837739
 33
0.0
  0
SOLID
  5
29E
330
297
100
AcDbEntity
  8
1
 62
     2
100
AcDbTrace
 10
-223.4148523042699
 20
-129.795847342218
 30
0.0
 11
-223.4148523042699
 21
-130.7174148253298
 31
0.0
 12
-226.9148523042699
 22
-130.2566310837739
 32
0.0
 13
-226.9148523042699
 23
-130.2566310837739
 33
0.0
  0
MTEXT
  5
29F
330
297
100
AcDbEntity
  8
1
 62
     2
100
AcDbMText
 10
-235.0016155576639
 20
-128.2566310837739
 30
0.0
 40
3.5
 41
0.0
 71
     7
 72
     1
  1
X
  7
CONVERTER_11
 11
0.9999999999970619
 21
2.424068405545306E-6
 31
0.0
 73
     1
 44
0.60024009603842
  0
ENDBLK
  5
2A1
330
297
100
AcDbEntity
  8
0
100
AcDbBlockEnd
  0
BLOCK
  5
2AC
330
2A4
100
AcDbEntity
  8
0
100
AcDbBlockBegin
  2
*D24
 70
     1
 10
0.0
 20
0.0
 30
0.0
  3
*D24
  1

  0
LINE
  5
2A5
330
2A4
100
AcDbEntity
  8
1
  6
Continuous
 62
     2
100
AcDbLine
 10
-263.2294162427407
 20
-144.2566310837739
 30
0.0
 11
-226.91485230427
 21
-144.2566310837739
 31
0.0
  0
LINE
  5
2A6
330
2A4
100
AcDbEntity
  8
1
  6
Continuous
 62
     2
100
AcDbLine
 10
-226.91485230427
 20
-144.2566310837739
 30
0.0
 11
-198.91485230427
 21
-144.2566310837739
 31
0.0
  0
LINE
  5
2A7
330
2A4
100
AcDbEntity
  8
1
  6
Continuous
 62
     2
100
AcDbLine
 10
-226.91485230427
 20
-86.61464852898894
 30
0.0
 11
-226.91485230427
 21
-146.2566310837739
 31
0.0
  0
LINE
  5
2A8
330
2A4
100
AcDbEntity
  8
1
  6
Continuous
 62
     2
100
AcDbLine
 10
-198.91485230427
 20
-84.6146485289892
 30
0.0
 11
-198.91485230427
 21
-146.2566310837739
 31
0.0
  0
SOLID
  5
2A9
330
2A4
100
AcDbEntity
  8
1
 62
     2
100
AcDbTrace
 10
-223.41485230427
 20
-143.795847342218
 30
0.0
 11
-223.41485230427
 21
-144.7174148253298
 31
0.0
 12
-226.91485230427
 22
-144.2566310837739
 32
0.0
 13
-226.91485230427
 23
-144.2566310837739
 33
0.0
  0
SOLID
  5
2AA
330
2A4
100
AcDbEntity
  8
1
 62
     2
100
AcDbTrace
 10
-202.41485230427
 20
-144.7174148253298
 30
0.0
 11
-202.41485230427
 21
-143.795847342218
 31
0.0
 12
-198.91485230427
 22
-144.2566310837739
 32
0.0
 13
-198.91485230427
 23
-144.2566310837739
 33
0.0
  0
MTEXT
  5
2AB
330
2A4
100
AcDbEntity
  8
1
 62
     2
100
AcDbMText
 10
-262.0744162426901
 20
-142.2566728262318
 30
0.0
 40
3.5
 41
0.0
 71
     7
 72
     1
  1
\C2;28mm (\C2;1.102\C2;``)
  7
CONVERTER_11
 11
0.9999999999970619
 21
2.424068405545306E-6
 31
0.0
 73
     1
 44
0.60024009603842
  0
ENDBLK
  5
2AD
330
2A4
100
AcDbEntity
  8
0
100
AcDbBlockEnd
  0
BLOCK
  5
2B5
330
2B0
100
AcDbEntity
  8
0
100
AcDbBlockBegin
  2
*D25
 70
     1
 10
0.0
 20
0.0
 30
0.0
  3
*D25
  1

  0
LINE
  5
2B1
330
2B0
100
AcDbEntity
  8
1
  6
Continuous
 62
     2
100
AcDbLine
 10
-217.2614382649149
 20
-74.81208877099901
 30
0.0
 11
-168.405339750434
 21
-139.9928290955267
 31
0.0
  0
SOLID
  5
2B2
330
2B0
100
AcDbEntity
  8
1
 62
     2
100
AcDbTrace
 10
-200.2491543291103
 20
-96.7405409950857
 30
0.0
 11
-200.9865682471067
 21
-97.29326817867101
 31
0.0
 12
-202.7170511770751
 22
-94.21629718667738
 32
0.0
 13
-202.7170511770751
 23
-94.21629718667738
 33
0.0
  0
SOLID
  5
2B3
330
2B0
100
AcDbEntity
  8
1
 62
     2
100
AcDbTrace
 10
-216.5805502794298
 20
-76.48875606289218
 30
0.0
 11
-215.8431363614334
 21
-75.93602887930686
 31
0.0
 12
-214.112653431465
 22
-79.0129998713005
 32
0.0
 13
-214.112653431465
 23
-79.0129998713005
 33
0.0
  0
MTEXT
  5
2B4
330
2B0
100
AcDbEntity
  8
1
 62
     2
100
AcDbMText
 10
-185.7501814125281
 20
-113.5178102293033
 30
0.0
 40
3.5
 41
0.0
 71
     7
 72
     1
  1
cutter \U+00f83/4``
  7
CONVERTER_11
 11
0.5997685397047325
 21
-0.8001735429145684
 31
0.0
 73
     1
 44
0.60024009603842
  0
ENDBLK
  5
2B6
330
2B0
100
AcDbEntity
  8
0
100
AcDbBlockEnd
  0
BLOCK
  5
2BD
330
2B8
100
AcDbEntity
  8
0
100
AcDbBlockBegin
  2
*D26
 70
     1
 10
0.0
 20
0.0
 30
0.0
  3
*D26
  1

  0
LINE
  5
2B9
330
2B8
100
AcDbEntity
  8
1
  6
Continuous
 62
     2
100
AcDbLine
 10
170.3196826771981
 20
-74.58414951592712
 30
0.0
 11
126.513589348952
 21
-136.3380257337998
 31
0.0
  0
SOLID
  5
2BA
330
2B8
100
AcDbEntity
  8
1
 62
     2
100
AcDbTrace
 10
154.6399706124692
 20
-97.48439954128023
 30
0.0
 11
153.8883152432457
 21
-96.95120086175588
 31
0.0
 12
156.2891659593058
 22
-94.36310552045252
 32
0.0
 13
156.2891659593058
 23
-94.36310552045252
 33
0.0
  0
SOLID
  5
2BB
330
2B8
100
AcDbEntity
  8
1
 62
     2
100
AcDbTrace
 10
168.9313434768621
 20
-75.74489751669768
 30
0.0
 11
169.6829988460856
 21
-76.27809619622202
 31
0.0
 12
167.2821481300255
 22
-78.86619153752538
 32
0.0
 13
167.2821481300255
 23
-78.86619153752538
 33
0.0
  0
MTEXT
  5
2BC
330
2B8
100
AcDbEntity
  8
1
 62
     2
100
AcDbMText
 10
124.882335245486
 20
-135.1808697158293
 30
0.0
 40
3.5
 41
0.0
 71
     7
 72
     1
  1
cutter \U+00f83/4``
  7
CONVERTER_11
 11
0.5785780089852457
 21
0.8156270517330019
 31
0.0
 73
     1
 44
0.60024009603842
  0
ENDBLK
  5
2BE
330
2B8
100
AcDbEntity
  8
0
100
AcDbBlockEnd
  0
ENDSEC
  0
SECTION
  2
ENTITIES
  0
POINT
  5
47
330
1F
100
AcDbEntity
  8
1
 62
     3
 60
     1
100
AcDbPoint
 10
-187.889135845402
 20
-20.61464852898895
 30
0.0
  0
POINT
  5
48
330
1F
100
AcDbEntity
  8
1
 62
     3
 60
     1
100
AcDbPoint
 10
168.2856570446656
 20
-43.20197162400865
 30
0.0
  0
POINT
  5
49
330
1F
100
AcDbEntity
  8
1
 62
     3
 60
     1
100
AcDbPoint
 10
168.2856570446656
 20
2.79802837599135
 30
0.0
  0
POINT
  5
4A
330
1F
100
AcDbEntity
  8
1
 62
     3
 60
     1
100
AcDbPoint
 10
-214.91485230427
 20
-43.36966012743386
 30
0.0
  0
POINT
  5
4B
330
1F
100
AcDbEntity
  8
1
 62
     3
 60
     1
100
AcDbPoint
 10
-214.91485230427
 20
2.63033987256614
 30
0.0
  0
POINT
  5
4C
330
1F
100
AcDbEntity
  8
1
 62
     3
 60
     1
100
AcDbPoint
 10
-198.9148523042699
 20
16.38535147101105
 30
0.0
  0
POINT
  5
4D
330
1F
100
AcDbEntity
  8
1
 62
     3
 60
     1
100
AcDbPoint
 10
-198.9148523042699
 20
-59.61464852898895
 30
0.0
  0
POINT
  5
4E
330
1F
100
AcDbEntity
  8
1
 62
     3
 60
     1
100
AcDbPoint
 10
-212.91485230427
 20
-86.61464852898895
 30
0.0
  0
POINT
  5
4F
330
1F
100
AcDbEntity
  8
1
 62
     3
 60
     1
100
AcDbPoint
 10
-212.91485230427
 20
-100.614648528989
 30
0.0
  0
POINT
  5
50
330
1F
100
AcDbEntity
  8
1
 62
     3
 60
     1
100
AcDbPoint
 10
-226.91485230427
 20
-86.61464852898895
 30
0.0
  0
POINT
  5
51
330
1F
100
AcDbEntity
  8
1
 62
     3
 60
     1
100
AcDbPoint
 10
-212.91485230427
 20
-86.61464852898895
 30
0.0
  0
POINT
  5
52
330
1F
100
AcDbEntity
  8
1
 62
     3
 60
     1
100
AcDbPoint
 10
-198.91485230427
 20
-86.61464852898895
 30
0.0
  0
POINT
  5
53
330
1F
100
AcDbEntity
  8
1
 62
     3
 60
     1
100
AcDbPoint
 10
-212.91485230427
 20
-100.614648528989
 30
0.0
  0
POINT
  5
54
330
1F
100
AcDbEntity
  8
1
 62
     3
 60
     1
100
AcDbPoint
 10
-212.91485230427
 20
59.38535147101105
 30
0.0
  0
POINT
  5
55
330
1F
100
AcDbEntity
  8
1
 62
     3
 60
     1
100
AcDbPoint
 10
-226.91485230427
 20
45.38535147101105
 30
0.0
  0
POINT
  5
56
330
1F
100
AcDbEntity
  8
1
 62
     3
 60
     1
100
AcDbPoint
 10
-198.91485230427
 20
45.38535147101105
 30
0.0
  0
POINT
  5
57
330
1F
100
AcDbEntity
  8
1
 62
     3
 60
     1
100
AcDbPoint
 10
-52.16876032016926
 20
-74.68918859156359
 30
0.0
  0
POINT
  5
58
330
1F
100
AcDbEntity
  8
1
 62
     3
 60
     1
100
AcDbPoint
 10
-214.91485230427
 20
-12.61464852898895
 30
0.0
  0
POINT
  5
59
330
1F
100
AcDbEntity
  8
1
 62
     3
 60
     1
100
AcDbPoint
 10
-202.91485230427
 20
-12.61464852898895
 30
0.0
  0
POINT
  5
5A
330
1F
100
AcDbEntity
  8
1
 62
     3
 60
     1
100
AcDbPoint
 10
-226.91485230427
 20
-12.61464852898895
 30
0.0
  0
POINT
  5
5B
330
1F
100
AcDbEntity
  8
1
 62
     3
 60
     1
100
AcDbPoint
 10
-214.91485230427
 20
-28.61464852898895
 30
0.0
  0
POINT
  5
5C
330
1F
100
AcDbEntity
  8
1
 62
     3
 60
     1
100
AcDbPoint
 10
-226.91485230427
 20
-28.61464852898895
 30
0.0
  0
POINT
  5
5D
330
1F
100
AcDbEntity
  8
1
 62
     3
 60
     1
100
AcDbPoint
 10
-202.91485230427
 20
-28.61464852898895
 30
0.0
  0
POINT
  5
5E
330
1F
100
AcDbEntity
  8
1
 62
     3
 60
     1
100
AcDbPoint
 10
-142.8573326447174
 20
-40.61464852898895
 30
0.0
  0
POINT
  5
5F
330
1F
100
AcDbEntity
  8
1
 62
     3
 60
     1
100
AcDbPoint
 10
168.2856570446656
 20
-12.61464852898895
 30
0.0
  0
POINT
  5
60
330
1F
100
AcDbEntity
  8
1
 62
     3
 60
     1
100
AcDbPoint
 10
168.2856570446656
 20
-28.61464852898895
 30
0.0
  0
POINT
  5
61
330
1F
100
AcDbEntity
  8
1
 62
     3
 60
     1
100
AcDbPoint
 10
156.2856570446656
 20
-28.61464852898895
 30
0.0
  0
POINT
  5
62
330
1F
100
AcDbEntity
  8
1
 62
     3
 60
     1
100
AcDbPoint
 10
156.2856570446656
 20
-12.61464852898895
 30
0.0
  0
POINT
  5
63
330
1F
100
AcDbEntity
  8
1
 62
     3
 60
     1
100
AcDbPoint
 10
180.2856570446656
 20
-28.61464852898895
 30
0.0
  0
POINT
  5
64
330
1F
100
AcDbEntity
  8
1
 62
     3
 60
     1
100
AcDbPoint
 10
180.2856570446656
 20
-12.61464852898895
 30
0.0
  0
POINT
  5
65
330
1F
100
AcDbEntity
  8
1
 62
     3
 60
     1
100
AcDbPoint
 10
101.5723235509378
 20
-0.61464852898895
 30
0.0
  0
POINT
  5
66
330
1F
100
AcDbEntity
  8
1
 62
     3
 60
     1
100
AcDbPoint
 10
112.5723235509378
 20
-40.61464852898895
 30
0.0
  0
POINT
  5
67
330
1F
100
AcDbEntity
  8
1
 62
     3
 60
     1
100
AcDbPoint
 10
101.5723235509378
 20
-40.61464852898895
 30
0.0
  0
POINT
  5
68
330
1F
100
AcDbEntity
  8
1
 62
     3
 60
     1
100
AcDbPoint
 10
46.83123967983064
 20
-64.68918859156351
 30
0.0
  0
POINT
  5
69
330
1F
100
AcDbEntity
  8
1
 62
     3
 60
     1
100
AcDbPoint
 10
56.83123967983067
 20
-88.68918859156352
 30
0.0
  0
POINT
  5
6A
330
1F
100
AcDbEntity
  8
1
 62
     3
 60
     1
100
AcDbPoint
 10
-157.8573326447174
 20
-0.61464852898895
 30
0.0
  0
POINT
  5
6B
330
1F
100
AcDbEntity
  8
1
 62
     3
 60
     1
100
AcDbPoint
 10
-157.8573326447174
 20
-40.61464852898895
 30
0.0
  0
POINT
  5
6C
330
1F
100
AcDbEntity
  8
1
 62
     3
 60
     1
100
AcDbPoint
 10
-208.4148523042701
 20
-86.61464852898895
 30
0.0
  0
POINT
  5
6D
330
1F
100
AcDbEntity
  8
1
 62
     3
 60
     1
100
AcDbPoint
 10
-208.41485230427
 20
-74.573429064366
 30
0.0
  0
POINT
  5
6E
330
1F
100
AcDbEntity
  8
1
 62
     3
 60
     1
100
AcDbPoint
 10
-208.41485230427
 20
-98.573429064366
 30
0.0
  0
POINT
  5
6F
330
1F
100
AcDbEntity
  8
1
 62
     3
 60
     1
100
AcDbPoint
 10
171.2856570446657
 20
-86.61464852898895
 30
0.0
  0
POINT
  5
70
330
1F
100
AcDbEntity
  8
1
 62
     3
 60
     1
100
AcDbPoint
 10
161.7856570446657
 20
-74.573429064366
 30
0.0
  0
POINT
  5
71
330
1F
100
AcDbEntity
  8
1
 62
     3
 60
     1
100
AcDbPoint
 10
161.7856570446657
 20
-98.573429064366
 30
0.0
  0
LINE
  5
72
330
1F
100
AcDbEntity
  8
1
  6
DOT_CENTER
 62
     2
100
AcDbLine
 10
152.0
 20
-20.61464852898896
 30
0.0
 11
186.7883995496208
 21
-20.61464852898896
 31
0.0
  0
LINE
  5
73
330
1F
100
AcDbEntity
  8
1
  6
DOT_CENTER
 62
     2
100
AcDbLine
 10
168.2856570446656
 20
2.79802837599135
 30
0.0
 11
168.2856570446656
 21
-43.20197162400865
 31
0.0
  0
LINE
  5
74
330
1F
100
AcDbEntity
  8
1
  6
DOT_CENTER
 62
     2
100
AcDbLine
 10
-214.91485230427
 20
2.63033987256614
 30
0.0
 11
-214.91485230427
 21
-43.36966012743386
 31
0.0
  0
LINE
  5
75
330
1F
100
AcDbEntity
  8
1
  6
PHANTOM
 62
     2
100
AcDbLine
 10
-4.66876032016929
 20
-74.68918859156351
 30
0.0
 11
-4.66876032016924
 21
-88.6891885915635
 31
0.0
  0
LINE
  5
76
330
1F
100
AcDbEntity
  8
1
  6
Continuous
 62
     7
100
AcDbLine
 10
12.83123967983067
 20
-60.68918859156356
 30
0.0
 11
12.8312396798307
 21
-52.68918859156351
 31
0.0
  0
LINE
  5
77
330
1F
100
AcDbEntity
  8
1
  6
Continuous
 62
     7
100
AcDbLine
 10
12.83123967983048
 20
-88.68918859156331
 30
0.0
 11
12.83123967983067
 21
-60.68918859156356
 31
0.0
  0
LINE
  5
78
330
1F
100
AcDbEntity
  8
1
  6
PHANTOM
 62
     2
100
AcDbLine
 10
56.83123967983067
 20
-94.46491919866698
 30
0.0
 11
56.83123967983067
 21
-92.68918859156351
 31
0.0
  0
LINE
  5
79
330
1F
100
AcDbEntity
  8
1
  6
PHANTOM
 62
     2
100
AcDbLine
 10
56.83123967983067
 20
-52.68918859156351
 30
0.0
 11
56.83123967983067
 21
-50.68471859187277
 31
0.0
  0
LINE
  5
7A
330
1F
100
AcDbEntity
  8
1
  6
Continuous
 62
     7
100
AcDbLine
 10
12.8312396798307
 20
-52.68918859156351
 30
0.0
 11
56.83123967983067
 21
-52.68918859156351
 31
0.0
  0
LINE
  5
7B
330
1F
100
AcDbEntity
  8
1
  6
Continuous
 62
     7
100
AcDbLine
 10
12.83123967983048
 20
-92.68918859156351
 30
0.0
 11
12.83123967983048
 21
-88.68918859156331
 31
0.0
  0
LINE
  5
7C
330
1F
100
AcDbEntity
  8
1
  6
PHANTOM
 62
     2
100
AcDbLine
 10
56.83123967983067
 20
-92.68918859156351
 30
0.0
 11
56.83123967983067
 21
-88.68918859156352
 31
0.0
  0
LINE
  5
7D
330
1F
100
AcDbEntity
  8
1
  6
Continuous
 62
     7
100
AcDbLine
 10
56.83123967983067
 20
-92.68918859156351
 30
0.0
 11
12.83123967983048
 21
-92.68918859156351
 31
0.0
  0
LINE
  5
7E
330
1F
100
AcDbEntity
  8
1
  6
Continuous
 62
     7
100
AcDbLine
 10
22.83123967983047
 20
-88.68918859156332
 30
0.0
 11
46.83123967983045
 21
-88.68918859156352
 31
0.0
  0
LINE
  5
7F
330
1F
100
AcDbEntity
  8
1
  6
DOT_CENTER
 62
     2
100
AcDbLine
 10
51.78744366190571
 20
-74.68918859156327
 30
0.0
 11
11.14973931352895
 21
-74.68918859156327
 31
0.0
  0
LINE
  5
80
330
1F
100
AcDbEntity
  8
1
  6
Continuous
 62
     7
100
AcDbLine
 10
-0.66876032016929
 20
-74.68918859156351
 30
0.0
 11
-0.66876032016941
 21
-60.68918859156349
 31
0.0
  0
LINE
  5
81
330
1F
100
AcDbEntity
  8
1
  6
Continuous
 62
     7
100
AcDbLine
 10
-22.16876032016926
 20
-74.68918859156351
 30
0.0
 11
-0.66876032016929
 21
-74.68918859156351
 31
0.0
  0
LINE
  5
82
330
1F
100
AcDbEntity
  8
1
  6
Continuous
 62
     7
100
AcDbLine
 10
-68.66876032016924
 20
-74.6891885915635
 30
0.0
 11
-68.66876032016924
 21
-92.68918859156351
 31
0.0
  0
LINE
  5
83
330
1F
100
AcDbEntity
  8
1
  6
Continuous
 62
     7
100
AcDbLine
 10
-68.66876032016924
 20
-74.6891885915635
 30
0.0
 11
-52.16876032016926
 21
-74.68918859156359
 31
0.0
  0
LINE
  5
84
330
1F
100
AcDbEntity
  8
1
  6
DOT_CENTER
 62
     2
100
AcDbLine
 10
-0.66876032016936
 20
-1.12367182724054
 30
0.0
 11
-3.3784462129162
 21
-1.12367182724053
 31
0.0
  0
LINE
  5
85
330
1F
100
AcDbEntity
  8
1
  6
Continuous
 62
     7
100
AcDbLine
 10
-0.66876032016941
 20
-60.68918859156349
 30
0.0
 11
-0.66876032016936
 21
-1.12367182724054
 31
0.0
  0
LINE
  5
86
330
1F
100
AcDbEntity
  8
1
  6
DOT_CENTER
 62
     2
100
AcDbLine
 10
-212.91485230427
 20
79.385351471011
 30
0.0
 11
-188.91485230427
 21
79.385351471011
 31
0.0
  0
LINE
  5
87
330
1F
100
AcDbEntity
  8
1
  6
DASHED
 62
     2
100
AcDbLine
 10
-212.91485230427
 20
59.38535147101105
 30
0.0
 11
-212.91485230427
 21
79.385351471011
 31
0.0
  0
LINE
  5
88
330
1F
100
AcDbEntity
  8
1
  6
DOT_CENTER
 62
     2
100
AcDbLine
 10
-212.91485230427
 20
-120.614648528989
 30
0.0
 11
-188.91485230427
 21
-120.614648528989
 31
0.0
  0
LINE
  5
89
330
1F
100
AcDbEntity
  8
1
  6
DASHED
 62
     2
100
AcDbLine
 10
-212.91485230427
 20
-100.3163184076297
 30
0.0
 11
-212.91485230427
 21
-100.614648528989
 31
0.0
  0
LINE
  5
8A
330
1F
100
AcDbEntity
  8
1
  6
Continuous
 62
     7
100
AcDbLine
 10
-212.9148523042699
 20
16.38535147101105
 30
0.0
 11
-212.91485230427
 21
59.38535147101105
 31
0.0
  0
LINE
  5
8B
330
1F
100
AcDbEntity
  8
1
  6
Continuous
 62
     7
100
AcDbLine
 10
-212.91485230427
 20
-55.61464852898895
 30
0.0
 11
-212.9148523042699
 21
16.38535147101105
 31
0.0
  0
LINE
  5
8C
330
1F
100
AcDbEntity
  8
1
  6
Continuous
 62
     7
100
AcDbLine
 10
-212.91485230427
 20
-100.614648528989
 30
0.0
 11
-212.91485230427
 21
-55.61464852898895
 31
0.0
  0
LINE
  5
8D
330
1F
100
AcDbEntity
  8
1
  6
DOT_CENTER
 62
     2
100
AcDbLine
 10
-228.6339311914812
 20
45.38535147101105
 30
0.0
 11
-226.91485230427
 21
45.38535147101105
 31
0.0
  0
LINE
  5
8E
330
1F
100
AcDbEntity
  8
1
  6
DOT_CENTER
 62
     2
100
AcDbLine
 10
-196.204563032309
 20
-86.61464852898895
 30
0.0
 11
-198.91485230427
 21
-86.61464852898895
 31
0.0
  0
LINE
  5
8F
330
1F
100
AcDbEntity
  8
1
  6
Continuous
 62
     7
100
AcDbLine
 10
-230.91485230427
 20
-55.61464852898895
 30
0.0
 11
-230.91485230427
 21
-120.614648528989
 31
0.0
  0
LINE
  5
90
330
1F
100
AcDbEntity
  8
1
  6
Continuous
 62
     7
100
AcDbLine
 10
-226.91485230427
 20
-55.61464852898895
 30
0.0
 11
-226.91485230427
 21
-77.1146485289887
 31
0.0
  0
LINE
  5
91
330
1F
100
AcDbEntity
  8
1
  6
Continuous
 62
     7
100
AcDbLine
 10
-188.91485230427
 20
-55.61464852898895
 30
0.0
 11
-188.91485230427
 21
-120.614648528989
 31
0.0
  0
LINE
  5
92
330
1F
100
AcDbEntity
  8
1
  6
Continuous
 62
     7
100
AcDbLine
 10
-159.8573326447174
 20
-55.61464852898895
 30
0.0
 11
-159.8573326447174
 21
-120.614648528989
 31
0.0
  0
LINE
  5
93
330
1F
100
AcDbEntity
  8
1
  6
Continuous
 62
     7
100
AcDbLine
 10
-142.8573326447174
 20
-55.61464852898895
 30
0.0
 11
-142.8573326447174
 21
-100.614648528989
 31
0.0
  0
LINE
  5
94
330
1F
100
AcDbEntity
  8
1
  6
Continuous
 62
     7
100
AcDbLine
 10
-111.3573326447174
 20
-55.61464852898895
 30
0.0
 11
-111.3573326447174
 21
-100.614648528989
 31
0.0
  0
LINE
  5
95
330
1F
100
AcDbEntity
  8
1
  6
Continuous
 62
     7
100
AcDbLine
 10
-98.35733264471739
 20
-55.61464852898895
 30
0.0
 11
-98.35733264471739
 21
79.385351471011
 31
0.0
  0
LINE
  5
96
330
1F
100
AcDbEntity
  8
1
  6
Continuous
 62
     7
100
AcDbLine
 10
-111.3573326447174
 20
14.38535147101105
 30
0.0
 11
-111.3573326447174
 21
-55.61464852898895
 31
0.0
  0
LINE
  5
97
330
1F
100
AcDbEntity
  8
1
  6
Continuous
 62
     7
100
AcDbLine
 10
-142.8573326447174
 20
16.38535147101105
 30
0.0
 11
-142.8573326447174
 21
-0.61464852898895
 31
0.0
  0
LINE
  5
98
330
1F
100
AcDbEntity
  8
1
  6
Continuous
 62
     7
100
AcDbLine
 10
-188.91485230427
 20
16.38535147101104
 30
0.0
 11
-188.91485230427
 21
-55.61464852898895
 31
0.0
  0
LINE
  5
99
330
1F
100
AcDbEntity
  8
1
  6
Continuous
 62
     7
100
AcDbLine
 10
-226.91485230427
 20
16.38535147101105
 30
0.0
 11
-226.91485230427
 21
-12.61464852898895
 31
0.0
  0
LINE
  5
9A
330
1F
100
AcDbEntity
  8
1
  6
Continuous
 62
     7
100
AcDbLine
 10
-230.91485230427
 20
16.38535147101105
 30
0.0
 11
-230.91485230427
 21
-55.61464852898895
 31
0.0
  0
LINE
  5
9B
330
1F
100
AcDbEntity
  8
1
  6
Continuous
 62
     7
100
AcDbLine
 10
-0.66876032016941
 20
-60.68918859156349
 30
0.0
 11
9.33123967983076
 21
-60.68918859156354
 31
0.0
  0
LINE
  5
9C
330
1F
100
AcDbEntity
  8
1
  6
Continuous
 62
     7
100
AcDbLine
 10
-0.66876032016924
 20
-88.6891885915635
 30
0.0
 11
-22.16876032016922
 21
-88.68918859156351
 31
0.0
  0
LINE
  5
9D
330
1F
100
AcDbEntity
  8
1
  6
Continuous
 62
     7
100
AcDbLine
 10
-0.66876032016924
 20
-88.6891885915635
 30
0.0
 11
-0.66876032016929
 21
-74.68918859156351
 31
0.0
  0
LINE
  5
9E
330
1F
100
AcDbEntity
  8
1
  6
Continuous
 62
     7
100
AcDbLine
 10
-111.3573326447174
 20
-100.614648528989
 30
0.0
 11
-111.3573326447174
 21
-120.614648528989
 31
0.0
  0
LINE
  5
9F
330
1F
100
AcDbEntity
  8
1
  6
Continuous
 62
     7
100
AcDbLine
 10
-142.8573326447174
 20
-100.614648528989
 30
0.0
 11
-121.3573326447174
 21
-100.614648528989
 31
0.0
  0
LINE
  5
A0
330
1F
100
AcDbEntity
  8
1
  6
Continuous
 62
     7
100
AcDbLine
 10
-142.8573326447174
 20
59.38535147101106
 30
0.0
 11
-142.8573326447174
 21
16.38535147101105
 31
0.0
  0
LINE
  5
A1
330
1F
100
AcDbEntity
  8
1
  6
Continuous
 62
     7
100
AcDbLine
 10
-111.3573326447174
 20
59.38535147101105
 30
0.0
 11
-111.3573326447174
 21
14.38535147101105
 31
0.0
  0
LINE
  5
A2
330
1F
100
AcDbEntity
  8
1
  6
Continuous
 62
     7
100
AcDbLine
 10
-111.3573326447174
 20
59.38535147101105
 30
0.0
 11
-121.3573326447174
 21
59.38535147101105
 31
0.0
  0
LINE
  5
A3
330
1F
100
AcDbEntity
  8
1
  6
DOT_CENTER
 62
     2
100
AcDbLine
 10
-111.3573326447174
 20
-120.614648528989
 30
0.0
 11
-98.35733264471739
 21
-120.614648528989
 31
0.0
  0
LINE
  5
A4
330
1F
100
AcDbEntity
  8
1
  6
Continuous
 62
     7
100
AcDbLine
 10
-111.3573326447174
 20
79.385351471011
 30
0.0
 11
-111.3573326447174
 21
59.38535147101105
 31
0.0
  0
LINE
  5
A5
330
1F
100
AcDbEntity
  8
1
  6
DOT_CENTER
 62
     2
100
AcDbLine
 10
-98.35733264471739
 20
-120.614648528989
 30
0.0
 11
-93.84744871881927
 21
-120.614648528989
 31
0.0
  0
LINE
  5
A6
330
1F
100
AcDbEntity
  8
1
  6
DOT_CENTER
 62
     2
100
AcDbLine
 10
-111.3573326447174
 20
79.385351471011
 30
0.0
 11
-98.35733264471739
 21
79.385351471011
 31
0.0
  0
LINE
  5
A7
330
1F
100
AcDbEntity
  8
1
  6
Continuous
 62
     7
100
AcDbLine
 10
-98.35733264471739
 20
-120.614648528989
 30
0.0
 11
-98.35733264471739
 21
-55.61464852898895
 31
0.0
  0
LINE
  5
A8
330
1F
100
AcDbEntity
  8
1
  6
DOT_CENTER
 62
     2
100
AcDbLine
 10
-159.8573326447174
 20
-120.614648528989
 30
0.0
 11
-121.3573326447174
 21
-120.614648528989
 31
0.0
  0
LINE
  5
A9
330
1F
100
AcDbEntity
  8
1
  6
DOT_CENTER
 62
     2
100
AcDbLine
 10
-159.8573326447174
 20
79.385351471011
 30
0.0
 11
-121.3573326447174
 21
79.385351471011
 31
0.0
  0
LINE
  5
AA
330
1F
100
AcDbEntity
  8
1
  6
Continuous
 62
     7
100
AcDbLine
 10
-159.8573326447174
 20
79.385351471011
 30
0.0
 11
-159.8573326447174
 21
16.38535147101105
 31
0.0
  0
LINE
  5
AB
330
1F
100
AcDbEntity
  8
1
  6
DOT_CENTER
 62
     2
100
AcDbLine
 10
-162.619084989988
 20
-120.614648528989
 30
0.0
 11
-159.8573326447174
 21
-120.614648528989
 31
0.0
  0
LINE
  5
AC
330
1F
100
AcDbEntity
  8
1
  6
DOT_CENTER
 62
     2
100
AcDbLine
 10
-163.5
 20
-20.61464852898895
 30
0.0
 11
-88.84744871881921
 21
-20.61464852898895
 31
0.0
  0
LINE
  5
AD
330
1F
100
AcDbEntity
  8
1
  6
DOT_CENTER
 62
     2
100
AcDbLine
 10
-162.619084989988
 20
79.385351471011
 30
0.0
 11
-159.8573326447174
 21
79.385351471011
 31
0.0
  0
LINE
  5
AE
330
1F
100
AcDbEntity
  8
1
  6
DOT_CENTER
 62
     2
100
AcDbLine
 10
-188.91485230427
 20
-120.614648528989
 30
0.0
 11
-184.542986787847
 21
-120.614648528989
 31
0.0
  0
LINE
  5
AF
330
1F
100
AcDbEntity
  8
1
  6
DOT_CENTER
 62
     2
100
AcDbLine
 10
-188.91485230427
 20
79.385351471011
 30
0.0
 11
-168.349335539947
 21
79.385351471011
 31
0.0
  0
LINE
  5
B0
330
1F
100
AcDbEntity
  8
1
  6
Continuous
 62
     7
100
AcDbLine
 10
-188.91485230427
 20
79.385351471011
 30
0.0
 11
-188.91485230427
 21
16.38535147101104
 31
0.0
  0
LINE
  5
B1
330
1F
100
AcDbEntity
  8
1
  6
DOT_CENTER
 62
     2
100
AcDbLine
 10
-230.91485230427
 20
-120.614648528989
 30
0.0
 11
-212.91485230427
 21
-120.614648528989
 31
0.0
  0
LINE
  5
B2
330
1F
100
AcDbEntity
  8
1
  6
DOT_CENTER
 62
     2
100
AcDbLine
 10
-230.91485230427
 20
79.385351471011
 30
0.0
 11
-212.91485230427
 21
79.385351471011
 31
0.0
  0
LINE
  5
B3
330
1F
100
AcDbEntity
  8
1
  6
Continuous
 62
     7
100
AcDbLine
 10
-230.91485230427
 20
79.385351471011
 30
0.0
 11
-230.91485230427
 21
16.38535147101105
 31
0.0
  0
LINE
  5
B4
330
1F
100
AcDbEntity
  8
1
  6
DOT_CENTER
 62
     2
100
AcDbLine
 10
-168.349335539947
 20
79.385351471011
 30
0.0
 11
-168.349335539947
 21
81.77063309968568
 31
0.0
  0
LINE
  5
B5
330
1F
100
AcDbEntity
  8
1
  6
DOT_CENTER
 62
     2
100
AcDbLine
 10
-168.349335539947
 20
-120.614648528989
 30
0.0
 11
-168.349335539947
 21
-123.894846638247
 31
0.0
  0
LINE
  5
B6
330
1F
100
AcDbEntity
  8
1
  6
DOT_CENTER
 62
     2
100
AcDbLine
 10
-168.349335539947
 20
-120.614648528989
 30
0.0
 11
-165.3938869162998
 21
-120.614648528989
 31
0.0
  0
LINE
  5
B7
330
1F
100
AcDbEntity
  8
1
  6
DOT_CENTER
 62
     2
100
AcDbLine
 10
-168.349335539947
 20
79.385351471011
 30
0.0
 11
-165.3938869162998
 21
79.385351471011
 31
0.0
  0
LINE
  5
B8
330
1F
100
AcDbEntity
  8
1
  6
DOT_CENTER
 62
     2
100
AcDbLine
 10
-168.349335539947
 20
79.385351471011
 30
0.0
 11
-168.349335539947
 21
-120.614648528989
 31
0.0
  0
LINE
  5
B9
330
1F
100
AcDbEntity
  8
1
  6
DOT_CENTER
 62
     2
100
AcDbLine
 10
-233.6556346287789
 20
-120.614648528989
 30
0.0
 11
-230.91485230427
 21
-120.614648528989
 31
0.0
  0
LINE
  5
BA
330
1F
100
AcDbEntity
  8
1
  6
DOT_CENTER
 62
     2
100
AcDbLine
 10
-233.6556346287789
 20
79.385351471011
 30
0.0
 11
-230.91485230427
 21
79.385351471011
 31
0.0
  0
LINE
  5
BB
330
1F
100
AcDbEntity
  8
1
  6
Continuous
 62
     7
100
AcDbLine
 10
9.33123967983076
 20
-92.68918859156351
 30
0.0
 11
-68.66876032016924
 21
-92.68918859156351
 31
0.0
  0
LINE
  5
BC
330
1F
100
AcDbEntity
  8
1
  6
Continuous
 62
     7
100
AcDbLine
 10
9.33123967983076
 20
-88.68918859156351
 30
0.0
 11
9.33123967983076
 21
-92.68918859156351
 31
0.0
  0
LINE
  5
BD
330
1F
100
AcDbEntity
  8
1
  6
DOT_CENTER
 62
     2
100
AcDbLine
 10
22.33123967983078
 20
-1.12367182724053
 30
0.0
 11
-0.66876032016936
 21
-1.12367182724054
 31
0.0
  0
LINE
  5
BE
330
1F
100
AcDbEntity
  8
1
  6
Continuous
 62
     7
100
AcDbLine
 10
22.33123967983078
 20
-47.68918859156351
 30
0.0
 11
22.33123967983078
 21
-1.12367182724053
 31
0.0
  0
LINE
  5
BF
330
1F
100
AcDbEntity
  8
1
  6
Continuous
 62
     7
100
AcDbLine
 10
9.33123967983065
 20
-47.68918859156351
 30
0.0
 11
22.33123967983078
 21
-47.68918859156351
 31
0.0
  0
LINE
  5
C0
330
1F
100
AcDbEntity
  8
1
  6
Continuous
 62
     7
100
AcDbLine
 10
9.33123967983076
 20
-60.68918859156354
 30
0.0
 11
9.33123967983065
 21
-47.68918859156351
 31
0.0
  0
LINE
  5
C1
330
1F
100
AcDbEntity
  8
1
  6
Continuous
 62
     7
100
AcDbLine
 10
-22.16876032016922
 20
-88.68918859156351
 30
0.0
 11
-22.16876032016926
 21
-74.68918859156351
 31
0.0
  0
LINE
  5
C2
330
1F
100
AcDbEntity
  8
1
  6
Continuous
 62
     7
100
AcDbLine
 10
9.33123967983076
 20
-60.68918859156354
 30
0.0
 11
9.33123967983076
 21
-88.68918859156351
 31
0.0
  0
LINE
  5
C3
330
1F
100
AcDbEntity
  8
1
  6
Continuous
 62
     7
100
AcDbLine
 10
9.33123967983076
 20
-88.68918859156351
 30
0.0
 11
-0.66876032016924
 21
-88.6891885915635
 31
0.0
  0
LINE
  5
C4
330
1F
100
AcDbEntity
  8
1
  6
Continuous
 62
     2
100
AcDbLine
 10
10.33123967983076
 20
-49.42123939913243
 30
0.0
 11
10.33123967983076
 21
-48.68918859156351
 31
0.0
  0
LINE
  5
C5
330
1F
100
AcDbEntity
  8
1
  6
Continuous
 62
     2
100
AcDbLine
 10
11.64064075658916
 20
-51.68918859156351
 30
0.0
 11
10.33123967983076
 21
-49.42123939913243
 31
0.0
  0
LINE
  5
C6
330
1F
100
AcDbEntity
  8
1
  6
Continuous
 62
     2
100
AcDbLine
 10
20.02183860307224
 20
-51.68918859156351
 30
0.0
 11
11.64064075658916
 21
-51.68918859156351
 31
0.0
  0
LINE
  5
C7
330
1F
100
AcDbEntity
  8
1
  6
Continuous
 62
     2
100
AcDbLine
 10
21.33123967983078
 20
-49.42123939913243
 30
0.0
 11
20.02183860307224
 21
-51.68918859156351
 31
0.0
  0
LINE
  5
C8
330
1F
100
AcDbEntity
  8
1
  6
Continuous
 62
     2
100
AcDbLine
 10
21.33123967983078
 20
-48.68918859156351
 30
0.0
 11
21.33123967983078
 21
-49.42123939913243
 31
0.0
  0
LINE
  5
C9
330
1F
100
AcDbEntity
  8
1
  6
Continuous
 62
     2
100
AcDbLine
 10
10.33123967983076
 20
-48.68918859156351
 30
0.0
 11
21.33123967983078
 21
-48.68918859156351
 31
0.0
  0
LINE
  5
CA
330
1F
100
AcDbEntity
  8
1
  6
Continuous
 62
     2
100
AcDbLine
 10
22.33123967983078
 20
-49.68918859156351
 30
0.0
 11
22.33123967983078
 21
-47.68918859156351
 31
0.0
  0
LINE
  5
CB
330
1F
100
AcDbEntity
  8
1
  6
Continuous
 62
     2
100
AcDbLine
 10
20.59918887226189
 20
-52.68918859156351
 30
0.0
 11
22.33123967983078
 21
-49.68918859156351
 31
0.0
  0
LINE
  5
CC
330
1F
100
AcDbEntity
  8
1
  6
Continuous
 62
     2
100
AcDbLine
 10
11.06329048739954
 20
-52.68918859156351
 30
0.0
 11
12.8312396798307
 21
-52.68918859156351
 31
0.0
  0
LINE
  5
CD
330
1F
100
AcDbEntity
  8
1
  6
Continuous
 62
     2
100
AcDbLine
 10
9.33123967983076
 20
-49.68918859156351
 30
0.0
 11
11.06329048739954
 21
-52.68918859156351
 31
0.0
  0
LINE
  5
CE
330
1F
100
AcDbEntity
  8
1
  6
DOT_CENTER
 62
     2
100
AcDbLine
 10
22.33123967983078
 20
-1.12367182724053
 30
0.0
 11
24.4310199439095
 21
-1.12367182724053
 31
0.0
  0
LINE
  5
CF
330
1F
100
AcDbEntity
  8
1
  6
Continuous
 62
     7
100
AcDbLine
 10
-226.91485230427
 20
-20.61464852898895
 30
0.0
 11
-226.91485230427
 21
-28.61464852898895
 31
0.0
  0
LINE
  5
D0
330
1F
100
AcDbEntity
  8
1
  6
Continuous
 62
     7
100
AcDbLine
 10
-198.91485230427
 20
45.38535147101105
 30
0.0
 11
-198.9148523042699
 21
16.38535147101105
 31
0.0
  0
LINE
  5
D1
330
1F
100
AcDbEntity
  8
1
  6
Continuous
 62
     7
100
AcDbLine
 10
-226.91485230427
 20
45.38535147101105
 30
0.0
 11
-226.91485230427
 21
16.38535147101105
 31
0.0
  0
LINE
  5
D2
330
1F
100
AcDbEntity
  8
1
  6
Continuous
 62
     7
100
AcDbLine
 10
-226.91485230427
 20
-77.1146485289887
 30
0.0
 11
-226.91485230427
 21
-86.61464852898895
 31
0.0
  0
LINE
  5
D3
330
1F
100
AcDbEntity
  8
1
  6
Continuous
 62
     7
100
AcDbLine
 10
-198.91485230427
 20
-77.11464852898868
 30
0.0
 11
-198.91485230427
 21
-84.6146485289892
 31
0.0
  0
LINE
  5
D4
330
1F
100
AcDbEntity
  8
1
  6
DOT_CENTER
 62
     2
100
AcDbLine
 10
-233.657794284912
 20
-20.61464852898895
 30
0.0
 11
-187.889135845402
 21
-20.61464852898895
 31
0.0
  0
LINE
  5
D5
330
1F
100
AcDbEntity
  8
1
  6
DOT_CENTER
 62
     2
100
AcDbLine
 10
-172.0
 20
-20.61464852898895
 30
0.0
 11
-165.3938869162998
 21
-20.61464852898895
 31
0.0
  0
LINE
  5
D6
330
1F
100
AcDbEntity
  8
1
  6
Continuous
 62
     7
100
AcDbLine
 10
-121.3573326447174
 20
59.38535147101105
 30
0.0
 11
-121.3573326447174
 21
-100.614648528989
 31
0.0
  0
LINE
  5
D7
330
1F
100
AcDbEntity
  8
1
  6
Continuous
 62
     7
100
AcDbLine
 10
-121.3573326447174
 20
-100.614648528989
 30
0.0
 11
-111.3573326447174
 21
-100.614648528989
 31
0.0
  0
LINE
  5
D8
330
1F
100
AcDbEntity
  8
1
  6
Continuous
 62
     7
100
AcDbLine
 10
-121.3573326447174
 20
59.38535147101105
 30
0.0
 11
-142.8573326447174
 21
59.38535147101106
 31
0.0
  0
LINE
  5
D9
330
1F
100
AcDbEntity
  8
1
  6
DASHED
 62
     2
100
AcDbLine
 10
-121.3573326447174
 20
-100.614648528989
 30
0.0
 11
-121.3573326447174
 21
-120.614648528989
 31
0.0
  0
LINE
  5
DA
330
1F
100
AcDbEntity
  8
1
  6
DOT_CENTER
 62
     2
100
AcDbLine
 10
-121.3573326447174
 20
-120.614648528989
 30
0.0
 11
-111.3573326447174
 21
-120.614648528989
 31
0.0
  0
LINE
  5
DB
330
1F
100
AcDbEntity
  8
1
  6
DASHED
 62
     2
100
AcDbLine
 10
-121.3573326447174
 20
59.38535147101105
 30
0.0
 11
-121.3573326447174
 21
79.385351471011
 31
0.0
  0
LINE
  5
DC
330
1F
100
AcDbEntity
  8
1
  6
DOT_CENTER
 62
     2
100
AcDbLine
 10
-121.3573326447174
 20
79.385351471011
 30
0.0
 11
-111.3573326447174
 21
79.385351471011
 31
0.0
  0
LINE
  5
DD
330
1F
100
AcDbEntity
  8
1
  6
Continuous
 62
     2
100
AcDbLine
 10
-15.3596413448097
 20
16.7452352307269
 30
0.0
 11
-2.6758187227798
 21
-12.42226436097911
 31
0.0
  0
LINE
  5
DE
330
1F
100
AcDbEntity
  8
1
  6
Continuous
 62
     2
100
AcDbLine
 10
-15.3596413448097
 20
16.7452352307269
 30
0.0
 11
33.4762981686953
 21
16.7452352307269
 31
0.0
  0
LINE
  5
DF
330
1F
100
AcDbEntity
  8
1
  6
PHANTOM
 62
     2
100
AcDbLine
 10
-4.66876032016941
 20
-66.6891885915635
 30
0.0
 11
-4.66876032016929
 21
-74.68918859156351
 31
0.0
  0
LINE
  5
E0
330
1F
100
AcDbEntity
  8
1
  6
PHANTOM
 62
     2
100
AcDbLine
 10
-4.66876032016924
 20
-41.43918859156349
 30
0.0
 11
-4.66876032016941
 21
-66.6891885915635
 31
0.0
  0
LINE
  5
E1
330
1F
100
AcDbEntity
  8
1
  6
PHANTOM
 62
     2
100
AcDbLine
 10
-2.41876032016947
 20
-41.43918859156349
 30
0.0
 11
-2.41876032016947
 21
-35.93918859156349
 31
0.0
  0
LINE
  5
E2
330
1F
100
AcDbEntity
  8
1
  6
PHANTOM
 62
     2
100
AcDbLine
 10
-2.41876032016947
 20
-35.93918859156349
 30
0.0
 11
-4.66876032016947
 21
-33.68918859156349
 31
0.0
  0
LINE
  5
E3
330
1F
100
AcDbEntity
  8
1
  6
PHANTOM
 62
     2
100
AcDbLine
 10
-4.66876032016924
 20
-28.43918859156349
 30
0.0
 11
-4.66876032016947
 21
-35.93918859156349
 31
0.0
  0
LINE
  5
E4
330
1F
100
AcDbEntity
  8
1
  6
PHANTOM
 62
     2
100
AcDbLine
 10
-0.66876032016947
 20
-35.93918859156349
 30
0.0
 11
-2.41876032016947
 21
-35.93918859156349
 31
0.0
  0
LINE
  5
E5
330
1F
100
AcDbEntity
  8
1
  6
PHANTOM
 62
     2
100
AcDbLine
 10
-2.41876032016947
 20
-41.43918859156349
 30
0.0
 11
-4.66876032016947
 21
-43.68918859156349
 31
0.0
  0
LINE
  5
E6
330
1F
100
AcDbEntity
  8
1
  6
PHANTOM
 62
     2
100
AcDbLine
 10
-4.66876032016947
 20
-35.93918859156349
 30
0.0
 11
-4.66876032016924
 21
-41.43918859156349
 31
0.0
  0
LINE
  5
E7
330
1F
100
AcDbEntity
  8
1
  6
PHANTOM
 62
     2
100
AcDbLine
 10
-0.66876032016947
 20
-41.43918859156349
 30
0.0
 11
-2.41876032016947
 21
-41.43918859156349
 31
0.0
  0
LINE
  5
E8
330
1F
100
AcDbEntity
  8
1
  6
PHANTOM
 62
     2
100
AcDbLine
 10
0.83123967983065
 20
-38.68918859156349
 30
0.0
 11
-6.16876032016941
 21
-38.68918859156349
 31
0.0
  0
LINE
  5
E9
330
1F
100
AcDbEntity
  8
1
  6
PHANTOM
 62
     2
100
AcDbLine
 10
-2.41876032016947
 20
-28.43918859156349
 30
0.0
 11
-2.41876032016947
 21
-22.93918859156349
 31
0.0
  0
LINE
  5
EA
330
1F
100
AcDbEntity
  8
1
  6
PHANTOM
 62
     2
100
AcDbLine
 10
-2.41876032016947
 20
-22.93918859156349
 30
0.0
 11
-4.66876032016947
 21
-20.68918859156349
 31
0.0
  0
LINE
  5
EB
330
1F
100
AcDbEntity
  8
1
  6
PHANTOM
 62
     2
100
AcDbLine
 10
-4.66876032016941
 20
-8.68918859156349
 30
0.0
 11
-4.66876032016947
 21
-22.93918859156349
 31
0.0
  0
LINE
  5
EC
330
1F
100
AcDbEntity
  8
1
  6
PHANTOM
 62
     2
100
AcDbLine
 10
-0.66876032016947
 20
-22.93918859156349
 30
0.0
 11
-2.41876032016947
 21
-22.93918859156349
 31
0.0
  0
LINE
  5
ED
330
1F
100
AcDbEntity
  8
1
  6
PHANTOM
 62
     2
100
AcDbLine
 10
-2.41876032016947
 20
-28.43918859156349
 30
0.0
 11
-4.66876032016947
 21
-30.68918859156349
 31
0.0
  0
LINE
  5
EE
330
1F
100
AcDbEntity
  8
1
  6
PHANTOM
 62
     2
100
AcDbLine
 10
-4.66876032016947
 20
-22.93918859156349
 30
0.0
 11
-4.66876032016924
 21
-28.43918859156349
 31
0.0
  0
LINE
  5
EF
330
1F
100
AcDbEntity
  8
1
  6
PHANTOM
 62
     2
100
AcDbLine
 10
-0.66876032016947
 20
-28.43918859156349
 30
0.0
 11
-2.41876032016947
 21
-28.43918859156349
 31
0.0
  0
LINE
  5
F0
330
1F
100
AcDbEntity
  8
1
  6
PHANTOM
 62
     2
100
AcDbLine
 10
0.83123967983065
 20
-25.68918859156349
 30
0.0
 11
-6.16876032016941
 21
-25.68918859156349
 31
0.0
  0
LINE
  5
F1
330
1F
100
AcDbEntity
  8
1
  6
PHANTOM
 62
     2
100
AcDbLine
 10
3.83123967983065
 20
-82.1891885915635
 30
0.0
 11
-9.16876032016941
 21
-82.1891885915635
 31
0.0
  0
LINE
  5
F2
330
1F
100
AcDbEntity
  8
1
  6
PHANTOM
 62
     2
100
AcDbLine
 10
-0.66876032016941
 20
-85.1891885915635
 30
0.0
 11
-4.66876032016941
 21
-85.1891885915635
 31
0.0
  0
LINE
  5
F3
330
1F
100
AcDbEntity
  8
1
  6
PHANTOM
 62
     2
100
AcDbLine
 10
-0.66876032016941
 20
-79.18918859156355
 30
0.0
 11
-4.66876032016941
 21
-79.18918859156355
 31
0.0
  0
LINE
  5
F4
330
1F
100
AcDbEntity
  8
1
  6
PHANTOM
 62
     2
100
AcDbLine
 10
-0.66876032016941
 20
-84.58918859156347
 30
0.0
 11
-4.66876032016941
 21
-84.58918859156347
 31
0.0
  0
LINE
  5
F5
330
1F
100
AcDbEntity
  8
1
  6
PHANTOM
 62
     2
100
AcDbLine
 10
-0.66876032016941
 20
-79.78918859156346
 30
0.0
 11
-4.66876032016941
 21
-79.78918859156346
 31
0.0
  0
LINE
  5
F6
330
1F
100
AcDbEntity
  8
1
  6
PHANTOM
 62
     2
100
AcDbLine
 10
-0.66876032016941
 20
-8.68918859156349
 30
0.0
 11
-4.66876032016941
 21
-8.68918859156349
 31
0.0
  0
LINE
  5
F7
330
1F
100
AcDbEntity
  8
1
  6
PHANTOM
 62
     2
100
AcDbLine
 10
-0.66876032016941
 20
-70.1891885915635
 30
0.0
 11
-4.66876032016941
 21
-70.1891885915635
 31
0.0
  0
LINE
  5
F8
330
1F
100
AcDbEntity
  8
1
  6
PHANTOM
 62
     2
100
AcDbLine
 10
-0.66876032016941
 20
-64.1891885915635
 30
0.0
 11
-4.66876032016941
 21
-64.1891885915635
 31
0.0
  0
LINE
  5
F9
330
1F
100
AcDbEntity
  8
1
  6
PHANTOM
 62
     2
100
AcDbLine
 10
-0.66876032016941
 20
-69.58918859156347
 30
0.0
 11
-4.66876032016941
 21
-69.58918859156347
 31
0.0
  0
LINE
  5
FA
330
1F
100
AcDbEntity
  8
1
  6
PHANTOM
 62
     2
100
AcDbLine
 10
-0.66876032016941
 20
-64.7891885915634
 30
0.0
 11
-4.66876032016941
 21
-64.7891885915634
 31
0.0
  0
LINE
  5
FB
330
1F
100
AcDbEntity
  8
1
  6
PHANTOM
 62
     2
100
AcDbLine
 10
3.83123967983065
 20
-67.1891885915635
 30
0.0
 11
-9.16876032016941
 21
-67.1891885915635
 31
0.0
  0
LINE
  5
FC
330
1F
100
AcDbEntity
  8
1
  6
PHANTOM
 62
     2
100
AcDbLine
 10
-0.66876032016924
 20
-88.6891885915635
 30
0.0
 11
-0.66876032016941
 21
-71.68918859156383
 31
0.0
  0
LINE
  5
FD
330
1F
100
AcDbEntity
  8
1
  6
DOT_CENTER
 62
     2
100
AcDbLine
 10
11.25861881877267
 20
-74.68918859156337
 30
0.0
 11
-4.66876032016929
 21
-74.68918859156351
 31
0.0
  0
LINE
  5
FE
330
1F
100
AcDbEntity
  8
1
  6
DOT_CENTER
 62
     2
100
AcDbLine
 10
-98.35733264471739
 20
79.385351471011
 30
0.0
 11
-93.84744871881927
 21
79.385351471011
 31
0.0
  0
LINE
  5
FF
330
1F
100
AcDbEntity
  8
1
  6
Continuous
 62
     7
100
AcDbLine
 10
-198.9148523042699
 20
16.38535147101105
 30
0.0
 11
-198.9148523042699
 21
-59.61464852898895
 31
0.0
  0
LINE
  5
100
330
1F
100
AcDbEntity
  8
1
  6
Continuous
 62
     7
100
AcDbLine
 10
-198.9148523042699
 20
-59.61464852898895
 30
0.0
 11
-198.91485230427
 21
-77.11464852898868
 31
0.0
  0
LINE
  5
101
330
1F
100
AcDbEntity
  8
1
  6
DASHED
 62
     2
100
AcDbLine
 10
-212.91485230427
 20
-100.614648528989
 30
0.0
 11
-212.91485230427
 21
-120.614648528989
 31
0.0
  0
LINE
  5
102
330
1F
100
AcDbEntity
  8
1
  6
DOT_CENTER
 62
     2
100
AcDbLine
 10
-226.91485230427
 20
45.38535147101105
 30
0.0
 11
-198.91485230427
 21
45.38535147101105
 31
0.0
  0
LINE
  5
103
330
1F
100
AcDbEntity
  8
1
  6
DOT_CENTER
 62
     2
100
AcDbLine
 10
-198.91485230427
 20
45.38535147101105
 30
0.0
 11
-196.204563032309
 21
45.38535147101105
 31
0.0
  0
LINE
  5
104
330
1F
100
AcDbEntity
  8
1
  6
DOT_CENTER
 62
     2
100
AcDbLine
 10
156.5356570446656
 20
-89.61464852898895
 30
0.0
 11
161.0356570446656
 21
-89.61464852898895
 31
0.0
  0
LINE
  5
105
330
1F
100
AcDbEntity
  8
1
  6
DOT_CENTER
 62
     2
100
AcDbLine
 10
171.5356570446656
 20
-89.61464852898895
 30
0.0
 11
176.0356570446656
 21
-89.61464852898895
 31
0.0
  0
LINE
  5
106
330
1F
100
AcDbEntity
  8
1
  6
DOT_CENTER
 62
     2
100
AcDbLine
 10
173.7856570446656
 20
-91.86464852898901
 30
0.0
 11
173.7856570446656
 21
-87.36464852898895
 31
0.0
  0
LINE
  5
107
330
1F
100
AcDbEntity
  8
1
  6
DOT_CENTER
 62
     2
100
AcDbLine
 10
161.0356570446656
 20
48.38535147101105
 30
0.0
 11
156.5356570446656
 21
48.38535147101105
 31
0.0
  0
LINE
  5
108
330
1F
100
AcDbEntity
  8
1
  6
DOT_CENTER
 62
     2
100
AcDbLine
 10
158.7856570446656
 20
50.63535147101105
 30
0.0
 11
158.7856570446656
 21
46.13535147101105
 31
0.0
  0
LINE
  5
109
330
1F
100
AcDbEntity
  8
1
  6
DOT_CENTER
 62
     2
100
AcDbLine
 10
173.7856570446656
 20
46.13535147101105
 30
0.0
 11
173.7856570446656
 21
50.63535147101105
 31
0.0
  0
LINE
  5
10A
330
1F
100
AcDbEntity
  8
1
  6
DOT_CENTER
 62
     2
100
AcDbLine
 10
176.0356570446656
 20
48.38535147101105
 30
0.0
 11
171.5356570446656
 21
48.38535147101105
 31
0.0
  0
LINE
  5
10B
330
1F
100
AcDbEntity
  8
1
  6
Continuous
 62
     7
100
AcDbLine
 10
67.57232355093777
 20
-100.614648528989
 30
0.0
 11
67.57232355093777
 21
-57.61464852898895
 31
0.0
  0
LINE
  5
10C
330
1F
100
AcDbEntity
  8
1
  6
DOT_CENTER
 62
     2
100
AcDbLine
 10
112.5723235509378
 20
-120.614648528989
 30
0.0
 11
112.5723235509378
 21
-57.61464852898895
 31
0.0
  0
LINE
  5
10D
330
1F
100
AcDbEntity
  8
1
  6
Continuous
 62
     7
100
AcDbLine
 10
101.5723235509378
 20
-86.11464852898916
 30
0.0
 11
101.5723235509378
 21
-57.61464852898897
 31
0.0
  0
LINE
  5
10E
330
1F
100
AcDbEntity
  8
1
  6
Continuous
 62
     7
100
AcDbLine
 10
67.57232355093777
 20
-57.61464852898895
 30
0.0
 11
67.57232355093777
 21
16.38535147101105
 31
0.0
  0
LINE
  5
10F
330
1F
100
AcDbEntity
  8
1
  6
DOT_CENTER
 62
     2
100
AcDbLine
 10
112.5723235509378
 20
-57.61464852898895
 30
0.0
 11
112.5723235509378
 21
-40.61464852898895
 31
0.0
  0
LINE
  5
110
330
1F
100
AcDbEntity
  8
1
  6
Continuous
 62
     7
100
AcDbLine
 10
101.5723235509378
 20
-57.61464852898897
 30
0.0
 11
101.5723235509378
 21
-40.61464852898895
 31
0.0
  0
LINE
  5
111
330
1F
100
AcDbEntity
  8
1
  6
Continuous
 62
     7
100
AcDbLine
 10
144.2856570446656
 20
79.3853514710111
 30
0.0
 11
144.2856570446656
 21
16.38535147101106
 31
0.0
  0
LINE
  5
112
330
1F
100
AcDbEntity
  8
1
  6
Continuous
 62
     7
100
AcDbLine
 10
152.2856570446656
 20
-57.61464852898895
 30
0.0
 11
152.2856570446656
 21
16.38535147101105
 31
0.0
  0
LINE
  5
113
330
1F
100
AcDbEntity
  8
1
  6
Continuous
 62
     7
100
AcDbLine
 10
184.2856570446656
 20
79.3853514710111
 30
0.0
 11
184.2856570446656
 21
16.38535147101105
 31
0.0
  0
LINE
  5
114
330
1F
100
AcDbEntity
  8
1
  6
Continuous
 62
     7
100
AcDbLine
 10
180.2856570446656
 20
-57.61464852898895
 30
0.0
 11
180.2856570446656
 21
16.38535147101105
 31
0.0
  0
LINE
  5
115
330
1F
100
AcDbEntity
  8
1
  6
DOT_CENTER
 62
     2
100
AcDbLine
 10
184.2856570446656
 20
79.3853514710111
 30
0.0
 11
186.7883995496208
 21
79.3853514710111
 31
0.0
  0
LINE
  5
116
330
1F
100
AcDbEntity
  8
1
  6
DOT_CENTER
 62
     2
100
AcDbLine
 10
184.2856570446656
 20
-120.614648528989
 30
0.0
 11
186.7883995496208
 21
-120.614648528989
 31
0.0
  0
LINE
  5
117
330
1F
100
AcDbEntity
  8
1
  6
Continuous
 62
     7
100
AcDbLine
 10
184.2856570446656
 20
-57.61464852898895
 30
0.0
 11
184.2856570446656
 21
-120.614648528989
 31
0.0
  0
LINE
  5
118
330
1F
100
AcDbEntity
  8
1
  6
DOT_CENTER
 62
     2
100
AcDbLine
 10
144.2856570446656
 20
79.3853514710111
 30
0.0
 11
184.2856570446656
 21
79.3853514710111
 31
0.0
  0
LINE
  5
119
330
1F
100
AcDbEntity
  8
1
  6
DOT_CENTER
 62
     2
100
AcDbLine
 10
144.2856570446656
 20
-120.614648528989
 30
0.0
 11
184.2856570446656
 21
-120.614648528989
 31
0.0
  0
LINE
  5
11A
330
1F
100
AcDbEntity
  8
1
  6
Continuous
 62
     7
100
AcDbLine
 10
144.2856570446656
 20
-55.61464852898895
 30
0.0
 11
144.2856570446656
 21
-120.614648528989
 31
0.0
  0
LINE
  5
11B
330
1F
100
AcDbEntity
  8
1
  6
DOT_CENTER
 62
     2
100
AcDbLine
 10
142.1079838701278
 20
79.3853514710111
 30
0.0
 11
144.2856570446656
 21
79.3853514710111
 31
0.0
  0
LINE
  5
11C
330
1F
100
AcDbEntity
  8
1
  6
DOT_CENTER
 62
     2
100
AcDbLine
 10
135.1079838701278
 20
-120.614648528989
 30
0.0
 11
137.2856570446656
 21
-120.614648528989
 31
0.0
  0
LINE
  5
11D
330
1F
100
AcDbEntity
  8
1
  6
DOT_CENTER
 62
     2
100
AcDbLine
 10
107.5723235509378
 20
79.3853514710111
 30
0.0
 11
115.7114859630035
 21
79.3853514710111
 31
0.0
  0
LINE
  5
11E
330
1F
100
AcDbEntity
  8
1
  6
DOT_CENTER
 62
     2
100
AcDbLine
 10
67.57232355093777
 20
79.3853514710111
 30
0.0
 11
112.5723235509378
 21
79.3853514710111
 31
0.0
  0
LINE
  5
11F
330
1F
100
AcDbEntity
  8
1
  6
DOT_CENTER
 62
     2
100
AcDbLine
 10
64.88961460838436
 20
79.3853514710111
 30
0.0
 11
67.57232355093777
 21
79.3853514710111
 31
0.0
  0
LINE
  5
120
330
1F
100
AcDbEntity
  8
1
  6
DOT_CENTER
 62
     2
100
AcDbLine
 10
107.5723235509378
 20
-120.614648528989
 30
0.0
 11
115.7114859630035
 21
-120.614648528989
 31
0.0
  0
LINE
  5
121
330
1F
100
AcDbEntity
  8
1
  6
DOT_CENTER
 62
     2
100
AcDbLine
 10
67.57232355093777
 20
-120.614648528989
 30
0.0
 11
112.5723235509378
 21
-120.614648528989
 31
0.0
  0
LINE
  5
122
330
1F
100
AcDbEntity
  8
1
  6
DOT_CENTER
 62
     2
100
AcDbLine
 10
64.88961460838436
 20
-120.614648528989
 30
0.0
 11
67.57232355093777
 21
-120.614648528989
 31
0.0
  0
LINE
  5
123
330
1F
100
AcDbEntity
  8
1
  6
Continuous
 62
     7
100
AcDbLine
 10
67.57232355093777
 20
59.38535147101106
 30
0.0
 11
67.57232355093777
 21
79.3853514710111
 31
0.0
  0
LINE
  5
124
330
1F
100
AcDbEntity
  8
1
  6
Continuous
 62
     7
100
AcDbLine
 10
77.57232355093777
 20
59.38535147101106
 30
0.0
 11
67.57232355093777
 21
59.38535147101106
 31
0.0
  0
LINE
  5
125
330
1F
100
AcDbEntity
  8
1
  6
Continuous
 62
     7
100
AcDbLine
 10
67.57232355093777
 20
16.38535147101105
 30
0.0
 11
67.57232355093777
 21
59.38535147101106
 31
0.0
  0
LINE
  5
126
330
1F
100
AcDbEntity
  8
1
  6
Continuous
 62
     7
100
AcDbLine
 10
77.57232355093777
 20
44.88535147101106
 30
0.0
 11
77.57232355093777
 21
59.38535147101106
 31
0.0
  0
LINE
  5
127
330
1F
100
AcDbEntity
  8
1
  6
Continuous
 62
     7
100
AcDbLine
 10
101.5723235509378
 20
44.88535147101106
 30
0.0
 11
77.57232355093777
 21
44.88535147101106
 31
0.0
  0
LINE
  5
128
330
1F
100
AcDbEntity
  8
1
  6
Continuous
 62
     7
100
AcDbLine
 10
101.5723235509378
 20
16.38535147101105
 30
0.0
 11
101.5723235509378
 21
44.88535147101106
 31
0.0
  0
LINE
  5
129
330
1F
100
AcDbEntity
  8
1
  6
Continuous
 62
     7
100
AcDbLine
 10
77.57232355093777
 20
-86.11464852898924
 30
0.0
 11
101.5723235509378
 21
-86.11464852898916
 31
0.0
  0
LINE
  5
12A
330
1F
100
AcDbEntity
  8
1
  6
Continuous
 62
     7
100
AcDbLine
 10
77.57232355093777
 20
-100.614648528989
 30
0.0
 11
77.57232355093777
 21
-86.11464852898924
 31
0.0
  0
LINE
  5
12B
330
1F
100
AcDbEntity
  8
1
  6
Continuous
 62
     7
100
AcDbLine
 10
67.57232355093777
 20
-100.614648528989
 30
0.0
 11
77.57232355093777
 21
-100.614648528989
 31
0.0
  0
LINE
  5
12C
330
1F
100
AcDbEntity
  8
1
  6
Continuous
 62
     7
100
AcDbLine
 10
67.57232355093777
 20
-120.614648528989
 30
0.0
 11
67.57232355093777
 21
-100.614648528989
 31
0.0
  0
LINE
  5
12D
330
1F
100
AcDbEntity
  8
1
  6
DOT_CENTER
 62
     2
100
AcDbLine
 10
112.5723235509378
 20
16.38535147101105
 30
0.0
 11
112.5723235509378
 21
79.3853514710111
 31
0.0
  0
LINE
  5
12E
330
1F
100
AcDbEntity
  8
1
  6
DOT_CENTER
 62
     2
100
AcDbLine
 10
112.5723235509378
 20
-123.727582711116
 30
0.0
 11
112.5723235509378
 21
-120.614648528989
 31
0.0
  0
LINE
  5
12F
330
1F
100
AcDbEntity
  8
1
  6
DOT_CENTER
 62
     2
100
AcDbLine
 10
112.5723235509378
 20
81.428151340832
 30
0.0
 11
112.5723235509378
 21
79.3853514710111
 31
0.0
  0
LINE
  5
130
330
1F
100
AcDbEntity
  8
1
  6
DOT_CENTER
 62
     2
100
AcDbLine
 10
64.97950735310474
 20
-20.61464852898896
 30
0.0
 11
114.5315854696968
 21
-20.61464852898896
 31
0.0
  0
LINE
  5
131
330
1F
100
AcDbEntity
  8
1
  6
Continuous
 62
     7
100
AcDbLine
 10
77.57232355093777
 20
32.88535147101108
 30
0.0
 11
77.57232355093777
 21
44.88535147101106
 31
0.0
  0
LINE
  5
132
330
1F
100
AcDbEntity
  8
1
  6
Continuous
 62
     7
100
AcDbLine
 10
77.57232355093777
 20
-75.1146485289892
 30
0.0
 11
77.57232355093777
 21
-86.11464852898924
 31
0.0
  0
LINE
  5
133
330
1F
100
AcDbEntity
  8
1
  6
DOT_CENTER
 62
     2
100
AcDbLine
 10
166.2856570446656
 20
-113.3289416243351
 30
0.0
 11
166.2856570446656
 21
73.0770835440912
 31
0.0
  0
LINE
  5
134
330
1F
100
AcDbEntity
  8
1
  6
Continuous
 62
     7
100
AcDbLine
 10
152.2856570446656
 20
16.38535147101105
 30
0.0
 11
152.2856570446656
 21
32.13535147101108
 31
0.0
  0
LINE
  5
135
330
1F
100
AcDbEntity
  8
1
  6
Continuous
 62
     7
100
AcDbLine
 10
180.2856570446656
 20
16.38535147101105
 30
0.0
 11
180.2856570446656
 21
44.88535147101109
 31
0.0
  0
LINE
  5
136
330
1F
100
AcDbEntity
  8
1
  6
Continuous
 62
     7
100
AcDbLine
 10
168.5067177601509
 20
-86.1146485289892
 30
0.0
 11
168.0543313171585
 21
-86.11464852898919
 31
0.0
  0
LINE
  5
137
330
1F
100
AcDbEntity
  8
1
  6
DOT_CENTER
 62
     2
100
AcDbLine
 10
158.7856570446656
 20
-91.86464852898901
 30
0.0
 11
158.7856570446656
 21
-87.36464852898895
 31
0.0
  0
LINE
  5
138
330
1F
100
AcDbEntity
  8
1
  6
DOT_CENTER
 62
     2
100
AcDbLine
 10
150.350396326272
 20
45.38535147101105
 30
0.0
 11
182.8712860186316
 21
45.38535147101105
 31
0.0
  0
LINE
  5
139
330
1F
100
AcDbEntity
  8
1
  6
DOT_CENTER
 62
     2
100
AcDbLine
 10
182.8712860186316
 20
-86.614648528989
 30
0.0
 11
150.350396326272
 21
-86.614648528989
 31
0.0
  0
LINE
  5
13A
330
1F
100
AcDbEntity
  8
1
  6
Continuous
 62
     7
100
AcDbLine
 10
184.2856570446656
 20
16.38535147101105
 30
0.0
 11
184.2856570446656
 21
-57.61464852898895
 31
0.0
  0
LINE
  5
13B
330
1F
100
AcDbEntity
  8
1
  6
Continuous
 62
     7
100
AcDbLine
 10
180.2856570446656
 20
-86.614648528989
 30
0.0
 11
180.2856570446656
 21
-86.11464852898922
 31
0.0
  0
LINE
  5
13C
330
1F
100
AcDbEntity
  8
1
  6
Continuous
 62
     7
100
AcDbLine
 10
152.2856570446656
 20
-86.614648528989
 30
0.0
 11
152.2856570446656
 21
-86.11464852898916
 31
0.0
  0
LINE
  5
13D
330
1F
100
AcDbEntity
  8
1
  6
Continuous
 62
     7
100
AcDbLine
 10
144.2856570446656
 20
16.38535147101106
 30
0.0
 11
144.2856570446656
 21
-55.61464852898895
 31
0.0
  0
LINE
  5
13E
330
1F
100
AcDbEntity
  8
1
  6
Continuous
 62
     7
100
AcDbLine
 10
180.2856570446656
 20
44.88535147101109
 30
0.0
 11
180.2856570446656
 21
45.38535147101105
 31
0.0
  0
LINE
  5
13F
330
1F
100
AcDbEntity
  8
1
  6
Continuous
 62
     7
100
AcDbLine
 10
152.2856570446656
 20
32.13535147101108
 30
0.0
 11
152.2856570446656
 21
45.38535147101105
 31
0.0
  0
LINE
  5
140
330
1F
100
AcDbEntity
  8
1
  6
Continuous
 62
     7
100
AcDbLine
 10
164.2856570446656
 20
44.88535147101106
 30
0.0
 11
168.2856570446656
 21
44.88535147101106
 31
0.0
  0
LINE
  5
141
330
1F
100
AcDbEntity
  8
1
  6
Continuous
 62
     7
100
AcDbLine
 10
180.2856570446656
 20
-86.11464852898922
 30
0.0
 11
180.2856570446656
 21
-57.61464852898895
 31
0.0
  0
LINE
  5
142
330
1F
100
AcDbEntity
  8
1
  6
Continuous
 62
     7
100
AcDbLine
 10
152.2856570446656
 20
-86.11464852898916
 30
0.0
 11
152.2856570446656
 21
-74.11464852898919
 31
0.0
  0
LINE
  5
143
330
1F
100
AcDbEntity
  8
1
  6
Continuous
 62
     7
100
AcDbLine
 10
152.2856570446656
 20
-74.11464852898919
 30
0.0
 11
152.2856570446656
 21
-57.61464852898895
 31
0.0
  0
LINE
  5
144
330
1F
100
AcDbEntity
  8
1
  6
Continuous
 62
     7
100
AcDbLine
 10
168.0543313171585
 20
-86.11464852898919
 30
0.0
 11
164.5169827721728
 21
-86.11464852898919
 31
0.0
  0
LINE
  5
145
330
1F
100
AcDbEntity
  8
1
  6
Continuous
 62
     7
100
AcDbLine
 10
12.83123967983048
 20
-88.68918859156331
 30
0.0
 11
22.83123967983047
 21
-88.68918859156332
 31
0.0
  0
LINE
  5
146
330
1F
100
AcDbEntity
  8
1
  6
Continuous
 62
     7
100
AcDbLine
 10
22.83123967983067
 20
-60.68918859156356
 30
0.0
 11
22.83123967983047
 21
-88.68918859156332
 31
0.0
  0
LINE
  5
147
330
1F
100
AcDbEntity
  8
1
  6
Continuous
 62
     7
100
AcDbLine
 10
22.83123967983067
 20
-60.68918859156356
 30
0.0
 11
12.83123967983067
 21
-60.68918859156356
 31
0.0
  0
LINE
  5
148
330
1F
100
AcDbEntity
  8
1
  6
Continuous
 62
     7
100
AcDbLine
 10
46.83123967983067
 20
-60.68918859156366
 30
0.0
 11
22.83123967983067
 21
-60.68918859156356
 31
0.0
  0
LINE
  5
149
330
1F
100
AcDbEntity
  8
1
  6
Continuous
 62
     7
100
AcDbLine
 10
46.83123967983045
 20
-88.68918859156352
 30
0.0
 11
46.83123967983064
 21
-64.68918859156351
 31
0.0
  0
LINE
  5
14A
330
1F
100
AcDbEntity
  8
1
  6
Continuous
 62
     7
100
AcDbLine
 10
-22.16876032016922
 20
-88.68918859156351
 30
0.0
 11
-52.16876032016923
 21
-88.68918859156351
 31
0.0
  0
LINE
  5
14B
330
1F
100
AcDbEntity
  8
1
  6
Continuous
 62
     7
100
AcDbLine
 10
-52.16876032016923
 20
-88.68918859156351
 30
0.0
 11
-52.16876032016926
 21
-74.68918859156359
 31
0.0
  0
LINE
  5
14C
330
1F
100
AcDbEntity
  8
1
  6
Continuous
 62
     7
100
AcDbLine
 10
-52.16876032016926
 20
-74.68918859156359
 30
0.0
 11
-22.16876032016926
 21
-74.68918859156351
 31
0.0
  0
LINE
  5
14D
330
1F
100
AcDbEntity
  8
1
  6
Continuous
 62
     7
100
AcDbLine
 10
-22.16876032016926
 20
-74.68918859156351
 30
0.0
 11
-22.16876032016922
 21
-88.68918859156351
 31
0.0
  0
LINE
  5
14E
330
1F
100
AcDbEntity
  8
1
  6
Continuous
 62
     7
100
AcDbLine
 10
-52.16876032016926
 20
-74.68918859156359
 30
0.0
 11
-22.16876032016926
 21
-74.68918859156351
 31
0.0
  0
LINE
  5
14F
330
1F
100
AcDbEntity
  8
1
  6
Continuous
 62
     7
100
AcDbLine
 10
-226.91485230427
 20
-12.61464852898895
 30
0.0
 11
-226.91485230427
 21
-20.61464852898895
 31
0.0
  0
LINE
  5
150
330
1F
100
AcDbEntity
  8
1
  6
Continuous
 62
     7
100
AcDbLine
 10
-226.91485230427
 20
-28.61464852898895
 30
0.0
 11
-226.91485230427
 21
-55.61464852898895
 31
0.0
  0
LINE
  5
151
330
1F
100
AcDbEntity
  8
1
  6
Continuous
 62
     7
100
AcDbLine
 10
-202.91485230427
 20
-28.61464852898895
 30
0.0
 11
-202.91485230427
 21
-12.61464852898895
 31
0.0
  0
LINE
  5
152
330
1F
100
AcDbEntity
  8
1
  6
Continuous
 62
     7
100
AcDbLine
 10
-142.8573326447174
 20
-0.61464852898895
 30
0.0
 11
-142.8573326447174
 21
-40.61464852898895
 31
0.0
  0
LINE
  5
153
330
1F
100
AcDbEntity
  8
1
  6
Continuous
 62
     7
100
AcDbLine
 10
-142.8573326447174
 20
-40.61464852898895
 30
0.0
 11
-157.8573326447174
 21
-40.61464852898895
 31
0.0
  0
LINE
  5
154
330
1F
100
AcDbEntity
  8
1
  6
Continuous
 62
     7
100
AcDbLine
 10
-142.8573326447174
 20
-40.61464852898895
 30
0.0
 11
-142.8573326447174
 21
-55.61464852898895
 31
0.0
  0
LINE
  5
155
330
1F
100
AcDbEntity
  8
1
  6
Continuous
 62
     7
100
AcDbLine
 10
-159.8573326447174
 20
16.38535147101105
 30
0.0
 11
-159.8573326447174
 21
-55.61464852898895
 31
0.0
  0
LINE
  5
156
330
1F
100
AcDbEntity
  8
1
  6
Continuous
 62
     7
100
AcDbLine
 10
180.2856570446656
 20
-28.61464852898895
 30
0.0
 11
180.2856570446656
 21
-12.61464852898895
 31
0.0
  0
LINE
  5
157
330
1F
100
AcDbEntity
  8
1
  6
Continuous
 62
     7
100
AcDbLine
 10
156.2856570446656
 20
-12.61464852898895
 30
0.0
 11
156.2856570446656
 21
-20.61464852898895
 31
0.0
  0
LINE
  5
158
330
1F
100
AcDbEntity
  8
1
  6
Continuous
 62
     7
100
AcDbLine
 10
156.2856570446656
 20
-20.61464852898895
 30
0.0
 11
156.2856570446656
 21
-28.61464852898895
 31
0.0
  0
LINE
  5
159
330
1F
100
AcDbEntity
  8
1
  6
Continuous
 62
     7
100
AcDbLine
 10
101.5723235509378
 20
-0.61464852898895
 30
0.0
 11
112.5723235509378
 21
-0.61464852898895
 31
0.0
  0
LINE
  5
15A
330
1F
100
AcDbEntity
  8
1
  6
DOT_CENTER
 62
     2
100
AcDbLine
 10
112.5723235509378
 20
-0.61464852898895
 30
0.0
 11
112.5723235509378
 21
16.38535147101105
 31
0.0
  0
LINE
  5
15B
330
1F
100
AcDbEntity
  8
1
  6
Continuous
 62
     7
100
AcDbLine
 10
101.5723235509378
 20
-0.61464852898895
 30
0.0
 11
101.5723235509378
 21
16.38535147101105
 31
0.0
  0
LINE
  5
15C
330
1F
100
AcDbEntity
  8
1
  6
Continuous
 62
     7
100
AcDbLine
 10
112.5723235509378
 20
-40.61464852898895
 30
0.0
 11
101.5723235509378
 21
-40.61464852898895
 31
0.0
  0
LINE
  5
15D
330
1F
100
AcDbEntity
  8
1
  6
DOT_CENTER
 62
     2
100
AcDbLine
 10
112.5723235509378
 20
-40.61464852898895
 30
0.0
 11
112.5723235509378
 21
-0.61464852898895
 31
0.0
  0
LINE
  5
15E
330
1F
100
AcDbEntity
  8
1
  6
Continuous
 62
     7
100
AcDbLine
 10
101.5723235509378
 20
-40.61464852898895
 30
0.0
 11
101.5723235509378
 21
-0.61464852898895
 31
0.0
  0
LINE
  5
15F
330
1F
100
AcDbEntity
  8
1
  6
Continuous
 62
     7
100
AcDbLine
 10
46.83123967983064
 20
-64.68918859156351
 30
0.0
 11
56.83123967983067
 21
-64.68918859156351
 31
0.0
  0
LINE
  5
160
330
1F
100
AcDbEntity
  8
1
  6
PHANTOM
 62
     2
100
AcDbLine
 10
56.83123967983067
 20
-64.68918859156351
 30
0.0
 11
56.83123967983067
 21
-52.68918859156351
 31
0.0
  0
LINE
  5
161
330
1F
100
AcDbEntity
  8
1
  6
Continuous
 62
     7
100
AcDbLine
 10
46.83123967983064
 20
-64.68918859156351
 30
0.0
 11
46.83123967983067
 21
-60.68918859156366
 31
0.0
  0
LINE
  5
162
330
1F
100
AcDbEntity
  8
1
  6
Continuous
 62
     7
100
AcDbLine
 10
46.83123967983045
 20
-88.68918859156352
 30
0.0
 11
56.83123967983067
 21
-88.68918859156352
 31
0.0
  0
LINE
  5
163
330
1F
100
AcDbEntity
  8
1
  6
PHANTOM
 62
     2
100
AcDbLine
 10
56.83123967983067
 20
-88.68918859156352
 30
0.0
 11
56.83123967983067
 21
-64.68918859156351
 31
0.0
  0
LINE
  5
164
330
1F
100
AcDbEntity
  8
1
  6
Continuous
 62
     7
100
AcDbLine
 10
-157.8573326447174
 20
-0.61464852898895
 30
0.0
 11
-157.8573326447174
 21
-40.61464852898895
 31
0.0
  0
LINE
  5
165
330
1F
100
AcDbEntity
  8
1
  6
Continuous
 62
     7
100
AcDbLine
 10
-157.8573326447174
 20
-0.61464852898895
 30
0.0
 11
-142.8573326447174
 21
-0.61464852898895
 31
0.0
  0
LINE
  5
166
330
1F
100
AcDbEntity
  8
1
  6
DOT_CENTER
 62
     2
100
AcDbLine
 10
-198.91485230427
 20
-86.61464852898895
 30
0.0
 11
-228.6339311914812
 21
-86.61464852898895
 31
0.0
  0
LINE
  5
167
330
1F
100
AcDbEntity
  8
1
  6
DOT_CENTER
 62
     2
100
AcDbLine
 10
-208.41485230427
 20
-74.573429064366
 30
0.0
 11
-208.41485230427
 21
-98.573429064366
 31
0.0
  0
LINE
  5
168
330
1F
100
AcDbEntity
  8
1
  6
DOT_CENTER
 62
     2
100
AcDbLine
 10
161.7856570446657
 20
-74.573429064366
 30
0.0
 11
161.7856570446657
 21
-98.573429064366
 31
0.0
  0
LINE
  5
169
330
1F
100
AcDbEntity
  8
1
  6
DOT_CENTER
 62
     2
100
AcDbLine
 10
-174.836745360445
 20
-120.614648528989
 30
0.0
 11
-168.349335539947
 21
-120.614648528989
 31
0.0
  0
ARC
  5
16A
330
1F
100
AcDbEntity
  8
1
  6
Continuous
 62
     7
100
AcDbCircle
 10
168.2856570446656
 20
-28.61464852898895
 30
0.0
 40
12.0
100
AcDbArc
 50
180.0
 51
270.0
  0
ARC
  5
16B
330
1F
100
AcDbEntity
  8
1
  6
Continuous
 62
     7
100
AcDbCircle
 10
168.2856570446656
 20
-12.61464852898895
 30
0.0
 40
12.0
100
AcDbArc
 50
0.0
 51
90.0
  0
ARC
  5
16C
330
1F
100
AcDbEntity
  8
1
  6
Continuous
 62
     7
100
AcDbCircle
 10
-214.91485230427
 20
-28.61464852898895
 30
0.0
 40
12.0
100
AcDbArc
 50
180.0
 51
270.0
  0
ARC
  5
16D
330
1F
100
AcDbEntity
  8
1
  6
Continuous
 62
     7
100
AcDbCircle
 10
-214.91485230427
 20
-12.61464852898895
 30
0.0
 40
12.0
100
AcDbArc
 50
0.0
 51
90.0
  0
ARC
  5
16E
330
1F
100
AcDbEntity
  8
1
  6
Continuous
 62
     7
100
AcDbCircle
 10
-212.91485230427
 20
-86.61464852898895
 30
0.0
 40
14.0
100
AcDbArc
 50
180.0
 51
270.0
  0
ARC
  5
16F
330
1F
100
AcDbEntity
  8
1
  6
Continuous
 62
     7
100
AcDbCircle
 10
-212.91485230427
 20
-86.61464852898895
 30
0.0
 40
14.00000000000004
100
AcDbArc
 50
270.0
 51
0.0
  0
ARC
  5
170
330
1F
100
AcDbEntity
  8
1
  6
Continuous
 62
     7
100
AcDbCircle
 10
-212.91485230427
 20
45.38535147101105
 30
0.0
 40
14.0
100
AcDbArc
 50
90.0
 51
180.0
  0
ARC
  5
171
330
1F
100
AcDbEntity
  8
1
  6
Continuous
 62
     7
100
AcDbCircle
 10
-212.91485230427
 20
45.38535147101105
 30
0.0
 40
14.0
100
AcDbArc
 50
0.0
 51
90.0
  0
ARC
  5
172
330
1F
100
AcDbEntity
  8
1
  6
Continuous
 62
     7
100
AcDbCircle
 10
164.3049840185632
 20
32.84510255440159
 30
0.0
 40
12.04026442840171
100
AcDbArc
 50
90.09197094608855
 51
183.3794382317683
  0
ARC
  5
173
330
1F
100
AcDbEntity
  8
1
  6
Continuous
 62
     7
100
AcDbCircle
 10
168.2663300707681
 20
32.84510255440159
 30
0.0
 40
12.04026442840165
100
AcDbArc
 50
356.6205617682317
 51
89.90802905391187
  0
ARC
  5
174
330
1F
100
AcDbEntity
  8
1
  6
Continuous
 62
     7
100
AcDbCircle
 10
164.2907895506748
 20
-74.11164673259815
 30
0.0
 40
12.00513288129789
100
AcDbArc
 50
180.0143263941897
 51
271.079595202031
  0
ARC
  5
175
330
1F
100
AcDbEntity
  8
1
  6
Continuous
 62
     7
100
AcDbCircle
 10
168.2805245386564
 20
-74.11164673259815
 30
0.0
 40
12.00513288129778
100
AcDbArc
 50
271.0795952020142
 51
359.9856736058103
  0
ARC
  5
176
330
1F
100
AcDbEntity
  8
1
  6
Continuous
 62
     7
100
AcDbCircle
 10
168.2805245386564
 20
-74.11164673259815
 30
0.0
 40
12.00513288129783
100
AcDbArc
 50
268.9204047979695
 51
271.0795952020142
  0
ARC
  5
177
330
1F
100
AcDbEntity
  8
1
  6
Continuous
 62
     7
100
AcDbCircle
 10
-214.91485230427
 20
-12.61464852898895
 30
0.0
 40
12.0
100
AcDbArc
 50
90.0
 51
180.0
  0
ARC
  5
178
330
1F
100
AcDbEntity
  8
1
  6
Continuous
 62
     7
100
AcDbCircle
 10
-214.91485230427
 20
-28.61464852898895
 30
0.0
 40
12.0
100
AcDbArc
 50
270.0
 51
0.0
  0
ARC
  5
179
330
1F
100
AcDbEntity
  8
1
  6
Continuous
 62
     7
100
AcDbCircle
 10
168.2856570446656
 20
-28.61464852898895
 30
0.0
 40
12.0
100
AcDbArc
 50
270.0
 51
0.0
  0
ARC
  5
17A
330
1F
100
AcDbEntity
  8
1
  6
Continuous
 62
     7
100
AcDbCircle
 10
168.2856570446656
 20
-12.61464852898895
 30
0.0
 40
12.0
100
AcDbArc
 50
90.0
 51
180.0
  0
CIRCLE
  5
17B
330
1F
100
AcDbEntity
  8
1
  6
Continuous
 62
     7
100
AcDbCircle
 10
158.7856570446656
 20
-89.61464852898895
 30
0.0
 40
1.5
  0
CIRCLE
  5
17C
330
1F
100
AcDbEntity
  8
1
  6
Continuous
 62
     7
100
AcDbCircle
 10
173.7856570446656
 20
-89.61464852898895
 30
0.0
 40
1.5
  0
CIRCLE
  5
17D
330
1F
100
AcDbEntity
  8
1
  6
Continuous
 62
     7
100
AcDbCircle
 10
158.7856570446656
 20
48.38535147101105
 30
0.0
 40
1.5
  0
CIRCLE
  5
17E
330
1F
100
AcDbEntity
  8
1
  6
Continuous
 62
     7
100
AcDbCircle
 10
173.7856570446656
 20
48.38535147101105
 30
0.0
 40
1.5
  0
CIRCLE
  5
17F
330
1F
100
AcDbEntity
  8
1
  6
DOT_CENTER
 62
     2
100
AcDbCircle
 10
-208.4148523042701
 20
-86.61464852898895
 30
0.0
 40
9.500000000000114
  0
CIRCLE
  5
180
330
1F
100
AcDbEntity
  8
1
  6
DOT_CENTER
 62
     2
100
AcDbCircle
 10
161.7856570446657
 20
-86.61464852898895
 30
0.0
 40
9.5
  0
XLINE
  5
181
330
1F
100
AcDbEntity
  8
1
  6
DOT_CENTER
 62
     3
 60
     1
100
AcDbXline
 10
-212.91485230427
 20
-100.3163184076297
 30
0.0
 11
0.0
 21
1.0
 31
0.0
  0
XLINE
  5
182
330
1F
100
AcDbEntity
  8
1
  6
DOT_CENTER
 62
     3
 60
     1
100
AcDbXline
 10
-214.91485230427
 20
-12.61464852898895
 30
0.0
 11
-1.0
 21
0.0
 31
0.0
  0
XLINE
  5
183
330
1F
100
AcDbEntity
  8
1
  6
DOT_CENTER
 62
     3
 60
     1
100
AcDbXline
 10
-214.91485230427
 20
-12.61464852898895
 30
0.0
 11
1.0
 21
0.0
 31
0.0
  0
XLINE
  5
184
330
1F
100
AcDbEntity
  8
1
  6
DOT_CENTER
 62
     3
 60
     1
100
AcDbXline
 10
-214.91485230427
 20
-28.61464852898895
 30
0.0
 11
1.0
 21
0.0
 31
0.0
  0
XLINE
  5
185
330
1F
100
AcDbEntity
  8
1
  6
DOT_CENTER
 62
     3
 60
     1
100
AcDbXline
 10
-214.91485230427
 20
-28.61464852898895
 30
0.0
 11
-1.0
 21
0.0
 31
0.0
  0
XLINE
  5
186
330
1F
100
AcDbEntity
  8
1
  6
DOT_CENTER
 62
     3
 60
     1
100
AcDbXline
 10
168.2856570446656
 20
-12.61464852898895
 30
0.0
 11
-1.0
 21
0.0
 31
0.0
  0
XLINE
  5
187
330
1F
100
AcDbEntity
  8
1
  6
DOT_CENTER
 62
     3
 60
     1
100
AcDbXline
 10
168.2856570446656
 20
-12.61464852898895
 30
0.0
 11
1.0
 21
0.0
 31
0.0
  0
XLINE
  5
188
330
1F
100
AcDbEntity
  8
1
  6
DOT_CENTER
 62
     3
 60
     1
100
AcDbXline
 10
168.2856570446656
 20
-28.61464852898895
 30
0.0
 11
1.0
 21
0.0
 31
0.0
  0
XLINE
  5
189
330
1F
100
AcDbEntity
  8
1
  6
DOT_CENTER
 62
     3
 60
     1
100
AcDbXline
 10
168.2856570446656
 20
-28.61464852898895
 30
0.0
 11
-1.0
 21
0.0
 31
0.0
  0
ARC
  5
18A
330
1F
100
AcDbEntity
  8
1
  6
Continuous
 62
     7
100
AcDbCircle
 10
166.2856570446656
 20
-86.614648528989
 30
0.0
 40
14.0
100
AcDbArc
 50
270.0
 51
0.0
  0
ARC
  5
18B
330
1F
100
AcDbEntity
  8
1
  6
Continuous
 62
     7
100
AcDbCircle
 10
166.2856570446656
 20
-86.614648528989
 30
0.0
 40
14.0
100
AcDbArc
 50
180.0
 51
270.0
  0
ARC
  5
18C
330
1F
100
AcDbEntity
  8
1
  6
Continuous
 62
     7
100
AcDbCircle
 10
166.2856570446656
 20
45.38535147101105
 30
0.0
 40
14.0
100
AcDbArc
 50
90.0
 51
180.0
  0
ARC
  5
18D
330
1F
100
AcDbEntity
  8
1
  6
Continuous
 62
     7
100
AcDbCircle
 10
166.2856570446656
 20
45.38535147101105
 30
0.0
 40
14.0
100
AcDbArc
 50
0.0
 51
90.0
  0
MTEXT
  5
18F
330
1F
100
AcDbEntity
  8
1
 62
     3
100
AcDbMText
 10
188.808668313257
 20
-149.476286478481
 30
0.0
 40
3.5
 41
0.0
 71
     5
 72
     1
  1
TECTUS TE340-3D Energy
  7
CONVERTER_11
 73
     1
 44
1.32052821128451
  0
MTEXT
  5
190
330
1F
100
AcDbEntity
  8
1
 62
     2
100
AcDbMText
 10
10.21774098687409
 20
17.1802828331173
 30
0.0
 40
2.5
 41
0.0
 71
     5
 72
     1
  1
fixing plate\PTECTUS TE340-3D FZ/1
  7
CONVERTER_11
 73
     1
 44
1.32052821128451
  0
MTEXT
  5
191
330
1F
100
AcDbEntity
  8
1
 62
     3
100
AcDbMText
 10
41.65722620659244
 20
-15.1382832889033
 30
0.0
 40
3.5
 41
0.0
 71
     5
 72
     1
  1
template \Pdoor panel
  7
CONVERTER_11
 73
     1
 44
1.20048019207683
  0
MTEXT
  5
192
330
1F
100
AcDbEntity
  8
1
 62
     3
100
AcDbMText
 10
-32.81628452862638
 20
-37.7487481199814
 30
0.0
 40
3.5
 41
0.0
 71
     5
 72
     1
  1
template\Pcasing frame
  7
CONVERTER_11
 73
     1
 44
1.32052821128451
  0
DIMENSION
  5
19D
330
1F
100
AcDbEntity
  8
1
100
AcDbDimension
  2
*D1
 10
56.83123967983067
 20
-42.7616985461792
 30
0.0
 11
44.6819376731524
 21
-39.0116985461792
 31
0.0
 70
    32
  1
min. 35 (1.378``)
 71
     5
 42
-1.0
 53
0.00013888888889
  3
ME10_DIM_10
100
AcDbAlignedDimension
 13
46.83123967983064
 23
-64.68918859156351
 33
0.0
 14
56.83123967983067
 24
-52.68918859156351
 34
0.0
100
AcDbRotatedDimension
  0
DIMENSION
  5
1A9
330
1F
100
AcDbEntity
  8
1
100
AcDbDimension
  2
*D2
 10
180.2856570446656
 20
-51.3907786553527
 30
0.0
 11
205.876719707191
 21
-47.6407786553527
 31
0.0
 70
    32
  1
24mm (0.945``)
 71
     5
 42
-1.0
 53
0.00013888888889
  3
ME10_DIM_11
100
AcDbAlignedDimension
 13
156.2856570446656
 23
-28.61464852898895
 33
0.0
 14
180.2856570446656
 24
-28.61464852898895
 34
0.0
100
AcDbRotatedDimension
  0
DIMENSION
  5
1B5
330
1F
100
AcDbEntity
  8
1
100
AcDbDimension
  2
*D3
 10
-226.91485230427
 20
-52.6950036504869
 30
0.0
 11
-251.700127844302
 21
-48.9450036504869
 31
0.0
 70
    32
  1
24mm (0.945``)
 71
     5
 42
-1.0
 53
0.00013888888889
  3
ME10_DIM_12
100
AcDbAlignedDimension
 13
-202.91485230427
 23
-12.61464852898895
 33
0.0
 14
-226.91485230427
 24
-12.61464852898895
 34
0.0
100
AcDbRotatedDimension
  0
DIMENSION
  5
1C0
330
1F
100
AcDbEntity
  8
1
100
AcDbDimension
  2
*D4
 10
-238.317751094296
 20
-40.61464852898895
 30
0.0
 11
-242.067751094296
 21
-18.61464852898896
 31
0.0
 70
    32
  1
<>``)
 71
     5
 42
-1.0
 53
90.0
  3
ME10_DIM_13
100
AcDbAlignedDimension
 13
-214.91485230427
 23
-0.61464852898895
 33
0.0
 14
-214.91485230427
 24
-40.61464852898895
 34
0.0
 50
90.0
100
AcDbRotatedDimension
  0
DIMENSION
  5
1CB
330
1F
100
AcDbEntity
  8
1
100
AcDbDimension
  2
*D5
 10
197.684555561614
 20
-40.61464852898895
 30
0.0
 11
193.934555561614
 21
-20.61464852898896
 31
0.0
 70
    32
  1
<>``)
 71
     5
 42
-1.0
 53
90.0
  3
ME10_DIM_14
100
AcDbAlignedDimension
 13
168.2856570446656
 23
-0.61464852898895
 33
0.0
 14
168.2856570446656
 24
-40.61464852898895
 34
0.0
 50
90.0
100
AcDbRotatedDimension
  0
DIMENSION
  5
1D7
330
1F
100
AcDbEntity
  8
1
100
AcDbDimension
  2
*D6
 10
-111.3573326447174
 20
-130.2566310837739
 30
0.0
 11
-89.33392340609417
 21
-126.5066310837739
 31
0.0
 70
    32
  1
<>``)
 71
     5
 42
-1.0
 53
0.00013888888889
  3
ME10_DIM_15
100
AcDbAlignedDimension
 13
-142.8573326447174
 23
-100.614648528989
 33
0.0
 14
-111.3573326447174
 24
-100.614648528989
 34
0.0
100
AcDbRotatedDimension
  0
DIMENSION
  5
1E4
330
1F
100
AcDbEntity
  8
1
100
AcDbDimension
  2
*D7
 10
6.61812698915924
 20
-92.68918859156351
 30
0.0
 11
2.86812698915924
 21
-98.2366137961747
 31
0.0
 70
    32
  1
X
 71
     5
 42
-1.0
 53
90.0
  3
ME10_DIM_16
100
AcDbAlignedDimension
 13
-22.16876032016922
 23
-88.68918859156351
 33
0.0
 14
-68.66876032016924
 24
-92.68918859156351
 34
0.0
 50
90.0
100
AcDbRotatedDimension
  0
DIMENSION
  5
1F0
330
1F
100
AcDbEntity
  8
1
100
AcDbDimension
  2
*D8
 10
-86.9979375139541
 20
-92.68918859156351
 30
0.0
 11
-90.7479375139541
 21
-71.6611977059893
 31
0.0
 70
    32
  1
A
 71
     5
 42
-1.0
 53
90.0
  3
ME10_DIM_17
100
AcDbAlignedDimension
 13
11.06329048739954
 23
-52.68918859156351
 33
0.0
 14
-68.66876032016924
 24
-92.68918859156351
 34
0.0
 50
90.0
100
AcDbRotatedDimension
  0
DIMENSION
  5
1FB
330
1F
100
AcDbEntity
  8
1
100
AcDbDimension
  2
*D9
 10
63.4242124444423
 20
-92.68918859156351
 30
0.0
 11
59.6742124444423
 21
-72.7730098904355
 31
0.0
 70
    32
  1
B
 71
     5
 42
-1.0
 53
90.0
  3
ME10_DIM_18
100
AcDbAlignedDimension
 13
56.83123967983067
 23
-52.68918859156351
 33
0.0
 14
56.83123967983067
 24
-92.68918859156351
 34
0.0
 50
90.0
100
AcDbRotatedDimension
  0
DIMENSION
  5
206
330
1F
100
AcDbEntity
  8
1
100
AcDbDimension
  2
*D10
 10
-177.782875217365
 20
59.38535147101106
 30
0.0
 11
-181.532875217365
 21
-21.050688687666
 31
0.0
 70
    32
  1
<>``)
 71
     5
 42
-1.0
 53
90.0
  3
ME10_DIM_19
100
AcDbAlignedDimension
 13
-212.91485230427
 23
-100.614648528989
 33
0.0
 14
-212.91485230427
 24
59.38535147101105
 34
0.0
 50
90.0
100
AcDbRotatedDimension
  0
DIMENSION
  5
212
330
1F
100
AcDbEntity
  8
1
100
AcDbDimension
  2
*D11
 10
77.57232355093777
 20
-135.729476198668
 30
0.0
 11
46.05383521492797
 21
-131.979476198668
 31
0.0
 70
    32
  1
10mm (0.394``)
 71
     5
 42
-1.0
 53
0.00013888888889
  3
ME10_DIM_20
100
AcDbAlignedDimension
 13
67.57232355093777
 23
-120.614648528989
 33
0.0
 14
77.57232355093777
 24
-100.614648528989
 34
0.0
100
AcDbRotatedDimension
  0
DIMENSION
  5
21E
330
1F
100
AcDbEntity
  8
1
100
AcDbDimension
  2
*D12
 10
67.57232355093777
 20
-147.6142090488623
 30
0.0
 11
44.62585718126206
 21
-143.8642090488623
 31
0.0
 70
    32
  1
<>``)
 71
     5
 42
-1.0
 53
0.00013888888889
  3
ME10_DIM_21
100
AcDbAlignedDimension
 13
101.5723235509378
 23
-86.11464852898916
 33
0.0
 14
67.57232355093777
 24
-100.614648528989
 34
0.0
100
AcDbRotatedDimension
  0
DIMENSION
  5
22A
330
1F
100
AcDbEntity
  8
1
100
AcDbDimension
  2
*D13
 10
180.2856570446656
 20
-138.729476198668
 30
0.0
 11
203.2204363751218
 21
-134.979476198668
 31
0.0
 70
    32
  1
<>``)
 71
     5
 42
-1.0
 53
0.00013888888889
  3
ME10_DIM_22
100
AcDbAlignedDimension
 13
152.2856570446656
 23
-86.614648528989
 33
0.0
 14
180.2856570446656
 24
-86.614648528989
 34
0.0
100
AcDbRotatedDimension
  0
DIMENSION
  5
236
330
1F
100
AcDbEntity
  8
1
100
AcDbDimension
  2
*D14
 10
173.7856570446657
 20
32.54515688290759
 30
0.0
 11
205.0870870343117
 21
36.29515688290759
 31
0.0
 70
    32
  1
15mm (0.591``)
 71
     5
 42
-1.0
 53
0.00013888888889
  3
ME10_DIM_23
100
AcDbAlignedDimension
 13
158.7856570446656
 23
46.13535147101105
 33
0.0
 14
173.7856570446656
 24
46.13535147101105
 34
0.0
100
AcDbRotatedDimension
  0
DIMENSION
  5
243
330
1F
100
AcDbEntity
  8
1
100
AcDbDimension
  2
*D15
 10
184.2856570446656
 20
-128.729476198668
 30
0.0
 11
205.0130005346778
 21
-124.979476198668
 31
0.0
 70
    32
  1
4mm (0.157``)
 71
     5
 42
-1.0
 53
0.00013888888889
  3
ME10_DIM_24
100
AcDbAlignedDimension
 13
180.2856570446656
 23
-86.614648528989
 33
0.0
 14
184.2856570446656
 24
-120.614648528989
 34
0.0
100
AcDbRotatedDimension
  0
DIMENSION
  5
24E
330
1F
100
AcDbEntity
  8
1
100
AcDbDimension
  2
*D16
 10
123.579042964559
 20
59.38535147101106
 30
0.0
 11
119.829042964559
 21
-20.6495241982269
 31
0.0
 70
    32
  1
<>``)
 71
     5
 42
-1.0
 53
90.0
  3
ME10_DIM_25
100
AcDbAlignedDimension
 13
166.2856570446656
 23
-100.614648528989
 33
0.0
 14
166.2856570446656
 24
59.38535147101105
 34
0.0
 50
90.0
100
AcDbRotatedDimension
  0
DIMENSION
  5
259
330
1F
100
AcDbEntity
  8
1
100
AcDbDimension
  2
*D17
 10
131.034325602814
 20
48.38535147101105
 30
0.0
 11
127.284325602814
 21
-20.6495241982269
 31
0.0
 70
    32
  1
<>``)
 71
     5
 42
-1.0
 53
90.0
  3
ME10_DIM_26
100
AcDbAlignedDimension
 13
156.5356570446656
 23
-89.61464852898895
 33
0.0
 14
156.5356570446656
 24
48.38535147101105
 34
0.0
 50
90.0
100
AcDbRotatedDimension
  0
DIMENSION
  5
264
330
1F
100
AcDbEntity
  8
1
100
AcDbDimension
  2
*D18
 10
140.181351617846
 20
44.88535147101106
 30
0.0
 11
136.431351617846
 21
-20.55233169408329
 31
0.0
 70
    32
  1
<>``)
 71
     5
 42
-1.0
 53
90.0
  3
ME10_DIM_27
100
AcDbAlignedDimension
 13
168.0543313171585
 23
-86.11464852898919
 33
0.0
 14
164.2856570446656
 24
44.88535147101106
 34
0.0
 50
90.0
100
AcDbRotatedDimension
  0
DIMENSION
  5
271
330
1F
100
AcDbEntity
  8
1
100
AcDbDimension
  2
*D19
 10
37.3301561924627
 20
-88.68918859156332
 30
0.0
 11
33.5801561924627
 21
-111.279205836143
 31
0.0
 70
    32
  1
4mm (0.157``)
 71
     5
 42
-1.0
 53
90.0
  3
ME10_DIM_28
100
AcDbAlignedDimension
 13
12.83123967983048
 23
-92.68918859156351
 33
0.0
 14
22.83123967983047
 24
-88.68918859156332
 34
0.0
 50
90.0
100
AcDbRotatedDimension
  0
DIMENSION
  5
27E
330
1F
100
AcDbEntity
  8
1
100
AcDbDimension
  2
*D20
 10
-22.16876032016922
 20
-121.670521243206
 30
0.0
 11
0.4871179086446
 21
-117.920521243206
 31
0.0
 70
    32
  1
min. 30mm (1.181``)
 71
     5
 42
-1.0
 53
0.00013888888889
  3
ME10_DIM_29
100
AcDbAlignedDimension
 13
-52.16876032016923
 23
-88.68918859156351
 33
0.0
 14
-22.16876032016922
 24
-88.68918859156351
 34
0.0
100
AcDbRotatedDimension
  0
DIMENSION
  5
28A
330
1F
100
AcDbEntity
  8
1
100
AcDbDimension
  2
*D21
 10
9.33123967983076
 20
-107.730844203633
 30
0.0
 11
-43.7428972530141
 21
-103.980844203633
 31
0.0
 70
    32
  1
<>``)
 71
     5
 42
-1.0
 53
0.00013888888889
  3
ME10_DIM_30
100
AcDbAlignedDimension
 13
-22.16876032016922
 23
-88.68918859156351
 33
0.0
 14
9.33123967983076
 24
-88.68918859156351
 34
0.0
100
AcDbRotatedDimension
  0
DIMENSION
  5
296
330
1F
100
AcDbEntity
  8
1
100
AcDbDimension
  2
*D22
 10
-74.67658095267512
 20
-92.68918859156351
 30
0.0
 11
-78.42658095267512
 21
-47.69648647637
 31
0.0
 70
    32
  1
max. 24mm (0.827``)
 71
     5
 42
-1.0
 53
90.0
  3
ME10_DIM_31
100
AcDbAlignedDimension
 13
-68.66876032016924
 23
-74.6891885915635
 33
0.0
 14
-68.66876032016924
 24
-92.68918859156351
 34
0.0
 50
90.0
100
AcDbRotatedDimension
  0
DIMENSION
  5
2A3
330
1F
100
AcDbEntity
  8
1
100
AcDbDimension
  2
*D23
 10
-230.9148523042699
 20
-130.2566310837739
 30
0.0
 11
-233.7766155576639
 21
-126.5066310837739
 31
0.0
 70
    32
  1
X
 71
     5
 42
-1.0
 53
0.00013888888889
  3
ME10_DIM_32
100
AcDbAlignedDimension
 13
-226.91485230427
 23
-86.61464852898895
 33
0.0
 14
-230.91485230427
 24
-120.614648528989
 34
0.0
100
AcDbRotatedDimension
  0
DIMENSION
  5
2AF
330
1F
100
AcDbEntity
  8
1
100
AcDbDimension
  2
*D24
 10
-226.91485230427
 20
-144.2566310837739
 30
0.0
 11
-246.3856662427407
 21
-140.5066310837739
 31
0.0
 70
    32
  1
<>``)
 71
     5
 42
-1.0
 53
0.00013888888889
  3
ME10_DIM_33
100
AcDbAlignedDimension
 13
-198.91485230427
 23
-84.6146485289892
 33
0.0
 14
-226.91485230427
 24
-86.61464852898895
 34
0.0
100
AcDbRotatedDimension
  0
INSERT
  5
2B7
330
1F
100
AcDbEntity
  8
1
100
AcDbBlockReference
  2
*D25
 10
0.0
 20
0.0
 30
0.0
  0
INSERT
  5
2BF
330
1F
100
AcDbEntity
  8
1
100
AcDbBlockReference
  2
*D26
 10
0.0
 20
0.0
 30
0.0
  0
ENDSEC
  0
SECTION
  2
OBJECTS
  0
DICTIONARY
  5
C
330
0
100
AcDbDictionary
281
     1
  3
ACAD_GROUP
350
D
  3
ACAD_LAYOUT
350
1A
  3
ACAD_MATERIAL
350
3B
  3
ACAD_MLEADERSTYLE
350
2E7
  3
ACAD_MLINESTYLE
350
17
  3
ACAD_PLOTSETTINGS
350
19
  3
ACAD_PLOTSTYLENAME
350
E
  3
ACAD_TABLESTYLE
350
2E6
  3
ACAD_VISUALSTYLE
350
2A
  0
DICTIONARY
  5
D
102
{ACAD_REACTORS
330
C
102
}
330
C
100
AcDbDictionary
281
     1
  0
DICTIONARY
  5
1A
102
{ACAD_REACTORS
330
C
102
}
330
C
100
AcDbDictionary
281
     1
  3
Layout1
350
1E
  3
Layout2
350
26
  3
Model
350
22
  0
DICTIONARY
  5
3B
102
{ACAD_REACTORS
330
C
102
}
330
C
100
AcDbDictionary
281
     1
  3
ByBlock
350
3D
  3
ByLayer
350
3C
  3
Global
350
3E
  0
DICTIONARY
  5
2E7
102
{ACAD_REACTORS
330
C
102
}
330
C
100
AcDbDictionary
281
     1
  0
DICTIONARY
  5
17
102
{ACAD_REACTORS
330
C
102
}
330
C
100
AcDbDictionary
281
     1
  3
Standard
350
18
  0
DICTIONARY
  5
19
102
{ACAD_REACTORS
330
C
102
}
330
C
100
AcDbDictionary
281
     1
  0
ACDBDICTIONARYWDFLT
  5
E
102
{ACAD_REACTORS
330
C
102
}
330
C
100
AcDbDictionary
281
     1
  3
Normal
350
F
100
AcDbDictionaryWithDefault
340
F
  0
DICTIONARY
  5
2E6
102
{ACAD_REACTORS
330
C
102
}
330
C
100
AcDbDictionary
281
     1
  0
DICTIONARY
  5
2A
102
{ACAD_REACTORS
330
C
102
}
330
C
100
AcDbDictionary
281
     1
  3
2dWireframe
350
2F
  3
3D Hidden
350
31
  3
3dWireframe
350
30
  3
Basic
350
32
  3
Brighten
350
36
  3
ColorChange
350
3A
  3
Conceptual
350
34
  3
Dim
350
35
  3
Facepattern
350
39
  3
Flat
350
2B
  3
FlatWithEdges
350
2C
  3
Gouraud
350
2D
  3
GouraudWithEdges
350
2E
  3
Linepattern
350
38
  3
Realistic
350
33
  3
Thicken
350
37
  0
LAYOUT
  5
1E
102
{ACAD_REACTORS
330
1A
102
}
330
1A
100
AcDbPlotSettings
  1

  2
none_device
  4

  6

 40
0.0
 41
0.0
 42
0.0
 43
0.0
 44
0.0
 45
0.0
 46
0.0
 47
0.0
 48
0.0
 49
0.0
140
0.0
141
0.0
142
1.0
143
1.0
 70
   688
 72
     0
 73
     0
 74
     5
  7

 75
    16
 76
     0
 77
     2
 78
   300
147
1.0
148
0.0
149
0.0
100
AcDbLayout
  1
Layout1
 70
     1
 71
     1
 10
0.0
 20
0.0
 11
12.0
 21
9.0
 12
0.0
 22
0.0
 32
0.0
 14
1.00000000000000E+20
 24
1.00000000000000E+20
 34
1.00000000000000E+20
 15
-1.00000000000000E+20
 25
-1.00000000000000E+20
 35
-1.00000000000000E+20
146
0.0
 13
0.0
 23
0.0
 33
0.0
 16
1.0
 26
0.0
 36
0.0
 17
0.0
 27
1.0
 37
0.0
 76
     0
330
1B
  0
LAYOUT
  5
26
102
{ACAD_REACTORS
330
1A
102
}
330
1A
100
AcDbPlotSettings
  1

  2
none_device
  4

  6

 40
0.0
 41
0.0
 42
0.0
 43
0.0
 44
0.0
 45
0.0
 46
0.0
 47
0.0
 48
0.0
 49
0.0
140
0.0
141
0.0
142
1.0
143
1.0
 70
   688
 72
     0
 73
     0
 74
     5
  7

 75
    16
 76
     0
 77
     2
 78
   300
147
1.0
148
0.0
149
0.0
100
AcDbLayout
  1
Layout2
 70
     1
 71
     2
 10
0.0
 20
0.0
 11
0.0
 21
0.0
 12
0.0
 22
0.0
 32
0.0
 14
0.0
 24
0.0
 34
0.0
 15
0.0
 25
0.0
 35
0.0
146
0.0
 13
0.0
 23
0.0
 33
0.0
 16
1.0
 26
0.0
 36
0.0
 17
0.0
 27
1.0
 37
0.0
 76
     0
330
23
  0
LAYOUT
  5
22
102
{ACAD_REACTORS
330
1A
102
}
330
1A
100
AcDbPlotSettings
  1

  2
none_device
  4

  6

 40
0.0
 41
0.0
 42
0.0
 43
0.0
 44
0.0
 45
0.0
 46
0.0
 47
0.0
 48
0.0
 49
0.0
140
0.0
141
0.0
142
1.0
143
1.0
 70
  1712
 72
     0
 73
     0
 74
     0
  7

 75
     0
 76
     0
 77
     2
 78
   300
147
1.0
148
0.0
149
0.0
100
AcDbLayout
  1
Model
 70
     1
 71
     0
 10
0.0
 20
0.0
 11
12.0
 21
9.0
 12
0.0
 22
0.0
 32
0.0
 14
-269.593877844302
 24
-152.276286478481
 34
0.0
 15
223.770469707191
 25
81.77063309968568
 35
0.0
146
0.0
 13
0.0
 23
0.0
 33
0.0
 16
1.0
 26
0.0
 36
0.0
 17
0.0
 27
1.0
 37
0.0
 76
     0
330
1F
331
29
  0
MATERIAL
  5
3D
102
{ACAD_REACTORS
330
3B
102
}
102
{ACAD_XDICTIONARY
360
2E2
102
}
330
3B
100
AcDbMaterial
  1
ByBlock
  0
MATERIAL
  5
3C
102
{ACAD_REACTORS
330
3B
102
}
102
{ACAD_XDICTIONARY
360
2E0
102
}
330
3B
100
AcDbMaterial
  1
ByLayer
  0
MATERIAL
  5
3E
102
{ACAD_REACTORS
330
3B
102
}
102
{ACAD_XDICTIONARY
360
2E4
102
}
330
3B
100
AcDbMaterial
  1
Global
  0
MLINESTYLE
  5
18
102
{ACAD_REACTORS
330
17
102
}
330
17
100
AcDbMlineStyle
  2
Standard
 70
     0
  3

 62
   256
 51
90.0
 52
90.0
 71
     2
 49
0.5
 62
   256
  6
BYLAYER
 49
-0.5
 62
   256
  6
BYLAYER
  0
ACDBPLACEHOLDER
  5
F
102
{ACAD_REACTORS
330
E
102
}
330
E
  0
VISUALSTYLE
  5
2F
102
{ACAD_REACTORS
330
2A
102
}
102
{ACAD_XDICTIONARY
360
2C8
102
}
330
2A
100
AcDbVisualStyle
  2
2dWireframe
 70
     4
 71
     0
 72
     2
 73
     0
 90
        0
 40
-0.6
 41
-30.0
 62
     5
 63
     7
421
 16777215
 74
     1
 91
        4
 64
     7
 65
   257
 75
     1
175
     1
 42
1.0
 92
        0
 66
   257
 43
1.0
 76
     1
 77
     6
 78
     2
 67
     7
 79
     5
170
     0
171
     0
290
     0
174
     0
 93
        1
 44
0.0
173
     0
291
     0
 45
0.0
1001
ACAD
1000
AcDbSavedByObjectVersion
1070
     0
  0
VISUALSTYLE
  5
31
102
{ACAD_REACTORS
330
2A
102
}
102
{ACAD_XDICTIONARY
360
2CC
102
}
330
2A
100
AcDbVisualStyle
  2
3D Hidden
 70
     6
 71
     1
 72
     2
 73
     2
 90
        0
 40
-0.6
 41
-30.0
 62
     5
 63
     7
421
 16777215
 74
     2
 91
        2
 64
     7
 65
   257
 75
     2
175
     1
 42
40.0
 92
        0
 66
   257
 43
1.0
 76
     1
 77
     6
 78
     2
 67
     7
 79
     3
170
     0
171
     0
290
     0
174
     0
 93
        1
 44
0.0
173
     0
291
     0
 45
0.0
1001
ACAD
1000
AcDbSavedByObjectVersion
1070
     0
  0
VISUALSTYLE
  5
30
102
{ACAD_REACTORS
330
2A
102
}
102
{ACAD_XDICTIONARY
360
2CA
102
}
330
2A
100
AcDbVisualStyle
  2
3dWireframe
 70
     5
 71
     0
 72
     2
 73
     0
 90
        0
 40
-0.6
 41
-30.0
 62
     5
 63
     7
421
 16777215
 74
     1
 91
        4
 64
     7
 65
   257
 75
     1
175
     1
 42
1.0
 92
        0
 66
   257
 43
1.0
 76
     1
 77
     6
 78
     2
 67
     7
 79
     5
170
     0
171
     0
290
     0
174
     0
 93
        1
 44
0.0
173
     0
291
     0
 45
0.0
1001
ACAD
1000
AcDbSavedByObjectVersion
1070
     0
  0
VISUALSTYLE
  5
32
102
{ACAD_REACTORS
330
2A
102
}
102
{ACAD_XDICTIONARY
360
2CE
102
}
330
2A
100
AcDbVisualStyle
  2
Basic
 70
     7
 71
     1
 72
     0
 73
     1
 90
        0
 40
-0.6
 41
-30.0
 62
     5
 63
     7
421
 16777215
 74
     0
 91
        4
 64
     7
 65
   257
 75
     1
175
     1
 42
1.0
 92
        8
 66
     7
 43
1.0
 76
     1
 77
     6
 78
     2
 67
     7
 79
     5
170
     0
171
     0
290
     0
174
     0
 93
        1
 44
0.0
173
     0
291
     1
 45
0.0
1001
ACAD
1000
AcDbSavedByObjectVersion
1070
     0
  0
VISUALSTYLE
  5
36
102
{ACAD_REACTORS
330
2A
102
}
102
{ACAD_XDICTIONARY
360
2D6
102
}
330
2A
100
AcDbVisualStyle
  2
Brighten
 70
    12
 71
     2
 72
     2
 73
     0
 90
        0
 40
-0.6
 41
-30.0
 62
     5
 63
     7
421
 16777215
 74
     1
 91
        4
 64
     7
 65
   257
 75
     1
175
     1
 42
1.0
 92
        8
 66
     7
 43
1.0
 76
     1
 77
     6
 78
     2
 67
     7
 79
     5
170
     0
171
     0
290
     0
174
     0
 93
        1
 44
50.0
173
     0
291
     1
 45
0.0
1001
ACAD
1000
AcDbSavedByObjectVersion
1070
     0
  0
VISUALSTYLE
  5
3A
102
{ACAD_REACTORS
330
2A
102
}
102
{ACAD_XDICTIONARY
360
2DE
102
}
330
2A
100
AcDbVisualStyle
  2
ColorChange
 70
    16
 71
     2
 72
     2
 73
     3
 90
        0
 40
-0.6
 41
-30.0
 62
     5
 63
     8
421
  8421504
 74
     1
 91
        4
 64
     7
 65
   257
 75
     1
175
     1
 42
1.0
 92
        8
 66
     8
424
  8421504
 43
1.0
 76
     1
 77
     6
 78
     2
 67
     7
 79
     5
170
     0
171
     0
290
     0
174
     0
 93
        1
 44
0.0
173
     0
291
     1
 45
0.0
1001
ACAD
1000
AcDbSavedByObjectVersion
1070
     0
  0
VISUALSTYLE
  5
34
102
{ACAD_REACTORS
330
2A
102
}
102
{ACAD_XDICTIONARY
360
2D2
102
}
330
2A
100
AcDbVisualStyle
  2
Conceptual
 70
     9
 71
     3
 72
     2
 73
     0
 90
        0
 40
-0.6
 41
-30.0
 62
     5
 63
     7
421
 16777215
 74
     2
 91
        2
 64
     7
 65
   257
 75
     1
175
     1
 42
40.0
 92
        8
 66
     7
 43
1.0
 76
     1
 77
     6
 78
     2
 67
     7
 79
     3
170
     0
171
     0
290
     0
174
     0
 93
        1
 44
0.0
173
     0
291
     0
 45
0.0
1001
ACAD
1000
AcDbSavedByObjectVersion
1070
     0
  0
VISUALSTYLE
  5
35
102
{ACAD_REACTORS
330
2A
102
}
102
{ACAD_XDICTIONARY
360
2D4
102
}
330
2A
100
AcDbVisualStyle
  2
Dim
 70
    11
 71
     2
 72
     2
 73
     0
 90
        0
 40
-0.6
 41
-30.0
 62
     5
 63
     7
421
 16777215
 74
     1
 91
        4
 64
     7
 65
   257
 75
     1
175
     1
 42
1.0
 92
        8
 66
     7
 43
1.0
 76
     1
 77
     6
 78
     2
 67
     7
 79
     5
170
     0
171
     0
290
     0
174
     0
 93
        1
 44
-50.0
173
     0
291
     1
 45
0.0
1001
ACAD
1000
AcDbSavedByObjectVersion
1070
     0
  0
VISUALSTYLE
  5
39
102
{ACAD_REACTORS
330
2A
102
}
102
{ACAD_XDICTIONARY
360
2DC
102
}
330
2A
100
AcDbVisualStyle
  2
Facepattern
 70
    15
 71
     2
 72
     2
 73
     0
 90
        0
 40
-0.6
 41
-30.0
 62
     5
 63
     7
421
 16777215
 74
     1
 91
        4
 64
     7
 65
   257
 75
     1
175
     1
 42
1.0
 92
        8
 66
     7
 43
1.0
 76
     1
 77
     6
 78
     2
 67
     7
 79
     5
170
     0
171
     0
290
     0
174
     0
 93
        1
 44
0.0
173
     0
291
     1
 45
0.0
1001
ACAD
1000
AcDbSavedByObjectVersion
1070
     0
  0
VISUALSTYLE
  5
2B
102
{ACAD_REACTORS
330
2A
102
}
102
{ACAD_XDICTIONARY
360
2C0
102
}
330
2A
100
AcDbVisualStyle
  2
Flat
 70
     0
 71
     2
 72
     1
 73
     1
 90
        2
 40
-0.6
 41
30.0
 62
     5
 63
     7
421
 16777215
 74
     0
 91
        4
 64
     7
 65
   257
 75
     1
175
     1
 42
1.0
 92
        8
 66
     7
 43
1.0
 76
     1
 77
     6
 78
     2
 67
     7
 79
     5
170
     0
171
     0
290
     0
174
     0
 93
       13
 44
0.0
173
     0
291
     1
 45
0.0
1001
ACAD
1000
AcDbSavedByObjectVersion
1070
     0
  0
VISUALSTYLE
  5
2C
102
{ACAD_REACTORS
330
2A
102
}
102
{ACAD_XDICTIONARY
360
2C2
102
}
330
2A
100
AcDbVisualStyle
  2
FlatWithEdges
 70
     1
 71
     2
 72
     1
 73
     1
 90
        2
 40
-0.6
 41
30.0
 62
     5
 63
     7
421
 16777215
 74
     1
 91
        4
 64
     7
 65
   257
 75
     1
175
     1
 42
1.0
 92
        0
 66
   257
 43
1.0
 76
     1
 77
     6
 78
     2
 67
     7
 79
     5
170
     0
171
     0
290
     0
174
     0
 93
       13
 44
0.0
173
     0
291
     1
 45
0.0
1001
ACAD
1000
AcDbSavedByObjectVersion
1070
     0
  0
VISUALSTYLE
  5
2D
102
{ACAD_REACTORS
330
2A
102
}
102
{ACAD_XDICTIONARY
360
2C4
102
}
330
2A
100
AcDbVisualStyle
  2
Gouraud
 70
     2
 71
     2
 72
     2
 73
     1
 90
        2
 40
-0.6
 41
30.0
 62
     5
 63
     7
421
 16777215
 74
     0
 91
        4
 64
     7
 65
   257
 75
     1
175
     1
 42
1.0
 92
        0
 66
     7
 43
1.0
 76
     1
 77
     6
 78
     2
 67
     7
 79
     5
170
     0
171
     0
290
     0
174
     0
 93
       13
 44
0.0
173
     0
291
     1
 45
0.0
1001
ACAD
1000
AcDbSavedByObjectVersion
1070
     0
  0
VISUALSTYLE
  5
2E
102
{ACAD_REACTORS
330
2A
102
}
102
{ACAD_XDICTIONARY
360
2C6
102
}
330
2A
100
AcDbVisualStyle
  2
GouraudWithEdges
 70
     3
 71
     2
 72
     2
 73
     1
 90
        2
 40
-0.6
 41
30.0
 62
     5
 63
     7
421
 16777215
 74
     1
 91
        4
 64
     7
 65
   257
 75
     1
175
     1
 42
1.0
 92
        0
 66
   257
 43
1.0
 76
     1
 77
     6
 78
     2
 67
     7
 79
     5
170
     0
171
     0
290
     0
174
     0
 93
       13
 44
0.0
173
     0
291
     1
 45
0.0
1001
ACAD
1000
AcDbSavedByObjectVersion
1070
     0
  0
VISUALSTYLE
  5
38
102
{ACAD_REACTORS
330
2A
102
}
102
{ACAD_XDICTIONARY
360
2DA
102
}
330
2A
100
AcDbVisualStyle
  2
Linepattern
 70
    14
 71
     2
 72
     2
 73
     0
 90
        0
 40
-0.6
 41
-30.0
 62
     5
 63
     7
421
 16777215
 74
     1
 91
        4
 64
     7
 65
   257
 75
     7
175
     7
 42
1.0
 92
        8
 66
     7
 43
1.0
 76
     1
 77
     6
 78
     2
 67
     7
 79
     5
170
     0
171
     0
290
     0
174
     0
 93
        1
 44
0.0
173
     0
291
     1
 45
0.0
1001
ACAD
1000
AcDbSavedByObjectVersion
1070
     0
  0
VISUALSTYLE
  5
33
102
{ACAD_REACTORS
330
2A
102
}
102
{ACAD_XDICTIONARY
360
2D0
102
}
330
2A
100
AcDbVisualStyle
  2
Realistic
 70
     8
 71
     2
 72
     2
 73
     0
 90
        0
 40
-0.6
 41
-30.0
 62
     5
 63
     7
421
 16777215
 74
     1
 91
        0
 64
     7
 65
   257
 75
     1
175
     1
 42
1.0
 92
        8
 66
     8
424
  7895160
 43
1.0
 76
     1
 77
     6
 78
     2
 67
     7
 79
     5
170
     0
171
     0
290
     0
174
     0
 93
       13
 44
0.0
173
     0
291
     0
 45
0.0
1001
ACAD
1000
AcDbSavedByObjectVersion
1070
     0
  0
VISUALSTYLE
  5
37
102
{ACAD_REACTORS
330
2A
102
}
102
{ACAD_XDICTIONARY
360
2D8
102
}
330
2A
100
AcDbVisualStyle
  2
Thicken
 70
    13
 71
     2
 72
     2
 73
     0
 90
        0
 40
-0.6
 41
-30.0
 62
     5
 63
     7
421
 16777215
 74
     1
 91
        4
 64
     7
 65
   257
 75
     1
175
     1
 42
1.0
 92
       12
 66
     7
 43
1.0
 76
     1
 77
     6
 78
     2
 67
     7
 79
     5
170
     0
171
     0
290
     0
174
     0
 93
        1
 44
0.0
173
     0
291
     1
 45
0.0
1001
ACAD
1000
AcDbSavedByObjectVersion
1070
     0
  0
DICTIONARY
  5
2E2
330
3D
100
AcDbDictionary
280
     1
281
     1
  3
ACAD_XREC_ROUNDTRIP
360
2E3
  0
DICTIONARY
  5
2E0
330
3C
100
AcDbDictionary
280
     1
281
     1
  3
ACAD_XREC_ROUNDTRIP
360
2E1
  0
DICTIONARY
  5
2E4
330
3E
100
AcDbDictionary
280
     1
281
     1
  3
ACAD_XREC_ROUNDTRIP
360
2E5
  0
DICTIONARY
  5
2C8
330
2F
100
AcDbDictionary
280
     1
281
     1
  3
ACAD_XREC_ROUNDTRIP
360
2C9
  0
DICTIONARY
  5
2CC
330
31
100
AcDbDictionary
280
     1
281
     1
  3
ACAD_XREC_ROUNDTRIP
360
2CD
  0
DICTIONARY
  5
2CA
330
30
100
AcDbDictionary
280
     1
281
     1
  3
ACAD_XREC_ROUNDTRIP
360
2CB
  0
DICTIONARY
  5
2CE
330
32
100
AcDbDictionary
280
     1
281
     1
  3
ACAD_XREC_ROUNDTRIP
360
2CF
  0
DICTIONARY
  5
2D6
330
36
100
AcDbDictionary
280
     1
281
     1
  3
ACAD_XREC_ROUNDTRIP
360
2D7
  0
DICTIONARY
  5
2DE
330
3A
100
AcDbDictionary
280
     1
281
     1
  3
ACAD_XREC_ROUNDTRIP
360
2DF
  0
DICTIONARY
  5
2D2
330
34
100
AcDbDictionary
280
     1
281
     1
  3
ACAD_XREC_ROUNDTRIP
360
2D3
  0
DICTIONARY
  5
2D4
330
35
100
AcDbDictionary
280
     1
281
     1
  3
ACAD_XREC_ROUNDTRIP
360
2D5
  0
DICTIONARY
  5
2DC
330
39
100
AcDbDictionary
280
     1
281
     1
  3
ACAD_XREC_ROUNDTRIP
360
2DD
  0
DICTIONARY
  5
2C0
330
2B
100
AcDbDictionary
280
     1
281
     1
  3
ACAD_XREC_ROUNDTRIP
360
2C1
  0
DICTIONARY
  5
2C2
330
2C
100
AcDbDictionary
280
     1
281
     1
  3
ACAD_XREC_ROUNDTRIP
360
2C3
  0
DICTIONARY
  5
2C4
330
2D
100
AcDbDictionary
280
     1
281
     1
  3
ACAD_XREC_ROUNDTRIP
360
2C5
  0
DICTIONARY
  5
2C6
330
2E
100
AcDbDictionary
280
     1
281
     1
  3
ACAD_XREC_ROUNDTRIP
360
2C7
  0
DICTIONARY
  5
2DA
330
38
100
AcDbDictionary
280
     1
281
     1
  3
ACAD_XREC_ROUNDTRIP
360
2DB
  0
DICTIONARY
  5
2D0
330
33
100
AcDbDictionary
280
     1
281
     1
  3
ACAD_XREC_ROUNDTRIP
360
2D1
  0
DICTIONARY
  5
2D8
330
37
100
AcDbDictionary
280
     1
281
     1
  3
ACAD_XREC_ROUNDTRIP
360
2D9
  0
XRECORD
  5
2E3
102
{ACAD_REACTORS
330
2E2
102
}
330
2E2
100
AcDbXrecord
280
     1
102
MATERIAL
148
0.0
149
0.0
149
0.0
 93
        0
 94
      127
282
     0
 72
     1
 77
     1
171
     1
175
     1
179
     1
273
     0
  0
XRECORD
  5
2E1
102
{ACAD_REACTORS
330
2E0
102
}
330
2E0
100
AcDbXrecord
280
     1
102
MATERIAL
148
0.0
149
0.0
149
0.0
 93
        0
 94
      127
282
     0
 72
     1
 77
     1
171
     1
175
     1
179
     1
273
     0
  0
XRECORD
  5
2E5
102
{ACAD_REACTORS
330
2E4
102
}
330
2E4
100
AcDbXrecord
280
     1
102
MATERIAL
148
0.0
149
0.0
149
0.0
 93
        0
 94
      127
282
     0
 72
     1
 77
     1
171
     1
175
     1
179
     1
273
     0
  0
XRECORD
  5
2C9
102
{ACAD_REACTORS
330
2C8
102
}
330
2C8
100
AcDbXrecord
280
     1
102
RTVSPropertyOp0
 70
     1
102
RTVSPropertyOp1
 70
     1
102
RTVSPropertyOp2
 70
     1
102
RTVSPropertyOp3
 70
     1
102
RTVSPropertyOp4
 70
     1
102
RTVSPropertyOp5
 70
     1
102
RTVSPropertyOp6
 70
     1
102
RTVSPropertyOp7
 70
     1
102
RTVSPropertyOp8
 70
     1
102
RTVSPropertyOp9
 70
     1
102
RTVSPropertyOp10
 70
     1
102
RTVSPropertyOp11
 70
     1
102
RTVSPropertyOp12
 70
     1
102
RTVSPropertyOp13
 70
     1
102
RTVSPropertyOp14
 70
     1
102
RTVSPropertyOp15
 70
     1
102
RTVSPropertyOp16
 70
     1
102
RTVSPropertyOp17
 70
     1
102
RTVSPropertyOp18
 70
     1
102
RTVSPropertyOp19
 70
     1
102
RTVSPropertyOp20
 70
     1
102
RTVSPropertyOp21
 70
     1
102
RTVSPropertyOp22
 70
     1
102
RTVSPropertyOp23
 70
     1
102
RTVSPropertyOp24
 70
     1
102
RTVSPropertyOp25
 70
     1
102
RTVSPropertyOp26
 70
     1
102
RTVSPropertyOp27
 70
     1
102
RTVSPropertyOp28
 70
     1
102
RTVSPropertyOp29
 70
     1
102
RTVSPropertyOp30
 70
     1
102
RTVSPropertyOp31
 70
     1
102
RTVSPropertyOp32
 70
     1
  0
XRECORD
  5
2CD
102
{ACAD_REACTORS
330
2CC
102
}
330
2CC
100
AcDbXrecord
280
     1
102
RTVSPropertyOp0
 70
     1
102
RTVSPropertyOp1
 70
     1
102
RTVSPropertyOp2
 70
     1
102
RTVSPropertyOp3
 70
     1
102
RTVSPropertyOp4
 70
     1
102
RTVSPropertyOp5
 70
     1
102
RTVSPropertyOp6
 70
     1
102
RTVSPropertyOp7
 70
     1
102
RTVSPropertyOp8
 70
     1
102
RTVSPropertyOp9
 70
     1
102
RTVSPropertyOp10
 70
     1
102
RTVSPropertyOp11
 70
     1
102
RTVSPropertyOp12
 70
     1
102
RTVSPropertyOp13
 70
     1
102
RTVSPropertyOp14
 70
     1
102
RTVSPropertyOp15
 70
     1
102
RTVSPropertyOp16
 70
     1
102
RTVSPropertyOp17
 70
     1
102
RTVSPropertyOp18
 70
     1
102
RTVSPropertyOp19
 70
     1
102
RTVSPropertyOp20
 70
     1
102
RTVSPropertyOp21
 70
     1
102
RTVSPropertyOp22
 70
     1
102
RTVSPropertyOp23
 70
     1
102
RTVSPropertyOp24
 70
     1
102
RTVSPropertyOp25
 70
     1
102
RTVSPropertyOp26
 70
     1
102
RTVSPropertyOp27
 70
     1
102
RTVSPropertyOp28
 70
     1
102
RTVSPropertyOp29
 70
     1
102
RTVSPropertyOp30
 70
     1
102
RTVSPropertyOp31
 70
     1
102
RTVSPropertyOp32
 70
     1
  0
XRECORD
  5
2CB
102
{ACAD_REACTORS
330
2CA
102
}
330
2CA
100
AcDbXrecord
280
     1
102
RTVSPropertyOp0
 70
     1
102
RTVSPropertyOp1
 70
     1
102
RTVSPropertyOp2
 70
     1
102
RTVSPropertyOp3
 70
     1
102
RTVSPropertyOp4
 70
     1
102
RTVSPropertyOp5
 70
     1
102
RTVSPropertyOp6
 70
     1
102
RTVSPropertyOp7
 70
     1
102
RTVSPropertyOp8
 70
     1
102
RTVSPropertyOp9
 70
     1
102
RTVSPropertyOp10
 70
     1
102
RTVSPropertyOp11
 70
     1
102
RTVSPropertyOp12
 70
     1
102
RTVSPropertyOp13
 70
     1
102
RTVSPropertyOp14
 70
     1
102
RTVSPropertyOp15
 70
     1
102
RTVSPropertyOp16
 70
     1
102
RTVSPropertyOp17
 70
     1
102
RTVSPropertyOp18
 70
     1
102
RTVSPropertyOp19
 70
     1
102
RTVSPropertyOp20
 70
     1
102
RTVSPropertyOp21
 70
     1
102
RTVSPropertyOp22
 70
     1
102
RTVSPropertyOp23
 70
     1
102
RTVSPropertyOp24
 70
     1
102
RTVSPropertyOp25
 70
     1
102
RTVSPropertyOp26
 70
     1
102
RTVSPropertyOp27
 70
     1
102
RTVSPropertyOp28
 70
     1
102
RTVSPropertyOp29
 70
     1
102
RTVSPropertyOp30
 70
     1
102
RTVSPropertyOp31
 70
     1
102
RTVSPropertyOp32
 70
     1
  0
XRECORD
  5
2CF
102
{ACAD_REACTORS
330
2CE
102
}
330
2CE
100
AcDbXrecord
280
     1
102
RTVSPropertyOp0
 70
     1
102
RTVSPropertyOp1
 70
     1
102
RTVSPropertyOp2
 70
     1
102
RTVSPropertyOp3
 70
     1
102
RTVSPropertyOp4
 70
     1
102
RTVSPropertyOp5
 70
     1
102
RTVSPropertyOp6
 70
     1
102
RTVSPropertyOp7
 70
     1
102
RTVSPropertyOp8
 70
     1
102
RTVSPropertyOp9
 70
     1
102
RTVSPropertyOp10
 70
     1
102
RTVSPropertyOp11
 70
     1
102
RTVSPropertyOp12
 70
     1
102
RTVSPropertyOp13
 70
     1
102
RTVSPropertyOp14
 70
     1
102
RTVSPropertyOp15
 70
     1
102
RTVSPropertyOp16
 70
     1
102
RTVSPropertyOp17
 70
     1
102
RTVSPropertyOp18
 70
     1
102
RTVSPropertyOp19
 70
     1
102
RTVSPropertyOp20
 70
     1
102
RTVSPropertyOp21
 70
     1
102
RTVSPropertyOp22
 70
     1
102
RTVSPropertyOp23
 70
     1
102
RTVSPropertyOp24
 70
     1
102
RTVSPropertyOp25
 70
     1
102
RTVSPropertyOp26
 70
     1
102
RTVSPropertyOp27
 70
     1
102
RTVSPropertyOp28
 70
     1
102
RTVSPropertyOp29
 70
     1
102
RTVSPropertyOp30
 70
     1
102
RTVSPropertyOp31
 70
     1
102
RTVSPropertyOp32
 70
     1
  0
XRECORD
  5
2D7
102
{ACAD_REACTORS
330
2D6
102
}
330
2D6
100
AcDbXrecord
280
     1
102
RTVSPropertyOp0
 70
     1
102
RTVSPropertyOp1
 70
     1
102
RTVSPropertyOp2
 70
     1
102
RTVSPropertyOp3
 70
     1
102
RTVSPropertyOp4
 70
     1
102
RTVSPropertyOp5
 70
     1
102
RTVSPropertyOp6
 70
     1
102
RTVSPropertyOp7
 70
     1
102
RTVSPropertyOp8
 70
     1
102
RTVSPropertyOp9
 70
     1
102
RTVSPropertyOp10
 70
     1
102
RTVSPropertyOp11
 70
     1
102
RTVSPropertyOp12
 70
     1
102
RTVSPropertyOp13
 70
     1
102
RTVSPropertyOp14
 70
     1
102
RTVSPropertyOp15
 70
     1
102
RTVSPropertyOp16
 70
     1
102
RTVSPropertyOp17
 70
     1
102
RTVSPropertyOp18
 70
     1
102
RTVSPropertyOp19
 70
     1
102
RTVSPropertyOp20
 70
     1
102
RTVSPropertyOp21
 70
     1
102
RTVSPropertyOp22
 70
     1
102
RTVSPropertyOp23
 70
     1
102
RTVSPropertyOp24
 70
     1
102
RTVSPropertyOp25
 70
     1
102
RTVSPropertyOp26
 70
     1
102
RTVSPropertyOp27
 70
     1
102
RTVSPropertyOp28
 70
     1
102
RTVSPropertyOp29
 70
     1
102
RTVSPropertyOp30
 70
     1
102
RTVSPropertyOp31
 70
     1
102
RTVSPropertyOp32
 70
     1
  0
XRECORD
  5
2DF
102
{ACAD_REACTORS
330
2DE
102
}
330
2DE
100
AcDbXrecord
280
     1
102
RTVSPropertyOp0
 70
     1
102
RTVSPropertyOp1
 70
     1
102
RTVSPropertyOp2
 70
     1
102
RTVSPropertyOp3
 70
     1
102
RTVSPropertyOp4
 70
     1
102
RTVSPropertyOp5
 70
     1
102
RTVSPropertyOp6
 70
     1
102
RTVSPropertyOp7
 70
     1
102
RTVSPropertyOp8
 70
     1
102
RTVSPropertyOp9
 70
     1
102
RTVSPropertyOp10
 70
     1
102
RTVSPropertyOp11
 70
     1
102
RTVSPropertyOp12
 70
     1
102
RTVSPropertyOp13
 70
     1
102
RTVSPropertyOp14
 70
     1
102
RTVSPropertyOp15
 70
     1
102
RTVSPropertyOp16
 70
     1
102
RTVSPropertyOp17
 70
     1
102
RTVSPropertyOp18
 70
     1
102
RTVSPropertyOp19
 70
     1
102
RTVSPropertyOp20
 70
     1
102
RTVSPropertyOp21
 70
     1
102
RTVSPropertyOp22
 70
     1
102
RTVSPropertyOp23
 70
     1
102
RTVSPropertyOp24
 70
     1
102
RTVSPropertyOp25
 70
     1
102
RTVSPropertyOp26
 70
     1
102
RTVSPropertyOp27
 70
     1
102
RTVSPropertyOp28
 70
     1
102
RTVSPropertyOp29
 70
     1
102
RTVSPropertyOp30
 70
     1
102
RTVSPropertyOp31
 70
     1
102
RTVSPropertyOp32
 70
     1
  0
XRECORD
  5
2D3
102
{ACAD_REACTORS
330
2D2
102
}
330
2D2
100
AcDbXrecord
280
     1
102
RTVSPropertyOp0
 70
     1
102
RTVSPropertyOp1
 70
     1
102
RTVSPropertyOp2
 70
     1
102
RTVSPropertyOp3
 70
     1
102
RTVSPropertyOp4
 70
     1
102
RTVSPropertyOp5
 70
     1
102
RTVSPropertyOp6
 70
     1
102
RTVSPropertyOp7
 70
     1
102
RTVSPropertyOp8
 70
     1
102
RTVSPropertyOp9
 70
     1
102
RTVSPropertyOp10
 70
     1
102
RTVSPropertyOp11
 70
     1
102
RTVSPropertyOp12
 70
     1
102
RTVSPropertyOp13
 70
     1
102
RTVSPropertyOp14
 70
     1
102
RTVSPropertyOp15
 70
     1
102
RTVSPropertyOp16
 70
     1
102
RTVSPropertyOp17
 70
     1
102
RTVSPropertyOp18
 70
     1
102
RTVSPropertyOp19
 70
     1
102
RTVSPropertyOp20
 70
     1
102
RTVSPropertyOp21
 70
     1
102
RTVSPropertyOp22
 70
     1
102
RTVSPropertyOp23
 70
     1
102
RTVSPropertyOp24
 70
     1
102
RTVSPropertyOp25
 70
     1
102
RTVSPropertyOp26
 70
     1
102
RTVSPropertyOp27
 70
     1
102
RTVSPropertyOp28
 70
     1
102
RTVSPropertyOp29
 70
     1
102
RTVSPropertyOp30
 70
     1
102
RTVSPropertyOp31
 70
     1
102
RTVSPropertyOp32
 70
     1
  0
XRECORD
  5
2D5
102
{ACAD_REACTORS
330
2D4
102
}
330
2D4
100
AcDbXrecord
280
     1
102
RTVSPropertyOp0
 70
     1
102
RTVSPropertyOp1
 70
     1
102
RTVSPropertyOp2
 70
     1
102
RTVSPropertyOp3
 70
     1
102
RTVSPropertyOp4
 70
     1
102
RTVSPropertyOp5
 70
     1
102
RTVSPropertyOp6
 70
     1
102
RTVSPropertyOp7
 70
     1
102
RTVSPropertyOp8
 70
     1
102
RTVSPropertyOp9
 70
     1
102
RTVSPropertyOp10
 70
     1
102
RTVSPropertyOp11
 70
     1
102
RTVSPropertyOp12
 70
     1
102
RTVSPropertyOp13
 70
     1
102
RTVSPropertyOp14
 70
     1
102
RTVSPropertyOp15
 70
     1
102
RTVSPropertyOp16
 70
     1
102
RTVSPropertyOp17
 70
     1
102
RTVSPropertyOp18
 70
     1
102
RTVSPropertyOp19
 70
     1
102
RTVSPropertyOp20
 70
     1
102
RTVSPropertyOp21
 70
     1
102
RTVSPropertyOp22
 70
     1
102
RTVSPropertyOp23
 70
     1
102
RTVSPropertyOp24
 70
     1
102
RTVSPropertyOp25
 70
     1
102
RTVSPropertyOp26
 70
     1
102
RTVSPropertyOp27
 70
     1
102
RTVSPropertyOp28
 70
     1
102
RTVSPropertyOp29
 70
     1
102
RTVSPropertyOp30
 70
     1
102
RTVSPropertyOp31
 70
     1
102
RTVSPropertyOp32
 70
     1
  0
XRECORD
  5
2DD
102
{ACAD_REACTORS
330
2DC
102
}
330
2DC
100
AcDbXrecord
280
     1
102
RTVSPropertyOp0
 70
     1
102
RTVSPropertyOp1
 70
     1
102
RTVSPropertyOp2
 70
     1
102
RTVSPropertyOp3
 70
     1
102
RTVSPropertyOp4
 70
     1
102
RTVSPropertyOp5
 70
     1
102
RTVSPropertyOp6
 70
     1
102
RTVSPropertyOp7
 70
     1
102
RTVSPropertyOp8
 70
     1
102
RTVSPropertyOp9
 70
     1
102
RTVSPropertyOp10
 70
     1
102
RTVSPropertyOp11
 70
     1
102
RTVSPropertyOp12
 70
     1
102
RTVSPropertyOp13
 70
     1
102
RTVSPropertyOp14
 70
     1
102
RTVSPropertyOp15
 70
     1
102
RTVSPropertyOp16
 70
     1
102
RTVSPropertyOp17
 70
     1
102
RTVSPropertyOp18
 70
     1
102
RTVSPropertyOp19
 70
     1
102
RTVSPropertyOp20
 70
     1
102
RTVSPropertyOp21
 70
     1
102
RTVSPropertyOp22
 70
     1
102
RTVSPropertyOp23
 70
     1
102
RTVSPropertyOp24
 70
     1
102
RTVSPropertyOp25
 70
     1
102
RTVSPropertyOp26
 70
     1
102
RTVSPropertyOp27
 70
     1
102
RTVSPropertyOp28
 70
     1
102
RTVSPropertyOp29
 70
     1
102
RTVSPropertyOp30
 70
     1
102
RTVSPropertyOp31
 70
     1
102
RTVSPropertyOp32
 70
     1
  0
XRECORD
  5
2C1
102
{ACAD_REACTORS
330
2C0
102
}
330
2C0
100
AcDbXrecord
280
     1
102
RTVSPropertyOp0
 70
     1
102
RTVSPropertyOp1
 70
     1
102
RTVSPropertyOp2
 70
     1
102
RTVSPropertyOp3
 70
     1
102
RTVSPropertyOp4
 70
     1
102
RTVSPropertyOp5
 70
     1
102
RTVSPropertyOp6
 70
     1
102
RTVSPropertyOp7
 70
     1
102
RTVSPropertyOp8
 70
     1
102
RTVSPropertyOp9
 70
     1
102
RTVSPropertyOp10
 70
     1
102
RTVSPropertyOp11
 70
     1
102
RTVSPropertyOp12
 70
     1
102
RTVSPropertyOp13
 70
     1
102
RTVSPropertyOp14
 70
     1
102
RTVSPropertyOp15
 70
     1
102
RTVSPropertyOp16
 70
     1
102
RTVSPropertyOp17
 70
     1
102
RTVSPropertyOp18
 70
     1
102
RTVSPropertyOp19
 70
     1
102
RTVSPropertyOp20
 70
     1
102
RTVSPropertyOp21
 70
     1
102
RTVSPropertyOp22
 70
     1
102
RTVSPropertyOp23
 70
     1
102
RTVSPropertyOp24
 70
     1
102
RTVSPropertyOp25
 70
     1
102
RTVSPropertyOp26
 70
     1
102
RTVSPropertyOp27
 70
     1
102
RTVSPropertyOp28
 70
     1
102
RTVSPropertyOp29
 70
     1
102
RTVSPropertyOp30
 70
     1
102
RTVSPropertyOp31
 70
     1
102
RTVSPropertyOp32
 70
     1
  0
XRECORD
  5
2C3
102
{ACAD_REACTORS
330
2C2
102
}
330
2C2
100
AcDbXrecord
280
     1
102
RTVSPropertyOp0
 70
     1
102
RTVSPropertyOp1
 70
     1
102
RTVSPropertyOp2
 70
     1
102
RTVSPropertyOp3
 70
     1
102
RTVSPropertyOp4
 70
     1
102
RTVSPropertyOp5
 70
     1
102
RTVSPropertyOp6
 70
     1
102
RTVSPropertyOp7
 70
     1
102
RTVSPropertyOp8
 70
     1
102
RTVSPropertyOp9
 70
     1
102
RTVSPropertyOp10
 70
     1
102
RTVSPropertyOp11
 70
     1
102
RTVSPropertyOp12
 70
     1
102
RTVSPropertyOp13
 70
     1
102
RTVSPropertyOp14
 70
     1
102
RTVSPropertyOp15
 70
     1
102
RTVSPropertyOp16
 70
     1
102
RTVSPropertyOp17
 70
     1
102
RTVSPropertyOp18
 70
     1
102
RTVSPropertyOp19
 70
     1
102
RTVSPropertyOp20
 70
     1
102
RTVSPropertyOp21
 70
     1
102
RTVSPropertyOp22
 70
     1
102
RTVSPropertyOp23
 70
     1
102
RTVSPropertyOp24
 70
     1
102
RTVSPropertyOp25
 70
     1
102
RTVSPropertyOp26
 70
     1
102
RTVSPropertyOp27
 70
     1
102
RTVSPropertyOp28
 70
     1
102
RTVSPropertyOp29
 70
     1
102
RTVSPropertyOp30
 70
     1
102
RTVSPropertyOp31
 70
     1
102
RTVSPropertyOp32
 70
     1
  0
XRECORD
  5
2C5
102
{ACAD_REACTORS
330
2C4
102
}
330
2C4
100
AcDbXrecord
280
     1
102
RTVSPropertyOp0
 70
     1
102
RTVSPropertyOp1
 70
     1
102
RTVSPropertyOp2
 70
     1
102
RTVSPropertyOp3
 70
     1
102
RTVSPropertyOp4
 70
     1
102
RTVSPropertyOp5
 70
     1
102
RTVSPropertyOp6
 70
     1
102
RTVSPropertyOp7
 70
     1
102
RTVSPropertyOp8
 70
     1
102
RTVSPropertyOp9
 70
     1
102
RTVSPropertyOp10
 70
     1
102
RTVSPropertyOp11
 70
     1
102
RTVSPropertyOp12
 70
     1
102
RTVSPropertyOp13
 70
     1
102
RTVSPropertyOp14
 70
     1
102
RTVSPropertyOp15
 70
     1
102
RTVSPropertyOp16
 70
     1
102
RTVSPropertyOp17
 70
     1
102
RTVSPropertyOp18
 70
     1
102
RTVSPropertyOp19
 70
     1
102
RTVSPropertyOp20
 70
     1
102
RTVSPropertyOp21
 70
     1
102
RTVSPropertyOp22
 70
     1
102
RTVSPropertyOp23
 70
     1
102
RTVSPropertyOp24
 70
     1
102
RTVSPropertyOp25
 70
     1
102
RTVSPropertyOp26
 70
     1
102
RTVSPropertyOp27
 70
     1
102
RTVSPropertyOp28
 70
     1
102
RTVSPropertyOp29
 70
     1
102
RTVSPropertyOp30
 70
     1
102
RTVSPropertyOp31
 70
     1
102
RTVSPropertyOp32
 70
     1
  0
XRECORD
  5
2C7
102
{ACAD_REACTORS
330
2C6
102
}
330
2C6
100
AcDbXrecord
280
     1
102
RTVSPropertyOp0
 70
     1
102
RTVSPropertyOp1
 70
     1
102
RTVSPropertyOp2
 70
     1
102
RTVSPropertyOp3
 70
     1
102
RTVSPropertyOp4
 70
     1
102
RTVSPropertyOp5
 70
     1
102
RTVSPropertyOp6
 70
     1
102
RTVSPropertyOp7
 70
     1
102
RTVSPropertyOp8
 70
     1
102
RTVSPropertyOp9
 70
     1
102
RTVSPropertyOp10
 70
     1
102
RTVSPropertyOp11
 70
     1
102
RTVSPropertyOp12
 70
     1
102
RTVSPropertyOp13
 70
     1
102
RTVSPropertyOp14
 70
     1
102
RTVSPropertyOp15
 70
     1
102
RTVSPropertyOp16
 70
     1
102
RTVSPropertyOp17
 70
     1
102
RTVSPropertyOp18
 70
     1
102
RTVSPropertyOp19
 70
     1
102
RTVSPropertyOp20
 70
     1
102
RTVSPropertyOp21
 70
     1
102
RTVSPropertyOp22
 70
     1
102
RTVSPropertyOp23
 70
     1
102
RTVSPropertyOp24
 70
     1
102
RTVSPropertyOp25
 70
     1
102
RTVSPropertyOp26
 70
     1
102
RTVSPropertyOp27
 70
     1
102
RTVSPropertyOp28
 70
     1
102
RTVSPropertyOp29
 70
     1
102
RTVSPropertyOp30
 70
     1
102
RTVSPropertyOp31
 70
     1
102
RTVSPropertyOp32
 70
     1
  0
XRECORD
  5
2DB
102
{ACAD_REACTORS
330
2DA
102
}
330
2DA
100
AcDbXrecord
280
     1
102
RTVSPropertyOp0
 70
     1
102
RTVSPropertyOp1
 70
     1
102
RTVSPropertyOp2
 70
     1
102
RTVSPropertyOp3
 70
     1
102
RTVSPropertyOp4
 70
     1
102
RTVSPropertyOp5
 70
     1
102
RTVSPropertyOp6
 70
     1
102
RTVSPropertyOp7
 70
     1
102
RTVSPropertyOp8
 70
     1
102
RTVSPropertyOp9
 70
     1
102
RTVSPropertyOp10
 70
     1
102
RTVSPropertyOp11
 70
     1
102
RTVSPropertyOp12
 70
     1
102
RTVSPropertyOp13
 70
     1
102
RTVSPropertyOp14
 70
     1
102
RTVSPropertyOp15
 70
     1
102
RTVSPropertyOp16
 70
     1
102
RTVSPropertyOp17
 70
     1
102
RTVSPropertyOp18
 70
     1
102
RTVSPropertyOp19
 70
     1
102
RTVSPropertyOp20
 70
     1
102
RTVSPropertyOp21
 70
     1
102
RTVSPropertyOp22
 70
     1
102
RTVSPropertyOp23
 70
     1
102
RTVSPropertyOp24
 70
     1
102
RTVSPropertyOp25
 70
     1
102
RTVSPropertyOp26
 70
     1
102
RTVSPropertyOp27
 70
     1
102
RTVSPropertyOp28
 70
     1
102
RTVSPropertyOp29
 70
     1
102
RTVSPropertyOp30
 70
     1
102
RTVSPropertyOp31
 70
     1
102
RTVSPropertyOp32
 70
     1
  0
XRECORD
  5
2D1
102
{ACAD_REACTORS
330
2D0
102
}
330
2D0
100
AcDbXrecord
280
     1
102
RTVSPropertyOp0
 70
     1
102
RTVSPropertyOp1
 70
     1
102
RTVSPropertyOp2
 70
     1
102
RTVSPropertyOp3
 70
     1
102
RTVSPropertyOp4
 70
     1
102
RTVSPropertyOp5
 70
     1
102
RTVSPropertyOp6
 70
     1
102
RTVSPropertyOp7
 70
     1
102
RTVSPropertyOp8
 70
     1
102
RTVSPropertyOp9
 70
     1
102
RTVSPropertyOp10
 70
     1
102
RTVSPropertyOp11
 70
     1
102
RTVSPropertyOp12
 70
     1
102
RTVSPropertyOp13
 70
     1
102
RTVSPropertyOp14
 70
     1
102
RTVSPropertyOp15
 70
     1
102
RTVSPropertyOp16
 70
     1
102
RTVSPropertyOp17
 70
     1
102
RTVSPropertyOp18
 70
     1
102
RTVSPropertyOp19
 70
     1
102
RTVSPropertyOp20
 70
     1
102
RTVSPropertyOp21
 70
     1
102
RTVSPropertyOp22
 70
     1
102
RTVSPropertyOp23
 70
     1
102
RTVSPropertyOp24
 70
     1
102
RTVSPropertyOp25
 70
     1
102
RTVSPropertyOp26
 70
     1
102
RTVSPropertyOp27
 70
     1
102
RTVSPropertyOp28
 70
     1
102
RTVSPropertyOp29
 70
     1
102
RTVSPropertyOp30
 70
     1
102
RTVSPropertyOp31
 70
     1
102
RTVSPropertyOp32
 70
     1
  0
XRECORD
  5
2D9
102
{ACAD_REACTORS
330
2D8
102
}
330
2D8
100
AcDbXrecord
280
     1
102
RTVSPropertyOp0
 70
     1
102
RTVSPropertyOp1
 70
     1
102
RTVSPropertyOp2
 70
     1
102
RTVSPropertyOp3
 70
     1
102
RTVSPropertyOp4
 70
     1
102
RTVSPropertyOp5
 70
     1
102
RTVSPropertyOp6
 70
     1
102
RTVSPropertyOp7
 70
     1
102
RTVSPropertyOp8
 70
     1
102
RTVSPropertyOp9
 70
     1
102
RTVSPropertyOp10
 70
     1
102
RTVSPropertyOp11
 70
     1
102
RTVSPropertyOp12
 70
     1
102
RTVSPropertyOp13
 70
     1
102
RTVSPropertyOp14
 70
     1
102
RTVSPropertyOp15
 70
     1
102
RTVSPropertyOp16
 70
     1
102
RTVSPropertyOp17
 70
     1
102
RTVSPropertyOp18
 70
     1
102
RTVSPropertyOp19
 70
     1
102
RTVSPropertyOp20
 70
     1
102
RTVSPropertyOp21
 70
     1
102
RTVSPropertyOp22
 70
     1
102
RTVSPropertyOp23
 70
     1
102
RTVSPropertyOp24
 70
     1
102
RTVSPropertyOp25
 70
     1
102
RTVSPropertyOp26
 70
     1
102
RTVSPropertyOp27
 70
     1
102
RTVSPropertyOp28
 70
     1
102
RTVSPropertyOp29
 70
     1
102
RTVSPropertyOp30
 70
     1
102
RTVSPropertyOp31
 70
     1
102
RTVSPropertyOp32
 70
     1
  0
ENDSEC
  0
EOF
