  0
SECTION
  2
HEADER
  9
$ACADVER
  1
AC1018
  9
$ACADMAINTVER
 70
     0
  9
$DWGCODEPAGE
  3
ANSI_1252
  9
$INSBASE
 10
0.0
 20
0.0
 30
0.0
  9
$EXTMIN
 10
-231.888007011963
 20
-132.991505826512
 30
0.0
  9
$EXTMAX
 10
222.7841646002617
 20
109.761881720986
 30
0.0
  9
$LIMMIN
 10
0.0
 20
0.0
  9
$LIMMAX
 10
12.0
 20
9.0
  9
$ORTHOMODE
 70
     0
  9
$REGENMODE
 70
     1
  9
$FILLMODE
 70
     1
  9
$QTEXTMODE
 70
     0
  9
$MIRRTEXT
 70
     1
  9
$LTSCALE
 40
1.0
  9
$ATTMODE
 70
     1
  9
$TEXTSIZE
 40
0.2
  9
$TRACEWID
 40
0.05
  9
$TEXTSTYLE
  7
Standard
  9
$CLAYER
  8
0
  9
$CELTYPE
  6
ByLayer
  9
$CECOLOR
 62
   256
  9
$CELTSCALE
 40
1.0
  9
$DISPSILH
 70
     0
  9
$DIMSCALE
 40
1.0
  9
$DIMASZ
 40
0.18
  9
$DIMEXO
 40
0.0625
  9
$DIMDLI
 40
0.38
  9
$DIMRND
 40
0.0
  9
$DIMDLE
 40
0.0
  9
$DIMEXE
 40
0.18
  9
$DIMTP
 40
0.0
  9
$DIMTM
 40
0.0
  9
$DIMTXT
 40
0.18
  9
$DIMCEN
 40
0.09
  9
$DIMTSZ
 40
0.0
  9
$DIMTOL
 70
     0
  9
$DIMLIM
 70
     0
  9
$DIMTIH
 70
     1
  9
$DIMTOH
 70
     1
  9
$DIMSE1
 70
     0
  9
$DIMSE2
 70
     0
  9
$DIMTAD
 70
     0
  9
$DIMZIN
 70
     0
  9
$DIMBLK
  1

  9
$DIMASO
 70
     1
  9
$DIMSHO
 70
     1
  9
$DIMPOST
  1

  9
$DIMAPOST
  1

  9
$DIMALT
 70
     0
  9
$DIMALTD
 70
     2
  9
$DIMALTF
 40
25.4
  9
$DIMLFAC
 40
1.0
  9
$DIMTOFL
 70
     0
  9
$DIMTVP
 40
0.0
  9
$DIMTIX
 70
     0
  9
$DIMSOXD
 70
     0
  9
$DIMSAH
 70
     0
  9
$DIMBLK1
  1

  9
$DIMBLK2
  1

  9
$DIMSTYLE
  2
Standard
  9
$DIMCLRD
 70
     0
  9
$DIMCLRE
 70
     0
  9
$DIMCLRT
 70
     0
  9
$DIMTFAC
 40
1.0
  9
$DIMGAP
 40
0.09
  9
$DIMJUST
 70
     0
  9
$DIMSD1
 70
     0
  9
$DIMSD2
 70
     0
  9
$DIMTOLJ
 70
     1
  9
$DIMTZIN
 70
     0
  9
$DIMALTZ
 70
     0
  9
$DIMALTTZ
 70
     0
  9
$DIMUPT
 70
     0
  9
$DIMDEC
 70
     4
  9
$DIMTDEC
 70
     4
  9
$DIMALTU
 70
     2
  9
$DIMALTTD
 70
     2
  9
$DIMTXSTY
  7
Standard
  9
$DIMAUNIT
 70
     0
  9
$DIMADEC
 70
     0
  9
$DIMALTRND
 40
0.0
  9
$DIMAZIN
 70
     0
  9
$DIMDSEP
 70
    46
  9
$DIMATFIT
 70
     3
  9
$DIMFRAC
 70
     0
  9
$DIMLDRBLK
  1

  9
$DIMLUNIT
 70
     2
  9
$DIMLWD
 70
    -2
  9
$DIMLWE
 70
    -2
  9
$DIMTMOVE
 70
     0
  9
$LUNITS
 70
     2
  9
$LUPREC
 70
     4
  9
$SKETCHINC
 40
0.1
  9
$FILLETRAD
 40
0.5
  9
$AUNITS
 70
     0
  9
$AUPREC
 70
     0
  9
$MENU
  1
.
  9
$ELEVATION
 40
0.0
  9
$PELEVATION
 40
0.0
  9
$THICKNESS
 40
0.0
  9
$LIMCHECK
 70
     0
  9
$CHAMFERA
 40
0.5
  9
$CHAMFERB
 40
0.5
  9
$CHAMFERC
 40
1.0
  9
$CHAMFERD
 40
0.0
  9
$SKPOLY
 70
     0
  9
$TDCREATE
 40
2456434.343016748
  9
$TDUCREATE
 40
2456434.259683414
  9
$TDUPDATE
 40
2456434.343016759
  9
$TDUUPDATE
 40
2456434.259683426
  9
$TDINDWG
 40
0.0000000116
  9
$TDUSRTIMER
 40
0.0000000116
  9
$USRTIMER
 70
     1
  9
$ANGBASE
 50
0.0
  9
$ANGDIR
 70
     0
  9
$PDMODE
 70
     0
  9
$PDSIZE
 40
0.0
  9
$PLINEWID
 40
0.0
  9
$SPLFRAME
 70
     0
  9
$SPLINETYPE
 70
     6
  9
$SPLINESEGS
 70
     8
  9
$HANDSEED
  5
245
  9
$SURFTAB1
 70
     6
  9
$SURFTAB2
 70
     6
  9
$SURFTYPE
 70
     6
  9
$SURFU
 70
     6
  9
$SURFV
 70
     6
  9
$UCSBASE
  2

  9
$UCSNAME
  2

  9
$UCSORG
 10
0.0
 20
0.0
 30
0.0
  9
$UCSXDIR
 10
1.0
 20
0.0
 30
0.0
  9
$UCSYDIR
 10
0.0
 20
1.0
 30
0.0
  9
$UCSORTHOREF
  2

  9
$UCSORTHOVIEW
 70
     0
  9
$UCSORGTOP
 10
0.0
 20
0.0
 30
0.0
  9
$UCSORGBOTTOM
 10
0.0
 20
0.0
 30
0.0
  9
$UCSORGLEFT
 10
0.0
 20
0.0
 30
0.0
  9
$UCSORGRIGHT
 10
0.0
 20
0.0
 30
0.0
  9
$UCSORGFRONT
 10
0.0
 20
0.0
 30
0.0
  9
$UCSORGBACK
 10
0.0
 20
0.0
 30
0.0
  9
$PUCSBASE
  2

  9
$PUCSNAME
  2

  9
$PUCSORG
 10
0.0
 20
0.0
 30
0.0
  9
$PUCSXDIR
 10
1.0
 20
0.0
 30
0.0
  9
$PUCSYDIR
 10
0.0
 20
1.0
 30
0.0
  9
$PUCSORTHOREF
  2

  9
$PUCSORTHOVIEW
 70
     0
  9
$PUCSORGTOP
 10
0.0
 20
0.0
 30
0.0
  9
$PUCSORGBOTTOM
 10
0.0
 20
0.0
 30
0.0
  9
$PUCSORGLEFT
 10
0.0
 20
0.0
 30
0.0
  9
$PUCSORGRIGHT
 10
0.0
 20
0.0
 30
0.0
  9
$PUCSORGFRONT
 10
0.0
 20
0.0
 30
0.0
  9
$PUCSORGBACK
 10
0.0
 20
0.0
 30
0.0
  9
$USERI1
 70
     0
  9
$USERI2
 70
     0
  9
$USERI3
 70
     0
  9
$USERI4
 70
     0
  9
$USERI5
 70
     0
  9
$USERR1
 40
16.5
  9
$USERR2
 40
0.0
  9
$USERR3
 40
0.0
  9
$USERR4
 40
0.0
  9
$USERR5
 40
0.0
  9
$WORLDVIEW
 70
     1
  9
$SHADEDGE
 70
     3
  9
$SHADEDIF
 70
    70
  9
$TILEMODE
 70
     1
  9
$MAXACTVP
 70
    64
  9
$PINSBASE
 10
0.0
 20
0.0
 30
0.0
  9
$PLIMCHECK
 70
     0
  9
$PEXTMIN
 10
1.00000000000000E+20
 20
1.00000000000000E+20
 30
1.00000000000000E+20
  9
$PEXTMAX
 10
-1.00000000000000E+20
 20
-1.00000000000000E+20
 30
-1.00000000000000E+20
  9
$PLIMMIN
 10
0.0
 20
0.0
  9
$PLIMMAX
 10
12.0
 20
9.0
  9
$UNITMODE
 70
     0
  9
$VISRETAIN
 70
     1
  9
$PLINEGEN
 70
     0
  9
$PSLTSCALE
 70
     1
  9
$TREEDEPTH
 70
  3020
  9
$CMLSTYLE
  2
Standard
  9
$CMLJUST
 70
     0
  9
$CMLSCALE
 40
1.0
  9
$PROXYGRAPHICS
 70
     1
  9
$MEASUREMENT
 70
     1
  9
$CELWEIGHT
370
    -1
  9
$ENDCAPS
280
     0
  9
$JOINSTYLE
280
     0
  9
$LWDISPLAY
290
     0
  9
$INSUNITS
 70
     1
  9
$HYPERLINKBASE
  1

  9
$STYLESHEET
  1

  9
$XEDIT
290
     1
  9
$CEPSNTYPE
380
     0
  9
$PSTYLEMODE
290
     1
  9
$FINGERPRINTGUID
  2
{C98FDCB8-259B-42EE-809B-90BF59B0B9F5}
  9
$VERSIONGUID
  2
{FAEB1C32-E019-11D5-929B-00C0DF256EC4}
  9
$EXTNAMES
290
     1
  9
$PSVPSCALE
 40
0.0
  9
$OLESTARTUP
290
     0
  9
$SORTENTS
280
   127
  9
$INDEXCTL
280
     0
  9
$HIDETEXT
280
     1
  9
$XCLIPFRAME
290
     0
  9
$HALOGAP
280
     0
  9
$OBSCOLOR
 70
   257
  9
$OBSLTYPE
280
     0
  9
$INTERSECTIONDISPLAY
280
     0
  9
$INTERSECTIONCOLOR
 70
   257
  9
$DIMASSOC
280
     2
  9
$PROJECTNAME
  1

  0
ENDSEC
  0
SECTION
  2
CLASSES
  0
CLASS
  1
ACDBDICTIONARYWDFLT
  2
AcDbDictionaryWithDefault
  3
ObjectDBX Classes
 90
        0
 91
        4
280
     0
281
     0
  0
CLASS
  1
VISUALSTYLE
  2
AcDbVisualStyle
  3
ObjectDBX Classes
 90
     4095
 91
        4
280
     0
281
     0
  0
CLASS
  1

  2
exOdDbCircle
  3

 90
        0
 91
        4
280
     0
281
     1
  0
CLASS
  1
SCALE
  2
AcDbScale
  3
ObjectDBX Classes
 90
     1153
 91
        4
280
     0
281
     0
  0
CLASS
  1
DICTIONARYVAR
  2
AcDbDictionaryVar
  3
ObjectDBX Classes
 90
        0
 91
        4
280
     0
281
     0
  0
ENDSEC
  0
SECTION
  2
TABLES
  0
TABLE
  2
VPORT
  5
8
330
0
100
AcDbSymbolTable
 70
     1
  0
VPORT
  5
29
330
8
100
AcDbSymbolTableRecord
100
AcDbViewportTableRecord
  2
*Active
 70
     0
 10
0.0
 20
0.0
 11
1.0
 21
1.0
 12
-4.55192120585065
 22
-11.614812052763
 13
0.0
 23
0.0
 14
0.5
 24
0.5
 15
0.5
 25
0.5
 16
0.0
 26
0.0
 36
1.0
 17
0.0
 27
0.0
 37
0.0
 40
312.0646882597554
 41
1.60267857142857
 42
50.0
 43
0.0
 44
0.0
 50
0.0
 51
0.0
 71
     0
 72
   100
 73
     1
 74
     3
 75
     0
 76
     0
 77
     0
 78
     0
281
     0
 65
     1
110
0.0
120
0.0
130
0.0
111
1.0
121
0.0
131
0.0
112
0.0
122
1.0
132
0.0
 79
     0
146
0.0
  0
ENDTAB
  0
TABLE
  2
LTYPE
  5
5
330
0
100
AcDbSymbolTable
 70
     8
  0
LTYPE
  5
14
330
5
100
AcDbSymbolTableRecord
100
AcDbLinetypeTableRecord
  2
ByBlock
 70
     0
  3

 72
    65
 73
     0
 40
0.0
  0
LTYPE
  5
15
330
5
100
AcDbSymbolTableRecord
100
AcDbLinetypeTableRecord
  2
ByLayer
 70
     0
  3

 72
    65
 73
     0
 40
0.0
  0
LTYPE
  5
16
330
5
100
AcDbSymbolTableRecord
100
AcDbLinetypeTableRecord
  2
Continuous
 70
     0
  3
Solid line
 72
    65
 73
     0
 40
0.0
  0
LTYPE
  5
3B
330
5
100
AcDbSymbolTableRecord
100
AcDbLinetypeTableRecord
  2
DASHED
 70
     0
  3
Dashed
 72
    65
 73
     2
 40
15.0
 49
7.0
 74
     0
 49
-8.0
 74
     0
  0
LTYPE
  5
3C
330
5
100
AcDbSymbolTableRecord
100
AcDbLinetypeTableRecord
  2
DOTTED
 70
     0
  3
Dotted
 72
    65
 73
     2
 40
1.0
 49
0.0
 74
     0
 49
-1.0
 74
     0
  0
LTYPE
  5
3D
330
5
100
AcDbSymbolTableRecord
100
AcDbLinetypeTableRecord
  2
DOT_CENTER
 70
     0
  3
Dot_Center
 72
    65
 73
     4
 40
14.0
 49
12.0
 74
     0
 49
-1.0
 74
     0
 49
0.0
 74
     0
 49
-1.0
 74
     0
  0
LTYPE
  5
3E
330
5
100
AcDbSymbolTableRecord
100
AcDbLinetypeTableRecord
  2
LONG_DASHED
 70
     0
  3
Long_Dashed
 72
    65
 73
     2
 40
15.0
 49
10.0
 74
     0
 49
-5.0
 74
     0
  0
LTYPE
  5
3F
330
5
100
AcDbSymbolTableRecord
100
AcDbLinetypeTableRecord
  2
DASH_CENTER
 70
     0
  3
Dash_Center
 72
    65
 73
     4
 40
14.0
 49
11.0
 74
     0
 49
-1.0
 74
     0
 49
1.0
 74
     0
 49
-1.0
 74
     0
  0
LTYPE
  5
40
330
5
100
AcDbSymbolTableRecord
100
AcDbLinetypeTableRecord
  2
PHANTOM
 70
     0
  3
Phantom
 72
    65
 73
     6
 40
13.0
 49
10.0
 74
     0
 49
-1.0
 74
     0
 49
0.0
 74
     0
 49
-1.0
 74
     0
 49
0.0
 74
     0
 49
-1.0
 74
     0
  0
LTYPE
  5
41
330
5
100
AcDbSymbolTableRecord
100
AcDbLinetypeTableRecord
  2
CENTER_DASH_DASH
 70
     0
  3
Center_Dash_Dash
 72
    65
 73
     6
 40
14.0
 49
9.0
 74
     0
 49
-1.0
 74
     0
 49
1.0
 74
     0
 49
-1.0
 74
     0
 49
1.0
 74
     0
 49
-1.0
 74
     0
  0
ENDTAB
  0
TABLE
  2
LAYER
  5
2
330
0
100
AcDbSymbolTable
 70
     2
  0
LAYER
  5
10
330
2
100
AcDbSymbolTableRecord
100
AcDbLayerTableRecord
  2
0
 70
     0
 62
     7
  6
Continuous
370
    -3
390
F
  0
LAYER
  5
42
330
2
100
AcDbSymbolTableRecord
100
AcDbLayerTableRecord
  2
1
 70
     0
 62
     7
  6
Continuous
370
    -3
390
F
  0
ENDTAB
  0
TABLE
  2
STYLE
  5
3
330
0
100
AcDbSymbolTable
 70
     2
  0
STYLE
  5
11
330
3
100
AcDbSymbolTableRecord
100
AcDbTextStyleTableRecord
  2
Standard
 70
     0
 40
0.0
 41
1.0
 50
0.0
 71
     0
 42
0.2
  3
txt
  4

  0
STYLE
  5
121
330
3
100
AcDbSymbolTableRecord
100
AcDbTextStyleTableRecord
  2
CONVERTER_11
 70
     0
 40
0.0
 41
0.9
 50
0.0
 71
     0
 42
0.2
  3
txt.shx
  4

  0
ENDTAB
  0
TABLE
  2
VIEW
  5
6
330
0
100
AcDbSymbolTable
 70
     0
  0
ENDTAB
  0
TABLE
  2
UCS
  5
7
330
0
100
AcDbSymbolTable
 70
     0
  0
ENDTAB
  0
TABLE
  2
APPID
  5
9
330
0
100
AcDbSymbolTable
 70
     1
  0
APPID
  5
12
330
9
100
AcDbSymbolTableRecord
100
AcDbRegAppTableRecord
  2
ACAD
 70
     0
  0
ENDTAB
  0
TABLE
  2
DIMSTYLE
  5
A
330
0
100
AcDbSymbolTable
 70
    19
100
AcDbDimStyleTable
  0
DIMSTYLE
105
27
330
A
100
AcDbSymbolTableRecord
100
AcDbDimStyleTableRecord
  2
Standard
 70
     0
340
11
  0
DIMSTYLE
105
153
102
{ACAD_REACTORS
330
154
102
}
330
A
100
AcDbSymbolTableRecord
100
AcDbDimStyleTableRecord
  2
ME10_DIM_10
 70
     0
  3
3mm (<>``)
 41
3.5
 42
0.0
 44
2.0
 73
     0
 74
     0
 77
     1
 78
     4
140
3.5
144
0.03937007874016
147
2.0
172
     1
173
     1
176
     2
177
     2
178
     2
271
     3
340
121
  0
DIMSTYLE
105
15E
102
{ACAD_REACTORS
330
15F
102
}
330
A
100
AcDbSymbolTableRecord
100
AcDbDimStyleTableRecord
  2
ME10_DIM_11
 70
     0
  3
132mm (<>``)
 41
3.5
 42
0.0
 44
2.0
 73
     0
 74
     0
 77
     1
 78
     4
140
3.5
144
0.03937007874016
147
2.0
172
     1
173
     1
176
     2
177
     2
178
     2
271
     3
340
121
  0
DIMSTYLE
105
169
102
{ACAD_REACTORS
330
16A
102
}
330
A
100
AcDbSymbolTableRecord
100
AcDbDimStyleTableRecord
  2
ME10_DIM_12
 70
     0
  3
155mm (<>``)
 41
3.5
 42
0.0
 44
2.0
 73
     0
 74
     0
 77
     1
 78
     4
140
3.5
144
0.03937007874016
147
2.0
172
     1
173
     1
176
     2
177
     2
178
     2
271
     3
340
121
  0
DIMSTYLE
105
175
102
{ACAD_REACTORS
330
176
102
}
330
A
100
AcDbSymbolTableRecord
100
AcDbDimStyleTableRecord
  2
ME10_DIM_13
 70
     0
  3
18mm (<>``)
 41
3.5
 42
0.0
 44
2.0
 73
     0
 74
     0
 77
     1
 78
     4
140
3.5
144
0.03937007874016
147
2.0
172
     1
173
     1
176
     2
177
     2
178
     2
271
     3
340
121
  0
DIMSTYLE
105
181
102
{ACAD_REACTORS
330
182
102
}
330
A
100
AcDbSymbolTableRecord
100
AcDbDimStyleTableRecord
  2
ME10_DIM_14
 70
     0
  3
21mm (<>``)
 41
3.5
 42
0.0
 44
2.0
 73
     0
 74
     0
 77
     1
 78
     4
140
3.5
144
0.03937007874016
147
2.0
172
     1
173
     1
176
     2
177
     2
178
     2
271
     3
340
121
  0
DIMSTYLE
105
18D
102
{ACAD_REACTORS
330
18E
102
}
330
A
100
AcDbSymbolTableRecord
100
AcDbDimStyleTableRecord
  2
ME10_DIM_15
 70
     0
  3
24mm (<>``)
 41
3.5
 42
0.0
 44
2.0
 73
     0
 74
     0
 77
     1
 78
     4
140
3.5
144
0.03937007874016
147
2.0
172
     1
173
     1
176
     2
177
     2
178
     2
271
     3
340
121
  0
DIMSTYLE
105
19A
102
{ACAD_REACTORS
330
19B
102
}
330
A
100
AcDbSymbolTableRecord
100
AcDbDimStyleTableRecord
  2
ME10_DIM_16
 70
     0
  3
4mm (<>``)
 41
3.5
 42
0.0
 44
2.0
 73
     0
 74
     0
 77
     1
 78
     4
140
3.5
144
0.03937007874016
147
2.0
172
     1
173
     1
176
     2
177
     2
178
     2
271
     3
340
121
  0
DIMSTYLE
105
1A6
102
{ACAD_REACTORS
330
1A7
102
}
330
A
100
AcDbSymbolTableRecord
100
AcDbDimStyleTableRecord
  2
ME10_DIM_17
 70
     0
  3
24mm (<>``)
 41
3.5
 42
0.0
 44
2.0
 73
     0
 74
     0
 77
     1
 78
     4
140
3.5
144
0.03937007874016
147
2.0
172
     1
173
     1
176
     2
177
     2
178
     2
271
     3
340
121
  0
DIMSTYLE
105
1B3
102
{ACAD_REACTORS
330
1B4
102
}
330
A
100
AcDbSymbolTableRecord
100
AcDbDimStyleTableRecord
  2
ME10_DIM_18
 70
     0
  3
3mm (<>``)
 41
3.5
 42
0.0
 44
2.0
 73
     0
 74
     0
 77
     1
 78
     4
140
3.5
144
0.03937007874016
147
2.0
172
     1
173
     1
176
     2
177
     2
178
     2
271
     3
340
121
  0
DIMSTYLE
105
1BF
102
{ACAD_REACTORS
330
1C0
102
}
330
A
100
AcDbSymbolTableRecord
100
AcDbDimStyleTableRecord
  2
ME10_DIM_19
 70
     0
  3
15mm (<>``)
 41
3.5
 42
0.0
 44
2.0
 73
     0
 74
     0
 77
     1
 78
     4
140
3.5
144
0.03937007874016
147
2.0
172
     1
173
     1
176
     2
177
     2
178
     2
271
     3
340
121
  0
DIMSTYLE
105
1CC
102
{ACAD_REACTORS
330
1CD
102
}
330
A
100
AcDbSymbolTableRecord
100
AcDbDimStyleTableRecord
  2
ME10_DIM_20
 70
     0
  3
4mm (<>``)
 41
3.5
 42
0.0
 44
2.0
 73
     0
 74
     0
 77
     1
 78
     4
140
3.5
144
0.03937007874016
147
2.0
172
     1
173
     1
176
     2
177
     2
178
     2
271
     3
340
121
  0
DIMSTYLE
105
1D8
102
{ACAD_REACTORS
330
1D9
102
}
330
A
100
AcDbSymbolTableRecord
100
AcDbDimStyleTableRecord
  2
ME10_DIM_21
 70
     0
  3
18mm (<>``)
 41
3.5
 42
0.0
 44
2.0
 73
     0
 74
     0
 77
     1
 78
     4
140
3.5
144
0.03937007874016
147
2.0
172
     1
173
     1
176
     2
177
     2
178
     2
271
     3
340
121
  0
DIMSTYLE
105
1E4
102
{ACAD_REACTORS
330
1E5
102
}
330
A
100
AcDbSymbolTableRecord
100
AcDbDimStyleTableRecord
  2
ME10_DIM_22
 70
     0
  3
16mm (<>``)
 41
3.5
 42
0.0
 44
2.0
 73
     0
 74
     0
 77
     1
 78
     4
140
3.5
144
0.03937007874016
147
2.0
172
     1
173
     1
176
     2
177
     2
178
     2
271
     3
340
121
  0
DIMSTYLE
105
1F0
102
{ACAD_REACTORS
330
1F1
102
}
330
A
100
AcDbSymbolTableRecord
100
AcDbDimStyleTableRecord
  2
ME10_DIM_23
 70
     0
  3
10mm (<>``)
 41
3.5
 42
0.0
 44
2.0
 73
     0
 74
     0
 77
     1
 78
     4
140
3.5
144
0.03937007874016
147
2.0
172
     1
173
     1
176
     2
177
     2
178
     2
271
     3
340
121
  0
DIMSTYLE
105
1FC
102
{ACAD_REACTORS
330
1FD
102
}
330
A
100
AcDbSymbolTableRecord
100
AcDbDimStyleTableRecord
  2
ME10_DIM_24
 70
     0
  3
27mm (<>``)
 41
3.5
 42
0.0
 44
2.0
 73
     0
 74
     0
 77
     1
 78
     4
140
3.5
144
0.03937007874016
147
2.0
172
     1
173
     1
176
     2
177
     2
178
     2
271
     3
340
121
  0
DIMSTYLE
105
207
102
{ACAD_REACTORS
330
208
102
}
330
A
100
AcDbSymbolTableRecord
100
AcDbDimStyleTableRecord
  2
ME10_DIM_25
 70
     0
  3
120mm (<>``)
 41
3.5
 42
0.0
 44
2.0
 73
     0
 74
     0
 77
     1
 78
     4
140
3.5
144
0.03937007874016
147
2.0
172
     1
173
     1
176
     2
177
     2
178
     2
271
     3
340
121
  0
DIMSTYLE
105
212
102
{ACAD_REACTORS
330
213
102
}
330
A
100
AcDbSymbolTableRecord
100
AcDbDimStyleTableRecord
  2
ME10_DIM_26
 70
     0
  3
137mm (<>``)
 41
3.5
 42
0.0
 44
2.0
 73
     0
 74
     0
 77
     1
 78
     4
140
3.5
144
0.03937007874016
147
2.0
172
     1
173
     1
176
     2
177
     2
178
     2
271
     3
340
121
  0
DIMSTYLE
105
21D
102
{ACAD_REACTORS
330
21E
102
}
330
A
100
AcDbSymbolTableRecord
100
AcDbDimStyleTableRecord
  2
ME10_DIM_27
 70
     0
  3
155mm (<>``)
 41
3.5
 42
0.0
 44
2.0
 73
     0
 74
     0
 77
     1
 78
     4
140
3.5
144
0.03937007874016
147
2.0
172
     1
173
     1
176
     2
177
     2
178
     2
271
     3
340
121
  0
ENDTAB
  0
TABLE
  2
BLOCK_RECORD
  5
1
330
0
100
AcDbSymbolTable
 70
    23
  0
BLOCK_RECORD
  5
1F
330
1
100
AcDbSymbolTableRecord
100
AcDbBlockTableRecord
  2
*Model_Space
340
22
  0
BLOCK_RECORD
  5
1B
330
1
100
AcDbSymbolTableRecord
100
AcDbBlockTableRecord
  2
*Paper_Space
340
1E
  0
BLOCK_RECORD
  5
23
330
1
100
AcDbSymbolTableRecord
100
AcDbBlockTableRecord
  2
*Paper_Space0
340
26
  0
BLOCK_RECORD
  5
148
330
1
100
AcDbSymbolTableRecord
100
AcDbBlockTableRecord
  2
*D1
340
0
  0
BLOCK_RECORD
  5
155
330
1
100
AcDbSymbolTableRecord
100
AcDbBlockTableRecord
  2
*D2
340
0
  0
BLOCK_RECORD
  5
160
330
1
100
AcDbSymbolTableRecord
100
AcDbBlockTableRecord
  2
*D3
340
0
  0
BLOCK_RECORD
  5
16B
330
1
100
AcDbSymbolTableRecord
100
AcDbBlockTableRecord
  2
*D4
340
0
  0
BLOCK_RECORD
  5
177
330
1
100
AcDbSymbolTableRecord
100
AcDbBlockTableRecord
  2
*D5
340
0
  0
BLOCK_RECORD
  5
183
330
1
100
AcDbSymbolTableRecord
100
AcDbBlockTableRecord
  2
*D6
340
0
  0
BLOCK_RECORD
  5
18F
330
1
100
AcDbSymbolTableRecord
100
AcDbBlockTableRecord
  2
*D7
340
0
  0
BLOCK_RECORD
  5
19C
330
1
100
AcDbSymbolTableRecord
100
AcDbBlockTableRecord
  2
*D8
340
0
  0
BLOCK_RECORD
  5
1A8
330
1
100
AcDbSymbolTableRecord
100
AcDbBlockTableRecord
  2
*D9
340
0
  0
BLOCK_RECORD
  5
1B5
330
1
100
AcDbSymbolTableRecord
100
AcDbBlockTableRecord
  2
*D10
340
0
  0
BLOCK_RECORD
  5
1C1
330
1
100
AcDbSymbolTableRecord
100
AcDbBlockTableRecord
  2
*D11
340
0
  0
BLOCK_RECORD
  5
1CE
330
1
100
AcDbSymbolTableRecord
100
AcDbBlockTableRecord
  2
*D12
340
0
  0
BLOCK_RECORD
  5
1DA
330
1
100
AcDbSymbolTableRecord
100
AcDbBlockTableRecord
  2
*D13
340
0
  0
BLOCK_RECORD
  5
1E6
330
1
100
AcDbSymbolTableRecord
100
AcDbBlockTableRecord
  2
*D14
340
0
  0
BLOCK_RECORD
  5
1F2
330
1
100
AcDbSymbolTableRecord
100
AcDbBlockTableRecord
  2
*D15
340
0
  0
BLOCK_RECORD
  5
1FE
330
1
100
AcDbSymbolTableRecord
100
AcDbBlockTableRecord
  2
*D16
340
0
  0
BLOCK_RECORD
  5
209
330
1
100
AcDbSymbolTableRecord
100
AcDbBlockTableRecord
  2
*D17
340
0
  0
BLOCK_RECORD
  5
214
330
1
100
AcDbSymbolTableRecord
100
AcDbBlockTableRecord
  2
*D18
340
0
  0
BLOCK_RECORD
  5
21F
330
1
100
AcDbSymbolTableRecord
100
AcDbBlockTableRecord
  2
*D19
340
0
102
{BLKREFS
331
225
102
}
  0
BLOCK_RECORD
  5
226
330
1
100
AcDbSymbolTableRecord
100
AcDbBlockTableRecord
  2
*D20
340
0
102
{BLKREFS
331
22E
102
}
  0
BLOCK_RECORD
  5
22F
330
1
100
AcDbSymbolTableRecord
100
AcDbBlockTableRecord
  2
*D21
340
0
102
{BLKREFS
331
237
102
}
  0
BLOCK_RECORD
  5
238
330
1
100
AcDbSymbolTableRecord
100
AcDbBlockTableRecord
  2
*D22
340
0
102
{BLKREFS
331
240
102
}
  0
ENDTAB
  0
ENDSEC
  0
SECTION
  2
BLOCKS
  0
BLOCK
  5
20
330
1F
100
AcDbEntity
  8
0
100
AcDbBlockBegin
  2
*Model_Space
 70
     0
 10
0.0
 20
0.0
 30
0.0
  3
*Model_Space
  1

  0
ENDBLK
  5
21
330
1F
100
AcDbEntity
  8
0
100
AcDbBlockEnd
  0
BLOCK
  5
1C
330
1B
100
AcDbEntity
 67
     1
  8
0
100
AcDbBlockBegin
  2
*Paper_Space
 70
     0
 10
0.0
 20
0.0
 30
0.0
  3
*Paper_Space
  1

  0
ENDBLK
  5
1D
330
1B
100
AcDbEntity
 67
     1
  8
0
100
AcDbBlockEnd
  0
BLOCK
  5
24
330
23
100
AcDbEntity
  8
0
100
AcDbBlockBegin
  2
*Paper_Space0
 70
     0
 10
0.0
 20
0.0
 30
0.0
  3
*Paper_Space0
  1

  0
ENDBLK
  5
25
330
23
100
AcDbEntity
  8
0
100
AcDbBlockEnd
  0
BLOCK
  5
151
330
148
100
AcDbEntity
  8
0
100
AcDbBlockBegin
  2
*D1
 70
     1
 10
0.0
 20
0.0
 30
0.0
  3
*D1
  1

  0
LINE
  5
149
330
148
100
AcDbEntity
  8
1
  6
Continuous
 62
     2
100
AcDbLine
 10
-189.1092983114338
 20
-105.635225276103
 30
0.0
 11
-182.1092983114338
 21
-105.635225276103
 31
0.0
  0
LINE
  5
14A
330
148
100
AcDbEntity
  8
1
  6
Continuous
 62
     2
100
AcDbLine
 10
-192.1092983114338
 20
-105.635225276103
 30
0.0
 11
-189.1092983114338
 21
-105.635225276103
 31
0.0
  0
LINE
  5
14B
330
148
100
AcDbEntity
  8
1
  6
Continuous
 62
     2
100
AcDbLine
 10
-231.888007011963
 20
-105.635225276103
 30
0.0
 11
-192.1092983114338
 21
-105.635225276103
 31
0.0
  0
LINE
  5
14C
330
148
100
AcDbEntity
  8
1
  6
Continuous
 62
     2
100
AcDbLine
 10
-189.1092983114338
 20
-61.62339990768865
 30
0.0
 11
-189.1092983114338
 21
-107.635225276103
 31
0.0
  0
LINE
  5
14D
330
148
100
AcDbEntity
  8
1
  6
Continuous
 62
     2
100
AcDbLine
 10
-192.1092983114338
 20
-94.62339990768865
 30
0.0
 11
-192.1092983114338
 21
-107.635225276103
 31
0.0
  0
SOLID
  5
14E
330
148
100
AcDbEntity
  8
1
 62
     2
100
AcDbTrace
 10
-195.6092983114338
 20
-106.0960090176589
 30
0.0
 11
-195.6092983114338
 21
-105.1744415345471
 31
0.0
 12
-192.1092983114338
 22
-105.635225276103
 32
0.0
 13
-192.1092983114338
 23
-105.635225276103
 33
0.0
  0
SOLID
  5
14F
330
148
100
AcDbEntity
  8
1
 62
     2
100
AcDbTrace
 10
-185.6092983114338
 20
-105.1744415345471
 30
0.0
 11
-185.6092983114338
 21
-106.0960090176589
 31
0.0
 12
-189.1092983114338
 22
-105.635225276103
 32
0.0
 13
-189.1092983114338
 23
-105.635225276103
 33
0.0
  0
MTEXT
  5
150
330
148
100
AcDbEntity
  8
1
 62
     2
100
AcDbMText
 10
-231.0130070119208
 20
-103.6352600614846
 30
0.0
 40
3.5
 41
0.0
 71
     7
 72
     1
  1
\C2;3mm (\C2;0.118\C2;``)
  7
CONVERTER_11
 11
0.9999999999970619
 21
2.424068405545306E-6
 31
0.0
 73
     1
 44
0.60024009603842
  0
ENDBLK
  5
152
330
148
100
AcDbEntity
  8
0
100
AcDbBlockEnd
  0
BLOCK
  5
15C
330
155
100
AcDbEntity
  8
0
100
AcDbBlockBegin
  2
*D2
 70
     1
 10
0.0
 20
0.0
 30
0.0
  3
*D2
  1

  0
LINE
  5
156
330
155
100
AcDbEntity
  8
1
  6
Continuous
 62
     2
100
AcDbLine
 10
-151.908988527876
 20
71.37660009231135
 30
0.0
 11
-151.908988527876
 21
-60.62339990768865
 31
0.0
  0
LINE
  5
157
330
155
100
AcDbEntity
  8
1
  6
Continuous
 62
     2
100
AcDbLine
 10
-177.1092983114338
 20
-60.62339990768865
 30
0.0
 11
-149.908988527876
 21
-60.62339990768865
 31
0.0
  0
LINE
  5
158
330
155
100
AcDbEntity
  8
1
  6
Continuous
 62
     2
100
AcDbLine
 10
-177.1092983114338
 20
71.37660009231135
 30
0.0
 11
-149.908988527876
 21
71.37660009231135
 31
0.0
  0
SOLID
  5
159
330
155
100
AcDbEntity
  8
1
 62
     2
100
AcDbTrace
 10
-151.4482047863201
 20
67.87660009231135
 30
0.0
 11
-152.3697722694319
 21
67.87660009231135
 31
0.0
 12
-151.908988527876
 22
71.37660009231135
 32
0.0
 13
-151.908988527876
 23
71.37660009231135
 33
0.0
  0
SOLID
  5
15A
330
155
100
AcDbEntity
  8
1
 62
     2
100
AcDbTrace
 10
-152.3697722694319
 20
-57.12339990768865
 30
0.0
 11
-151.4482047863201
 21
-57.12339990768865
 31
0.0
 12
-151.908988527876
 22
-60.62339990768865
 32
0.0
 13
-151.908988527876
 23
-60.62339990768865
 33
0.0
  0
MTEXT
  5
15B
330
155
100
AcDbEntity
  8
1
 62
     2
100
AcDbMText
 10
-153.908988527876
 20
-13.40874256378124
 30
0.0
 40
3.5
 41
0.0
 71
     7
 72
     1
  1
\C2;132mm (\C2;5.197\C2;``)
  7
CONVERTER_11
 11
0.0
 21
1.0
 31
0.0
 73
     1
 44
0.60024009603842
  0
ENDBLK
  5
15D
330
155
100
AcDbEntity
  8
0
100
AcDbBlockEnd
  0
BLOCK
  5
167
330
160
100
AcDbEntity
  8
0
100
AcDbBlockBegin
  2
*D3
 70
     1
 10
0.0
 20
0.0
 30
0.0
  3
*D3
  1

  0
LINE
  5
161
330
160
100
AcDbEntity
  8
1
  6
Continuous
 62
     2
100
AcDbLine
 10
-126.887717566138
 20
82.87660009231135
 30
0.0
 11
-126.887717566138
 21
-72.12339990768865
 31
0.0
  0
LINE
  5
162
330
160
100
AcDbEntity
  8
1
  6
Continuous
 62
     2
100
AcDbLine
 10
-178.6092983114338
 20
-72.12339990768865
 30
0.0
 11
-124.887717566138
 21
-72.12339990768865
 31
0.0
  0
LINE
  5
163
330
160
100
AcDbEntity
  8
1
  6
Continuous
 62
     2
100
AcDbLine
 10
-178.6092983114338
 20
82.87660009231135
 30
0.0
 11
-124.887717566138
 21
82.87660009231135
 31
0.0
  0
SOLID
  5
164
330
160
100
AcDbEntity
  8
1
 62
     2
100
AcDbTrace
 10
-126.4269338245821
 20
79.37660009231135
 30
0.0
 11
-127.3485013076939
 21
79.37660009231135
 31
0.0
 12
-126.887717566138
 22
82.87660009231135
 32
0.0
 13
-126.887717566138
 23
82.87660009231135
 33
0.0
  0
SOLID
  5
165
330
160
100
AcDbEntity
  8
1
 62
     2
100
AcDbTrace
 10
-127.3485013076939
 20
-68.62339990768865
 30
0.0
 11
-126.4269338245821
 21
-68.62339990768865
 31
0.0
 12
-126.887717566138
 22
-72.12339990768865
 32
0.0
 13
-126.887717566138
 23
-72.12339990768865
 33
0.0
  0
MTEXT
  5
166
330
160
100
AcDbEntity
  8
1
 62
     2
100
AcDbMText
 10
-128.887717566138
 20
-11.21388769335792
 30
0.0
 40
3.5
 41
0.0
 71
     7
 72
     1
  1
\C2;155mm (\C2;6.102\C2;``)
  7
CONVERTER_11
 11
0.0
 21
1.0
 31
0.0
 73
     1
 44
0.60024009603842
  0
ENDBLK
  5
168
330
160
100
AcDbEntity
  8
0
100
AcDbBlockEnd
  0
BLOCK
  5
173
330
16B
100
AcDbEntity
  8
0
100
AcDbBlockBegin
  2
*D4
 70
     1
 10
0.0
 20
0.0
 30
0.0
  3
*D4
  1

  0
LINE
  5
16C
330
16B
100
AcDbEntity
  8
1
  6
Continuous
 62
     2
100
AcDbLine
 10
-186.1092983114338
 20
28.4188748070954
 30
0.0
 11
-168.1092983114338
 21
28.4188748070954
 31
0.0
  0
LINE
  5
16D
330
16B
100
AcDbEntity
  8
1
  6
Continuous
 62
     2
100
AcDbLine
 10
-229.9202973033972
 20
28.4188748070954
 30
0.0
 11
-186.1092983114338
 21
28.4188748070954
 31
0.0
  0
LINE
  5
16E
330
16B
100
AcDbEntity
  8
1
  6
Continuous
 62
     2
100
AcDbLine
 10
-168.1092983114338
 20
72.37660009231135
 30
0.0
 11
-168.1092983114338
 21
26.4188748070954
 31
0.0
  0
LINE
  5
16F
330
16B
100
AcDbEntity
  8
1
  6
Continuous
 62
     2
100
AcDbLine
 10
-186.1092983114338
 20
62.37660009231134
 30
0.0
 11
-186.1092983114338
 21
26.4188748070954
 31
0.0
  0
SOLID
  5
170
330
16B
100
AcDbEntity
  8
1
 62
     2
100
AcDbTrace
 10
-182.6092983114338
 20
28.87965854865129
 30
0.0
 11
-182.6092983114338
 21
27.95809106553951
 31
0.0
 12
-186.1092983114338
 22
28.4188748070954
 32
0.0
 13
-186.1092983114338
 23
28.4188748070954
 33
0.0
  0
SOLID
  5
171
330
16B
100
AcDbEntity
  8
1
 62
     2
100
AcDbTrace
 10
-171.6092983114338
 20
27.95809106553951
 30
0.0
 11
-171.6092983114338
 21
28.87965854865129
 31
0.0
 12
-168.1092983114338
 22
28.4188748070954
 32
0.0
 13
-168.1092983114338
 23
28.4188748070954
 33
0.0
  0
MTEXT
  5
172
330
16B
100
AcDbEntity
  8
1
 62
     2
100
AcDbMText
 10
-229.8152973033466
 20
30.41883306463746
 30
0.0
 40
3.5
 41
0.0
 71
     7
 72
     1
  1
\C2;18mm (\C2;0.709\C2;``)
  7
CONVERTER_11
 11
0.9999999999970619
 21
2.424068405545306E-6
 31
0.0
 73
     1
 44
0.60024009603842
  0
ENDBLK
  5
174
330
16B
100
AcDbEntity
  8
0
100
AcDbBlockEnd
  0
BLOCK
  5
17F
330
177
100
AcDbEntity
  8
0
100
AcDbBlockBegin
  2
*D5
 70
     1
 10
0.0
 20
0.0
 30
0.0
  3
*D5
  1

  0
LINE
  5
178
330
177
100
AcDbEntity
  8
1
  6
Continuous
 62
     2
100
AcDbLine
 10
-189.1092983114338
 20
-117.5759847602375
 30
0.0
 11
-228.2139842178087
 21
-117.5759847602375
 31
0.0
  0
LINE
  5
179
330
177
100
AcDbEntity
  8
1
  6
Continuous
 62
     2
100
AcDbLine
 10
-168.1092983114338
 20
-117.5759847602375
 30
0.0
 11
-189.1092983114338
 21
-117.5759847602375
 31
0.0
  0
LINE
  5
17A
330
177
100
AcDbEntity
  8
1
  6
Continuous
 62
     2
100
AcDbLine
 10
-189.1092983114338
 20
-61.62339990768865
 30
0.0
 11
-189.1092983114338
 21
-119.5759847602375
 31
0.0
  0
LINE
  5
17B
330
177
100
AcDbEntity
  8
1
  6
Continuous
 62
     2
100
AcDbLine
 10
-168.1092983114338
 20
-61.62339990768865
 30
0.0
 11
-168.1092983114338
 21
-119.5759847602375
 31
0.0
  0
SOLID
  5
17C
330
177
100
AcDbEntity
  8
1
 62
     2
100
AcDbTrace
 10
-171.6092983114338
 20
-118.0367685017934
 30
0.0
 11
-171.6092983114338
 21
-117.1152010186816
 31
0.0
 12
-168.1092983114338
 22
-117.5759847602375
 32
0.0
 13
-168.1092983114338
 23
-117.5759847602375
 33
0.0
  0
SOLID
  5
17D
330
177
100
AcDbEntity
  8
1
 62
     2
100
AcDbTrace
 10
-185.6092983114338
 20
-117.1152010186816
 30
0.0
 11
-185.6092983114338
 21
-118.0367685017934
 31
0.0
 12
-189.1092983114338
 22
-117.5759847602375
 32
0.0
 13
-189.1092983114338
 23
-117.5759847602375
 33
0.0
  0
MTEXT
  5
17E
330
177
100
AcDbEntity
  8
1
 62
     2
100
AcDbMText
 10
-228.1089842177581
 20
-115.5760265026954
 30
0.0
 40
3.5
 41
0.0
 71
     7
 72
     1
  1
\C2;21mm (\C2;0.827\C2;``)
  7
CONVERTER_11
 11
0.9999999999970619
 21
2.424068405545306E-6
 31
0.0
 73
     1
 44
0.60024009603842
  0
ENDBLK
  5
180
330
177
100
AcDbEntity
  8
0
100
AcDbBlockEnd
  0
BLOCK
  5
18B
330
183
100
AcDbEntity
  8
0
100
AcDbBlockBegin
  2
*D6
 70
     1
 10
0.0
 20
0.0
 30
0.0
  3
*D6
  1

  0
LINE
  5
184
330
183
100
AcDbEntity
  8
1
  6
Continuous
 62
     2
100
AcDbLine
 10
-68.80177865188125
 20
-118.2833961103276
 30
0.0
 11
-92.80488390961864
 21
-118.2833961103276
 31
0.0
  0
LINE
  5
185
330
183
100
AcDbEntity
  8
1
  6
Continuous
 62
     2
100
AcDbLine
 10
-29.08224419807557
 20
-118.2833961103276
 30
0.0
 11
-68.80177865188125
 21
-118.2833961103276
 31
0.0
  0
LINE
  5
186
330
183
100
AcDbEntity
  8
1
  6
Continuous
 62
     2
100
AcDbLine
 10
-92.80488390961864
 20
-60.62339990768861
 30
0.0
 11
-92.80488390961864
 21
-120.2833961103276
 31
0.0
  0
LINE
  5
187
330
183
100
AcDbEntity
  8
1
  6
Continuous
 62
     2
100
AcDbLine
 10
-68.80177865188125
 20
-72.12339990768865
 30
0.0
 11
-68.80177865188125
 21
-120.2833961103276
 31
0.0
  0
SOLID
  5
188
330
183
100
AcDbEntity
  8
1
 62
     2
100
AcDbTrace
 10
-72.30177865188125
 20
-118.7441798518835
 30
0.0
 11
-72.30177865188125
 21
-117.8226123687717
 31
0.0
 12
-68.80177865188125
 22
-118.2833961103276
 32
0.0
 13
-68.80177865188125
 23
-118.2833961103276
 33
0.0
  0
SOLID
  5
189
330
183
100
AcDbEntity
  8
1
 62
     2
100
AcDbTrace
 10
-89.30488390961864
 20
-117.8226123687717
 30
0.0
 11
-89.30488390961864
 21
-118.7441798518835
 31
0.0
 12
-92.80488390961864
 22
-118.2833961103276
 32
0.0
 13
-92.80488390961864
 23
-118.2833961103276
 33
0.0
  0
MTEXT
  5
18A
330
183
100
AcDbEntity
  8
1
 62
     2
100
AcDbMText
 10
-63.71474419802497
 20
-116.2834378527855
 30
0.0
 40
3.5
 41
0.0
 71
     7
 72
     1
  1
\C2;24mm (\C2;0.945\C2;``)
  7
CONVERTER_11
 11
0.9999999999970619
 21
2.424068405545306E-6
 31
0.0
 73
     1
 44
0.60024009603842
  0
ENDBLK
  5
18C
330
183
100
AcDbEntity
  8
0
100
AcDbBlockEnd
  0
BLOCK
  5
198
330
18F
100
AcDbEntity
  8
0
100
AcDbBlockBegin
  2
*D7
 70
     1
 10
0.0
 20
0.0
 30
0.0
  3
*D7
  1

  0
LINE
  5
190
330
18F
100
AcDbEntity
  8
1
  6
Continuous
 62
     2
100
AcDbLine
 10
7.63953091356274
 20
-66.6979399702632
 30
0.0
 11
7.63953091356274
 21
-102.4823954488453
 31
0.0
  0
LINE
  5
191
330
18F
100
AcDbEntity
  8
1
  6
Continuous
 62
     2
100
AcDbLine
 10
7.63953091356274
 20
-62.69793997026319
 30
0.0
 11
7.63953091356274
 21
-66.6979399702632
 31
0.0
  0
LINE
  5
192
330
18F
100
AcDbEntity
  8
1
  6
Continuous
 62
     2
100
AcDbLine
 10
7.63953091356274
 20
-55.69793997026319
 30
0.0
 11
7.63953091356274
 21
-62.69793997026319
 31
0.0
  0
LINE
  5
193
330
18F
100
AcDbEntity
  8
1
  6
Continuous
 62
     2
100
AcDbLine
 10
2.38679367266664
 20
-66.6979399702632
 30
0.0
 11
9.63953091356274
 21
-66.6979399702632
 31
0.0
  0
LINE
  5
194
330
18F
100
AcDbEntity
  8
1
  6
Continuous
 62
     2
100
AcDbLine
 10
12.38679367266663
 20
-62.69793997026319
 30
0.0
 11
5.63953091356274
 21
-62.69793997026319
 31
0.0
  0
SOLID
  5
195
330
18F
100
AcDbEntity
  8
1
 62
     2
100
AcDbTrace
 10
7.17874717200686
 20
-59.19793997026319
 30
0.0
 11
8.10031465511863
 21
-59.19793997026319
 31
0.0
 12
7.63953091356274
 22
-62.69793997026319
 32
0.0
 13
7.63953091356274
 23
-62.69793997026319
 33
0.0
  0
SOLID
  5
196
330
18F
100
AcDbEntity
  8
1
 62
     2
100
AcDbTrace
 10
8.10031465511863
 20
-70.1979399702632
 30
0.0
 11
7.17874717200686
 21
-70.1979399702632
 31
0.0
 12
7.63953091356274
 22
-66.6979399702632
 32
0.0
 13
7.63953091356274
 23
-66.6979399702632
 33
0.0
  0
MTEXT
  5
197
330
18F
100
AcDbEntity
  8
1
 62
     2
100
AcDbMText
 10
5.63953091356274
 20
-101.6073954488453
 30
0.0
 40
3.5
 41
0.0
 71
     7
 72
     1
  1
\C2;4mm (\C2;0.157\C2;``)
  7
CONVERTER_11
 11
0.0
 21
1.0
 31
0.0
 73
     1
 44
0.60024009603842
  0
ENDBLK
  5
199
330
18F
100
AcDbEntity
  8
0
100
AcDbBlockEnd
  0
BLOCK
  5
1A4
330
19C
100
AcDbEntity
  8
0
100
AcDbBlockBegin
  2
*D8
 70
     1
 10
0.0
 20
0.0
 30
0.0
  3
*D8
  1

  0
LINE
  5
19D
330
19C
100
AcDbEntity
  8
1
  6
Continuous
 62
     2
100
AcDbLine
 10
54.5158341698211
 20
-42.6979399702632
 30
0.0
 11
54.5158341698211
 21
-66.69793997026319
 31
0.0
  0
LINE
  5
19E
330
19C
100
AcDbEntity
  8
1
  6
Continuous
 62
     2
100
AcDbLine
 10
54.5158341698211
 20
-0.8289279503028
 30
0.0
 11
54.5158341698211
 21
-42.6979399702632
 31
0.0
  0
LINE
  5
19F
330
19C
100
AcDbEntity
  8
1
  6
Continuous
 62
     2
100
AcDbLine
 10
47.38679367266684
 20
-66.69793997026319
 30
0.0
 11
56.5158341698211
 21
-66.69793997026319
 31
0.0
  0
LINE
  5
1A0
330
19C
100
AcDbEntity
  8
1
  6
Continuous
 62
     2
100
AcDbLine
 10
15.38679367266695
 20
-42.6979399702632
 30
0.0
 11
56.5158341698211
 21
-42.6979399702632
 31
0.0
  0
SOLID
  5
1A1
330
19C
100
AcDbEntity
  8
1
 62
     2
100
AcDbTrace
 10
54.97661791137698
 20
-46.1979399702632
 30
0.0
 11
54.05505042826521
 21
-46.1979399702632
 31
0.0
 12
54.5158341698211
 22
-42.6979399702632
 32
0.0
 13
54.5158341698211
 23
-42.6979399702632
 33
0.0
  0
SOLID
  5
1A2
330
19C
100
AcDbEntity
  8
1
 62
     2
100
AcDbTrace
 10
54.05505042826521
 20
-63.19793997026319
 30
0.0
 11
54.97661791137698
 21
-63.19793997026319
 31
0.0
 12
54.5158341698211
 22
-66.69793997026319
 32
0.0
 13
54.5158341698211
 23
-66.69793997026319
 33
0.0
  0
MTEXT
  5
1A3
330
19C
100
AcDbEntity
  8
1
 62
     2
100
AcDbMText
 10
52.5158341698211
 20
-35.4614279503028
 30
0.0
 40
3.5
 41
0.0
 71
     7
 72
     1
  1
\C2;24mm (\C2;0.945\C2;``)
  7
CONVERTER_11
 11
0.0
 21
1.0
 31
0.0
 73
     1
 44
0.60024009603842
  0
ENDBLK
  5
1A5
330
19C
100
AcDbEntity
  8
0
100
AcDbBlockEnd
  0
BLOCK
  5
1B1
330
1A8
100
AcDbEntity
  8
0
100
AcDbBlockBegin
  2
*D9
 70
     1
 10
0.0
 20
0.0
 30
0.0
  3
*D9
  1

  0
LINE
  5
1A9
330
1A8
100
AcDbEntity
  8
1
  6
Continuous
 62
     2
100
AcDbLine
 10
-7.18553578466981
 20
-63.69793997026321
 30
0.0
 11
-7.18553578466981
 21
-56.69793997026321
 31
0.0
  0
LINE
  5
1AA
330
1A8
100
AcDbEntity
  8
1
  6
Continuous
 62
     2
100
AcDbLine
 10
-7.18553578466981
 20
-66.6979399702632
 30
0.0
 11
-7.18553578466981
 21
-63.69793997026321
 31
0.0
  0
LINE
  5
1AB
330
1A8
100
AcDbEntity
  8
1
  6
Continuous
 62
     2
100
AcDbLine
 10
-7.18553578466981
 20
-107.0751521164146
 30
0.0
 11
-7.18553578466981
 21
-66.6979399702632
 31
0.0
  0
LINE
  5
1AC
330
1A8
100
AcDbEntity
  8
1
  6
Continuous
 62
     2
100
AcDbLine
 10
-11.11320632733314
 20
-63.69793997026321
 30
0.0
 11
-5.18553578466981
 21
-63.69793997026321
 31
0.0
  0
LINE
  5
1AD
330
1A8
100
AcDbEntity
  8
1
  6
Continuous
 62
     2
100
AcDbLine
 10
-1.11320632733316
 20
-66.6979399702632
 30
0.0
 11
-9.18553578466981
 21
-66.6979399702632
 31
0.0
  0
SOLID
  5
1AE
330
1A8
100
AcDbEntity
  8
1
 62
     2
100
AcDbTrace
 10
-6.72475204311393
 20
-70.1979399702632
 30
0.0
 11
-7.6463195262257
 21
-70.1979399702632
 31
0.0
 12
-7.18553578466981
 22
-66.6979399702632
 32
0.0
 13
-7.18553578466981
 23
-66.6979399702632
 33
0.0
  0
SOLID
  5
1AF
330
1A8
100
AcDbEntity
  8
1
 62
     2
100
AcDbTrace
 10
-7.6463195262257
 20
-60.19793997026321
 30
0.0
 11
-6.72475204311392
 21
-60.19793997026321
 31
0.0
 12
-7.18553578466981
 22
-63.69793997026321
 32
0.0
 13
-7.18553578466981
 23
-63.69793997026321
 33
0.0
  0
MTEXT
  5
1B0
330
1A8
100
AcDbEntity
  8
1
 62
     2
100
AcDbMText
 10
-9.18553578466981
 20
-106.2001521164146
 30
0.0
 40
3.5
 41
0.0
 71
     7
 72
     1
  1
\C2;3mm (\C2;0.118\C2;``)
  7
CONVERTER_11
 11
0.0
 21
1.0
 31
0.0
 73
     1
 44
0.60024009603842
  0
ENDBLK
  5
1B2
330
1A8
100
AcDbEntity
  8
0
100
AcDbBlockEnd
  0
BLOCK
  5
1BD
330
1B5
100
AcDbEntity
  8
0
100
AcDbBlockBegin
  2
*D10
 70
     1
 10
0.0
 20
0.0
 30
0.0
  3
*D10
  1

  0
LINE
  5
1B6
330
1B5
100
AcDbEntity
  8
1
  6
Continuous
 62
     2
100
AcDbLine
 10
-68.80177865188125
 20
-105.210878074178
 30
0.0
 11
-83.8017786518812
 21
-105.210878074178
 31
0.0
  0
LINE
  5
1B7
330
1B5
100
AcDbEntity
  8
1
  6
Continuous
 62
     2
100
AcDbLine
 10
-29.92318430511141
 20
-105.210878074178
 30
0.0
 11
-68.80177865188125
 21
-105.210878074178
 31
0.0
  0
LINE
  5
1B8
330
1B5
100
AcDbEntity
  8
1
  6
Continuous
 62
     2
100
AcDbLine
 10
-83.8017786518812
 20
-72.12339990768865
 30
0.0
 11
-83.8017786518812
 21
-107.210878074178
 31
0.0
  0
LINE
  5
1B9
330
1B5
100
AcDbEntity
  8
1
  6
Continuous
 62
     2
100
AcDbLine
 10
-68.80177865188125
 20
-72.12339990768866
 30
0.0
 11
-68.80177865188125
 21
-107.210878074178
 31
0.0
  0
SOLID
  5
1BA
330
1B5
100
AcDbEntity
  8
1
 62
     2
100
AcDbTrace
 10
-72.30177865188125
 20
-105.6716618157339
 30
0.0
 11
-72.30177865188125
 21
-104.7500943326221
 31
0.0
 12
-68.80177865188125
 22
-105.210878074178
 32
0.0
 13
-68.80177865188125
 23
-105.210878074178
 33
0.0
  0
SOLID
  5
1BB
330
1B5
100
AcDbEntity
  8
1
 62
     2
100
AcDbTrace
 10
-80.3017786518812
 20
-104.7500943326221
 30
0.0
 11
-80.3017786518812
 21
-105.6716618157339
 31
0.0
 12
-83.8017786518812
 22
-105.210878074178
 32
0.0
 13
-83.8017786518812
 23
-105.210878074178
 33
0.0
  0
MTEXT
  5
1BC
330
1B5
100
AcDbEntity
  8
1
 62
     2
100
AcDbMText
 10
-63.50568430506081
 20
-103.2109198166359
 30
0.0
 40
3.5
 41
0.0
 71
     7
 72
     1
  1
\C2;15mm (\C2;0.591\C2;``)
  7
CONVERTER_11
 11
0.9999999999970619
 21
2.424068405545306E-6
 31
0.0
 73
     1
 44
0.60024009603842
  0
ENDBLK
  5
1BE
330
1B5
100
AcDbEntity
  8
0
100
AcDbBlockEnd
  0
BLOCK
  5
1CA
330
1C1
100
AcDbEntity
  8
0
100
AcDbBlockBegin
  2
*D11
 70
     1
 10
0.0
 20
0.0
 30
0.0
  3
*D11
  1

  0
LINE
  5
1C2
330
1C1
100
AcDbEntity
  8
1
  6
Continuous
 62
     2
100
AcDbLine
 10
179.9119338369392
 20
-105.781584343866
 30
0.0
 11
172.9119338369392
 21
-105.781584343866
 31
0.0
  0
LINE
  5
1C3
330
1C1
100
AcDbEntity
  8
1
  6
Continuous
 62
     2
100
AcDbLine
 10
183.9119338369392
 20
-105.781584343866
 30
0.0
 11
179.9119338369392
 21
-105.781584343866
 31
0.0
  0
LINE
  5
1C4
330
1C1
100
AcDbEntity
  8
1
  6
Continuous
 62
     2
100
AcDbLine
 10
220.0976225289399
 20
-105.781584343866
 30
0.0
 11
183.9119338369392
 21
-105.781584343866
 31
0.0
  0
LINE
  5
1C5
330
1C1
100
AcDbEntity
  8
1
  6
Continuous
 62
     2
100
AcDbLine
 10
179.9119338369392
 20
-63.12339990768859
 30
0.0
 11
179.9119338369392
 21
-107.781584343866
 31
0.0
  0
LINE
  5
1C6
330
1C1
100
AcDbEntity
  8
1
  6
Continuous
 62
     2
100
AcDbLine
 10
183.9119338369392
 20
-94.62339990768866
 30
0.0
 11
183.9119338369392
 21
-107.781584343866
 31
0.0
  0
SOLID
  5
1C7
330
1C1
100
AcDbEntity
  8
1
 62
     2
100
AcDbTrace
 10
187.4119338369392
 20
-105.3208006023101
 30
0.0
 11
187.4119338369392
 21
-106.2423680854219
 31
0.0
 12
183.9119338369392
 22
-105.781584343866
 32
0.0
 13
183.9119338369392
 23
-105.781584343866
 33
0.0
  0
SOLID
  5
1C8
330
1C1
100
AcDbEntity
  8
1
 62
     2
100
AcDbTrace
 10
176.4119338369392
 20
-106.2423680854219
 30
0.0
 11
176.4119338369392
 21
-105.3208006023101
 31
0.0
 12
179.9119338369392
 22
-105.781584343866
 32
0.0
 13
179.9119338369392
 23
-105.781584343866
 33
0.0
  0
MTEXT
  5
1C9
330
1C1
100
AcDbEntity
  8
1
 62
     2
100
AcDbMText
 10
189.3851225289821
 20
-103.7816191292476
 30
0.0
 40
3.5
 41
0.0
 71
     7
 72
     1
  1
\C2;4mm (\C2;0.157\C2;``)
  7
CONVERTER_11
 11
0.9999999999970619
 21
2.424068405545306E-6
 31
0.0
 73
     1
 44
0.60024009603842
  0
ENDBLK
  5
1CB
330
1C1
100
AcDbEntity
  8
0
100
AcDbBlockEnd
  0
BLOCK
  5
1D6
330
1CE
100
AcDbEntity
  8
0
100
AcDbBlockBegin
  2
*D12
 70
     1
 10
0.0
 20
0.0
 30
0.0
  3
*D12
  1

  0
LINE
  5
1CF
330
1CE
100
AcDbEntity
  8
1
  6
Continuous
 62
     2
100
AcDbLine
 10
179.9119338369392
 20
-115.781584343866
 30
0.0
 11
161.9119338369392
 21
-115.781584343866
 31
0.0
  0
LINE
  5
1D0
330
1CE
100
AcDbEntity
  8
1
  6
Continuous
 62
     2
100
AcDbLine
 10
221.9729517945568
 20
-115.781584343866
 30
0.0
 11
179.9119338369392
 21
-115.781584343866
 31
0.0
  0
LINE
  5
1D1
330
1CE
100
AcDbEntity
  8
1
  6
Continuous
 62
     2
100
AcDbLine
 10
161.9119338369392
 20
-63.12339990768867
 30
0.0
 11
161.9119338369392
 21
-117.781584343866
 31
0.0
  0
LINE
  5
1D2
330
1CE
100
AcDbEntity
  8
1
  6
Continuous
 62
     2
100
AcDbLine
 10
179.9119338369392
 20
-63.12339990768865
 30
0.0
 11
179.9119338369392
 21
-117.781584343866
 31
0.0
  0
SOLID
  5
1D3
330
1CE
100
AcDbEntity
  8
1
 62
     2
100
AcDbTrace
 10
176.4119338369392
 20
-116.2423680854219
 30
0.0
 11
176.4119338369392
 21
-115.3208006023101
 31
0.0
 12
179.9119338369392
 22
-115.781584343866
 32
0.0
 13
179.9119338369392
 23
-115.781584343866
 33
0.0
  0
SOLID
  5
1D4
330
1CE
100
AcDbEntity
  8
1
 62
     2
100
AcDbTrace
 10
165.4119338369392
 20
-115.3208006023101
 30
0.0
 11
165.4119338369392
 21
-116.2423680854219
 31
0.0
 12
161.9119338369392
 22
-115.781584343866
 32
0.0
 13
161.9119338369392
 23
-115.781584343866
 33
0.0
  0
MTEXT
  5
1D5
330
1CE
100
AcDbEntity
  8
1
 62
     2
100
AcDbMText
 10
187.3404517946074
 20
-113.7816260863239
 30
0.0
 40
3.5
 41
0.0
 71
     7
 72
     1
  1
\C2;18mm (\C2;0.709\C2;``)
  7
CONVERTER_11
 11
0.9999999999970619
 21
2.424068405545306E-6
 31
0.0
 73
     1
 44
0.60024009603842
  0
ENDBLK
  5
1D7
330
1CE
100
AcDbEntity
  8
0
100
AcDbBlockEnd
  0
BLOCK
  5
1E2
330
1DA
100
AcDbEntity
  8
0
100
AcDbBlockBegin
  2
*D13
 70
     1
 10
0.0
 20
0.0
 30
0.0
  3
*D13
  1

  0
LINE
  5
1DB
330
1DA
100
AcDbEntity
  8
1
  6
Continuous
 62
     2
100
AcDbLine
 10
177.9119338369392
 20
16.3048182481224
 30
0.0
 11
161.9119338369392
 21
16.3048182481224
 31
0.0
  0
LINE
  5
1DC
330
1DA
100
AcDbEntity
  8
1
  6
Continuous
 62
     2
100
AcDbLine
 10
222.7841646002617
 20
16.3048182481224
 30
0.0
 11
177.9119338369392
 21
16.3048182481224
 31
0.0
  0
LINE
  5
1DD
330
1DA
100
AcDbEntity
  8
1
  6
Continuous
 62
     2
100
AcDbLine
 10
161.9119338369392
 20
5.37660009231136
 30
0.0
 11
161.9119338369392
 21
18.3048182481224
 31
0.0
  0
LINE
  5
1DE
330
1DA
100
AcDbEntity
  8
1
  6
Continuous
 62
     2
100
AcDbLine
 10
177.9119338369392
 20
-46.62339990768864
 30
0.0
 11
177.9119338369392
 21
18.3048182481224
 31
0.0
  0
SOLID
  5
1DF
330
1DA
100
AcDbEntity
  8
1
 62
     2
100
AcDbTrace
 10
174.4119338369392
 20
15.84403450656652
 30
0.0
 11
174.4119338369392
 21
16.76560198967829
 31
0.0
 12
177.9119338369392
 22
16.3048182481224
 32
0.0
 13
177.9119338369392
 23
16.3048182481224
 33
0.0
  0
SOLID
  5
1E0
330
1DA
100
AcDbEntity
  8
1
 62
     2
100
AcDbTrace
 10
165.4119338369392
 20
16.76560198967829
 30
0.0
 11
165.4119338369392
 21
15.84403450656652
 31
0.0
 12
161.9119338369392
 22
16.3048182481224
 32
0.0
 13
161.9119338369392
 23
16.3048182481224
 33
0.0
  0
MTEXT
  5
1E1
330
1DA
100
AcDbEntity
  8
1
 62
     2
100
AcDbMText
 10
188.1516646003123
 20
18.30477650566446
 30
0.0
 40
3.5
 41
0.0
 71
     7
 72
     1
  1
\C2;16mm (\C2;0.630\C2;``)
  7
CONVERTER_11
 11
0.9999999999970619
 21
2.424068405545306E-6
 31
0.0
 73
     1
 44
0.60024009603842
  0
ENDBLK
  5
1E3
330
1DA
100
AcDbEntity
  8
0
100
AcDbBlockEnd
  0
BLOCK
  5
1EE
330
1E6
100
AcDbEntity
  8
0
100
AcDbBlockBegin
  2
*D14
 70
     1
 10
0.0
 20
0.0
 30
0.0
  3
*D14
  1

  0
LINE
  5
1E7
330
1E6
100
AcDbEntity
  8
1
  6
Continuous
 62
     2
100
AcDbLine
 10
61.1986003432113
 20
-103.785670014645
 30
0.0
 11
24.31136200720149
 21
-103.785670014645
 31
0.0
  0
LINE
  5
1E8
330
1E6
100
AcDbEntity
  8
1
  6
Continuous
 62
     2
100
AcDbLine
 10
71.1986003432113
 20
-103.785670014645
 30
0.0
 11
61.1986003432113
 21
-103.785670014645
 31
0.0
  0
LINE
  5
1E9
330
1E6
100
AcDbEntity
  8
1
  6
Continuous
 62
     2
100
AcDbLine
 10
61.1986003432113
 20
-94.62339990768866
 30
0.0
 11
61.1986003432113
 21
-105.785670014645
 31
0.0
  0
LINE
  5
1EA
330
1E6
100
AcDbEntity
  8
1
  6
Continuous
 62
     2
100
AcDbLine
 10
71.1986003432113
 20
-72.12339990768865
 30
0.0
 11
71.1986003432113
 21
-105.785670014645
 31
0.0
  0
SOLID
  5
1EB
330
1E6
100
AcDbEntity
  8
1
 62
     2
100
AcDbTrace
 10
67.6986003432113
 20
-104.2464537562009
 30
0.0
 11
67.6986003432113
 21
-103.3248862730891
 31
0.0
 12
71.1986003432113
 22
-103.785670014645
 32
0.0
 13
71.1986003432113
 23
-103.785670014645
 33
0.0
  0
SOLID
  5
1EC
330
1E6
100
AcDbEntity
  8
1
 62
     2
100
AcDbTrace
 10
64.6986003432113
 20
-103.3248862730891
 30
0.0
 11
64.6986003432113
 21
-104.2464537562009
 31
0.0
 12
61.1986003432113
 22
-103.785670014645
 32
0.0
 13
61.1986003432113
 23
-103.785670014645
 33
0.0
  0
MTEXT
  5
1ED
330
1E6
100
AcDbEntity
  8
1
 62
     2
100
AcDbMText
 10
24.41636200725209
 20
-101.7857117571029
 30
0.0
 40
3.5
 41
0.0
 71
     7
 72
     1
  1
\C2;10mm (\C2;0.394\C2;``)
  7
CONVERTER_11
 11
0.9999999999970619
 21
2.424068405545306E-6
 31
0.0
 73
     1
 44
0.60024009603842
  0
ENDBLK
  5
1EF
330
1E6
100
AcDbEntity
  8
0
100
AcDbBlockEnd
  0
BLOCK
  5
1FA
330
1F2
100
AcDbEntity
  8
0
100
AcDbBlockBegin
  2
*D15
 70
     1
 10
0.0
 20
0.0
 30
0.0
  3
*D15
  1

  0
LINE
  5
1F3
330
1F2
100
AcDbEntity
  8
1
  6
Continuous
 62
     2
100
AcDbLine
 10
61.1986003432113
 20
-114.622960427562
 30
0.0
 11
88.1986003432113
 21
-114.622960427562
 31
0.0
  0
LINE
  5
1F4
330
1F2
100
AcDbEntity
  8
1
  6
Continuous
 62
     2
100
AcDbLine
 10
23.37236234376288
 20
-114.622960427562
 30
0.0
 11
61.1986003432113
 21
-114.622960427562
 31
0.0
  0
LINE
  5
1F5
330
1F2
100
AcDbEntity
  8
1
  6
Continuous
 62
     2
100
AcDbLine
 10
88.1986003432113
 20
-54.62339990768866
 30
0.0
 11
88.1986003432113
 21
-116.622960427562
 31
0.0
  0
LINE
  5
1F6
330
1F2
100
AcDbEntity
  8
1
  6
Continuous
 62
     2
100
AcDbLine
 10
61.1986003432113
 20
-72.12339990768865
 30
0.0
 11
61.1986003432113
 21
-116.622960427562
 31
0.0
  0
SOLID
  5
1F7
330
1F2
100
AcDbEntity
  8
1
 62
     2
100
AcDbTrace
 10
64.6986003432113
 20
-114.1621766860061
 30
0.0
 11
64.6986003432113
 21
-115.0837441691179
 31
0.0
 12
61.1986003432113
 22
-114.622960427562
 32
0.0
 13
61.1986003432113
 23
-114.622960427562
 33
0.0
  0
SOLID
  5
1F8
330
1F2
100
AcDbEntity
  8
1
 62
     2
100
AcDbTrace
 10
84.6986003432113
 20
-115.0837441691179
 30
0.0
 11
84.6986003432113
 21
-114.1621766860061
 31
0.0
 12
88.1986003432113
 22
-114.622960427562
 32
0.0
 13
88.1986003432113
 23
-114.622960427562
 33
0.0
  0
MTEXT
  5
1F9
330
1F2
100
AcDbEntity
  8
1
 62
     2
100
AcDbMText
 10
24.52736234381349
 20
-112.6230021700199
 30
0.0
 40
3.5
 41
0.0
 71
     7
 72
     1
  1
\C2;27mm (\C2;1.063\C2;``)
  7
CONVERTER_11
 11
0.9999999999970619
 21
2.424068405545306E-6
 31
0.0
 73
     1
 44
0.60024009603842
  0
ENDBLK
  5
1FB
330
1F2
100
AcDbEntity
  8
0
100
AcDbBlockEnd
  0
BLOCK
  5
205
330
1FE
100
AcDbEntity
  8
0
100
AcDbBlockBegin
  2
*D16
 70
     1
 10
0.0
 20
0.0
 30
0.0
  3
*D16
  1

  0
LINE
  5
1FF
330
1FE
100
AcDbEntity
  8
1
  6
Continuous
 62
     2
100
AcDbLine
 10
134.7034829434959
 20
65.37660009231135
 30
0.0
 11
134.7034829434959
 21
-54.62339990768866
 31
0.0
  0
LINE
  5
200
330
1FE
100
AcDbEntity
  8
1
  6
Continuous
 62
     2
100
AcDbLine
 10
169.9119338369391
 20
-54.62339990768864
 30
0.0
 11
132.7034829434959
 21
-54.62339990768864
 31
0.0
  0
LINE
  5
201
330
1FE
100
AcDbEntity
  8
1
  6
Continuous
 62
     2
100
AcDbLine
 10
169.9119338369391
 20
65.37660009231135
 30
0.0
 11
132.7034829434959
 21
65.37660009231135
 31
0.0
  0
SOLID
  5
202
330
1FE
100
AcDbEntity
  8
1
 62
     2
100
AcDbTrace
 10
135.1642666850518
 20
61.87660009231135
 30
0.0
 11
134.24269920194
 21
61.87660009231135
 31
0.0
 12
134.7034829434959
 22
65.37660009231135
 32
0.0
 13
134.7034829434959
 23
65.37660009231135
 33
0.0
  0
SOLID
  5
203
330
1FE
100
AcDbEntity
  8
1
 62
     2
100
AcDbTrace
 10
134.24269920194
 20
-51.12339990768866
 30
0.0
 11
135.1642666850518
 21
-51.12339990768866
 31
0.0
 12
134.7034829434959
 22
-54.62339990768866
 32
0.0
 13
134.7034829434959
 23
-54.62339990768866
 33
0.0
  0
MTEXT
  5
204
330
1FE
100
AcDbEntity
  8
1
 62
     2
100
AcDbMText
 10
132.7034829434959
 20
-14.71692004119975
 30
0.0
 40
3.5
 41
0.0
 71
     7
 72
     1
  1
\C2;120mm (\C2;4.724\C2;``)
  7
CONVERTER_11
 11
0.0
 21
1.0
 31
0.0
 73
     1
 44
0.60024009603842
  0
ENDBLK
  5
206
330
1FE
100
AcDbEntity
  8
0
100
AcDbBlockEnd
  0
BLOCK
  5
210
330
209
100
AcDbEntity
  8
0
100
AcDbBlockBegin
  2
*D17
 70
     1
 10
0.0
 20
0.0
 30
0.0
  3
*D17
  1

  0
LINE
  5
20A
330
209
100
AcDbEntity
  8
1
  6
Continuous
 62
     2
100
AcDbLine
 10
125.370386594335
 20
73.87660009231135
 30
0.0
 11
125.370386594335
 21
-63.12339990768865
 31
0.0
  0
LINE
  5
20B
330
209
100
AcDbEntity
  8
1
  6
Continuous
 62
     2
100
AcDbLine
 10
155.2482796794875
 20
-63.12339990768865
 30
0.0
 11
123.370386594335
 21
-63.12339990768865
 31
0.0
  0
LINE
  5
20C
330
209
100
AcDbEntity
  8
1
  6
Continuous
 62
     2
100
AcDbLine
 10
155.2482796794875
 20
73.87660009231136
 30
0.0
 11
123.370386594335
 21
73.87660009231136
 31
0.0
  0
SOLID
  5
20D
330
209
100
AcDbEntity
  8
1
 62
     2
100
AcDbTrace
 10
125.8311703358909
 20
70.37660009231135
 30
0.0
 11
124.9096028527791
 21
70.37660009231135
 31
0.0
 12
125.370386594335
 22
73.87660009231135
 32
0.0
 13
125.370386594335
 23
73.87660009231135
 33
0.0
  0
SOLID
  5
20E
330
209
100
AcDbEntity
  8
1
 62
     2
100
AcDbTrace
 10
124.9096028527791
 20
-59.62339990768865
 30
0.0
 11
125.8311703358909
 21
-59.62339990768865
 31
0.0
 12
125.370386594335
 22
-63.12339990768865
 32
0.0
 13
125.370386594335
 23
-63.12339990768865
 33
0.0
  0
MTEXT
  5
20F
330
209
100
AcDbEntity
  8
1
 62
     2
100
AcDbMText
 10
123.370386594335
 20
-14.19781226794353
 30
0.0
 40
3.5
 41
0.0
 71
     7
 72
     1
  1
\C2;137mm (\C2;5.394\C2;``)
  7
CONVERTER_11
 11
0.0
 21
1.0
 31
0.0
 73
     1
 44
0.60024009603842
  0
ENDBLK
  5
211
330
209
100
AcDbEntity
  8
0
100
AcDbBlockEnd
  0
BLOCK
  5
21B
330
214
100
AcDbEntity
  8
0
100
AcDbBlockBegin
  2
*D18
 70
     1
 10
0.0
 20
0.0
 30
0.0
  3
*D18
  1

  0
LINE
  5
215
330
214
100
AcDbEntity
  8
1
  6
Continuous
 62
     2
100
AcDbLine
 10
117.726890102643
 20
82.87660009231135
 30
0.0
 11
117.726890102643
 21
-72.12339990768865
 31
0.0
  0
LINE
  5
216
330
214
100
AcDbEntity
  8
1
  6
Continuous
 62
     2
100
AcDbLine
 10
170.9119338369392
 20
-72.12339990768865
 30
0.0
 11
115.726890102643
 21
-72.12339990768865
 31
0.0
  0
LINE
  5
217
330
214
100
AcDbEntity
  8
1
  6
Continuous
 62
     2
100
AcDbLine
 10
170.9119338369392
 20
82.87660009231135
 30
0.0
 11
115.726890102643
 21
82.87660009231135
 31
0.0
  0
SOLID
  5
218
330
214
100
AcDbEntity
  8
1
 62
     2
100
AcDbTrace
 10
118.1876738441989
 20
79.37660009231135
 30
0.0
 11
117.2661063610871
 21
79.37660009231135
 31
0.0
 12
117.726890102643
 22
82.87660009231135
 32
0.0
 13
117.726890102643
 23
82.87660009231135
 33
0.0
  0
SOLID
  5
219
330
214
100
AcDbEntity
  8
1
 62
     2
100
AcDbTrace
 10
117.2661063610871
 20
-68.62339990768865
 30
0.0
 11
118.1876738441989
 21
-68.62339990768865
 31
0.0
 12
117.726890102643
 22
-72.12339990768865
 32
0.0
 13
117.726890102643
 23
-72.12339990768865
 33
0.0
  0
MTEXT
  5
21A
330
214
100
AcDbEntity
  8
1
 62
     2
100
AcDbMText
 10
115.726890102643
 20
-12.78742955723578
 30
0.0
 40
3.5
 41
0.0
 71
     7
 72
     1
  1
\C2;155mm (\C2;6.102\C2;``)
  7
CONVERTER_11
 11
0.0
 21
1.0
 31
0.0
 73
     1
 44
0.60024009603842
  0
ENDBLK
  5
21C
330
214
100
AcDbEntity
  8
0
100
AcDbBlockEnd
  0
BLOCK
  5
223
330
21F
100
AcDbEntity
  8
0
100
AcDbBlockBegin
  2
*D19
 70
     1
 10
0.0
 20
0.0
 30
0.0
  3
*D19
  1

  0
LINE
  5
220
330
21F
100
AcDbEntity
  8
1
  6
Continuous
 62
     2
100
AcDbLine
 10
-184.5788868517239
 20
67.39708284188508
 30
0.0
 11
-227.1471795534795
 21
96.00821423623506
 31
0.0
  0
SOLID
  5
221
330
21F
100
AcDbEntity
  8
1
 62
     2
100
AcDbTrace
 10
-187.7407664869217
 20
68.96706336055513
 30
0.0
 11
-187.2266871923072
 21
69.73192223955019
 31
0.0
 12
-184.5788868517239
 22
67.39708284188508
 32
0.0
 13
-184.5788868517239
 23
67.39708284188508
 33
0.0
  0
MTEXT
  5
222
330
21F
100
AcDbEntity
  8
1
 62
     2
100
AcDbMText
 10
-224.7824355254479
 20
96.82858651873191
 30
0.0
 40
3.5
 41
0.0
 71
     7
 72
     1
  1
\C2;R9mm (\C2;0.354\C2;``)
  7
CONVERTER_11
 11
0.8299542822544507
 21
-0.5578314166193041
 31
0.0
 73
     1
 44
0.60024009603842
  0
ENDBLK
  5
224
330
21F
100
AcDbEntity
  8
0
100
AcDbBlockEnd
  0
BLOCK
  5
22C
330
226
100
AcDbEntity
  8
0
100
AcDbBlockBegin
  2
*D20
 70
     1
 10
0.0
 20
0.0
 30
0.0
  3
*D20
  1

  0
LINE
  5
227
330
226
100
AcDbEntity
  8
1
  6
Continuous
 62
     2
100
AcDbLine
 10
-179.4204664317471
 20
-57.67179622275471
 30
0.0
 11
-183.5222123856089
 21
-54.39487996963216
 31
0.0
  0
LINE
  5
228
330
226
100
AcDbEntity
  8
1
  6
Continuous
 62
     2
100
AcDbLine
 10
-129.3145485632566
 20
-97.70179771182634
 30
0.0
 11
-169.4981301911205
 21
-65.59882662921957
 31
0.0
  0
SOLID
  5
229
330
226
100
AcDbEntity
  8
1
 62
     2
100
AcDbTrace
 10
-166.4760234158071
 20
-67.42343406510469
 30
0.0
 11
-167.0512423612848
 21
-68.14344086416455
 31
0.0
 12
-169.4981301911205
 22
-65.59882662921957
 32
0.0
 13
-169.4981301911205
 23
-65.59882662921957
 33
0.0
  0
SOLID
  5
22A
330
226
100
AcDbEntity
  8
1
 62
     2
100
AcDbTrace
 10
-182.4425732070605
 20
-55.84718878686959
 30
0.0
 11
-181.8673542615828
 21
-55.12718198780973
 31
0.0
 12
-179.4204664317471
 22
-57.67179622275471
 32
0.0
 13
-179.4204664317471
 23
-57.67179622275471
 33
0.0
  0
MTEXT
  5
22B
330
226
100
AcDbEntity
  8
1
 62
     2
100
AcDbMText
 10
-149.737090637351
 20
-78.8261869539768
 30
0.0
 40
3.5
 41
0.0
 71
     7
 72
     1
  1
cutter\U+00f81/2``
  7
CONVERTER_11
 11
0.7812849435927143
 21
-0.6241745244042963
 31
0.0
 73
     1
 44
0.60024009603842
  0
ENDBLK
  5
22D
330
226
100
AcDbEntity
  8
0
100
AcDbBlockEnd
  0
BLOCK
  5
235
330
22F
100
AcDbEntity
  8
0
100
AcDbBlockBegin
  2
*D21
 70
     1
 10
0.0
 20
0.0
 30
0.0
  3
*D21
  1

  0
LINE
  5
230
330
22F
100
AcDbEntity
  8
1
  6
Continuous
 62
     2
100
AcDbLine
 10
173.604080485384
 20
-59.69062126837765
 30
0.0
 11
178.0208159033895
 21
-56.85249719650633
 31
0.0
  0
LINE
  5
231
330
22F
100
AcDbEntity
  8
1
  6
Continuous
 62
     2
100
AcDbLine
 10
118.7812605579898
 20
-94.9188951399569
 30
0.0
 11
162.9197871884944
 21
-66.55617854699966
 31
0.0
  0
SOLID
  5
232
330
22F
100
AcDbEntity
  8
1
 62
     2
100
AcDbTrace
 10
160.2243943248405
 20
-68.8359107608893
 30
0.0
 11
159.7261994948075
 21
-68.06061176227179
 31
0.0
 12
162.9197871884944
 22
-66.55617854699966
 32
0.0
 13
162.9197871884944
 23
-66.55617854699966
 33
0.0
  0
SOLID
  5
233
330
22F
100
AcDbEntity
  8
1
 62
     2
100
AcDbTrace
 10
176.2994733490378
 20
-57.410889054488
 30
0.0
 11
176.7976681790709
 21
-58.18618805310552
 31
0.0
 12
173.604080485384
 22
-59.69062126837765
 32
0.0
 13
173.604080485384
 23
-59.69062126837765
 33
0.0
  0
MTEXT
  5
234
330
22F
100
AcDbEntity
  8
1
 62
     2
100
AcDbMText
 10
117.7000704353721
 20
-93.23632926643097
 30
0.0
 40
3.5
 41
0.0
 71
     7
 72
     1
  1
cutter\U+00f81/2``
  7
CONVERTER_11
 11
0.8412829367629614
 21
0.5405950613088203
 31
0.0
 73
     1
 44
0.60024009603842
  0
ENDBLK
  5
236
330
22F
100
AcDbEntity
  8
0
100
AcDbBlockEnd
  0
BLOCK
  5
23E
330
238
100
AcDbEntity
  8
0
100
AcDbBlockBegin
  2
*D22
 70
     1
 10
0.0
 20
0.0
 30
0.0
  3
*D22
  1

  0
LINE
  5
239
330
238
100
AcDbEntity
  8
1
  6
Continuous
 62
     2
100
AcDbLine
 10
169.4983837373393
 20
75.87472748305554
 30
0.0
 11
164.5509583887398
 21
74.1181733506602
 31
0.0
  0
LINE
  5
23A
330
238
100
AcDbEntity
  8
1
  6
Continuous
 62
     2
100
AcDbLine
 10
218.2444052648055
 20
93.1817143537399
 30
0.0
 11
172.3254839365391
 21
76.87847270156716
 31
0.0
  0
SOLID
  5
23B
330
238
100
AcDbEntity
  8
1
 62
     2
100
AcDbTrace
 10
175.4695976764872
 20
78.48373605901094
 30
0.0
 11
175.7779373280569
 21
77.61528152065053
 31
0.0
 12
172.3254839365391
 22
76.87847270156716
 32
0.0
 13
172.3254839365391
 23
76.87847270156716
 33
0.0
  0
SOLID
  5
23C
330
238
100
AcDbEntity
  8
1
 62
     2
100
AcDbTrace
 10
166.3542699973912
 20
74.26946412561176
 30
0.0
 11
166.0459303458215
 21
75.13791866397217
 31
0.0
 12
169.4983837373393
 22
75.87472748305554
 32
0.0
 13
169.4983837373393
 23
75.87472748305554
 33
0.0
  0
MTEXT
  5
23D
330
238
100
AcDbEntity
  8
1
 62
     2
100
AcDbMText
 10
184.2131035184085
 20
83.22141778708716
 30
0.0
 40
3.5
 41
0.0
 71
     7
 72
     1
  1
\C2;\U+00f83mm (\C2;0.118\C2;``)
  7
CONVERTER_11
 11
0.9423667330665708
 21
0.3345817395038744
 31
0.0
 73
     1
 44
0.60024009603842
  0
ENDBLK
  5
23F
330
238
100
AcDbEntity
  8
0
100
AcDbBlockEnd
  0
ENDSEC
  0
SECTION
  2
ENTITIES
  0
POINT
  5
43
330
1F
100
AcDbEntity
  8
1
 62
     3
 60
     1
100
AcDbPoint
 10
168.2619338369392
 20
-70.7929479630571
 30
0.0
  0
POINT
  5
44
330
1F
100
AcDbEntity
  8
1
 62
     3
 60
     1
100
AcDbPoint
 10
168.2619338369392
 20
-55.7929479630571
 30
0.0
  0
POINT
  5
45
330
1F
100
AcDbEntity
  8
1
 62
     3
 60
     1
100
AcDbPoint
 10
161.9119338369392
 20
-63.12339990768867
 30
0.0
  0
POINT
  5
46
330
1F
100
AcDbEntity
  8
1
 62
     3
 60
     1
100
AcDbPoint
 10
168.2619338369392
 20
-63.12339990768865
 30
0.0
  0
POINT
  5
47
330
1F
100
AcDbEntity
  8
1
 62
     3
 60
     1
100
AcDbPoint
 10
-174.4592983114338
 20
-68.4436595834868
 30
0.0
  0
POINT
  5
48
330
1F
100
AcDbEntity
  8
1
 62
     3
 60
     1
100
AcDbPoint
 10
-174.4592983114338
 20
-54.4436595834868
 30
0.0
  0
POINT
  5
49
330
1F
100
AcDbEntity
  8
1
 62
     3
 60
     1
100
AcDbPoint
 10
-168.1092983114338
 20
-61.62339990768865
 30
0.0
  0
POINT
  5
4A
330
1F
100
AcDbEntity
  8
1
 62
     3
 60
     1
100
AcDbPoint
 10
-174.4592983114338
 20
-61.63531142598714
 30
0.0
  0
POINT
  5
4B
330
1F
100
AcDbEntity
  8
1
 62
     3
 60
     1
100
AcDbPoint
 10
15.38679367266695
 20
-42.69793997026321
 30
0.0
  0
POINT
  5
4C
330
1F
100
AcDbEntity
  8
1
 62
     3
 60
     1
100
AcDbPoint
 10
15.38679367266695
 20
-26.69793997026321
 30
0.0
  0
POINT
  5
4D
330
1F
100
AcDbEntity
  8
1
 62
     3
 60
     1
100
AcDbPoint
 10
12.38679367266665
 20
-60.69793997026319
 30
0.0
  0
POINT
  5
4E
330
1F
100
AcDbEntity
  8
1
 62
     3
 60
     1
100
AcDbPoint
 10
29.3867936726667
 20
-60.69793997026319
 30
0.0
  0
POINT
  5
4F
330
1F
100
AcDbEntity
  8
1
 62
     3
 60
     1
100
AcDbPoint
 10
-36.0507179525206
 20
36.0260258415958
 30
0.0
  0
POINT
  5
50
330
1F
100
AcDbEntity
  8
1
 62
     3
 60
     1
100
AcDbPoint
 10
-2.0507179525206
 20
36.0260258415958
 30
0.0
  0
POINT
  5
51
330
1F
100
AcDbEntity
  8
1
 62
     3
 60
     1
100
AcDbPoint
 10
-14.0507179525206
 20
3.0260258415958
 30
0.0
  0
POINT
  5
52
330
1F
100
AcDbEntity
  8
1
 62
     3
 60
     1
100
AcDbPoint
 10
155.2482796794875
 20
73.87660009231136
 30
0.0
  0
POINT
  5
53
330
1F
100
AcDbEntity
  8
1
 62
     3
 60
     1
100
AcDbPoint
 10
183.9119338369392
 20
73.87660009231138
 30
0.0
  0
POINT
  5
54
330
1F
100
AcDbEntity
  8
1
 62
     3
 60
     1
100
AcDbPoint
 10
177.9119338369392
 20
5.37660009231135
 30
0.0
  0
POINT
  5
55
330
1F
100
AcDbEntity
  8
1
 62
     3
 60
     1
100
AcDbPoint
 10
170.9119338369392
 20
73.87660009231138
 30
0.0
  0
POINT
  5
56
330
1F
100
AcDbEntity
  8
1
 62
     3
 60
     1
100
AcDbPoint
 10
177.9119338369392
 20
57.37660009231134
 30
0.0
  0
LINE
  5
57
330
1F
100
AcDbEntity
  8
1
  6
DOT_CENTER
 62
     2
100
AcDbLine
 10
168.2619338369392
 20
-55.7929479630571
 30
0.0
 11
168.2619338369392
 21
-70.7929479630571
 31
0.0
  0
LINE
  5
58
330
1F
100
AcDbEntity
  8
1
  6
DOT_CENTER
 62
     2
100
AcDbLine
 10
161.9119338369392
 20
-63.12339990768867
 30
0.0
 11
155.2482796794875
 21
-63.12339990768866
 31
0.0
  0
LINE
  5
59
330
1F
100
AcDbEntity
  8
1
  6
DOT_CENTER
 62
     2
100
AcDbLine
 10
-174.4592983114338
 20
-54.4436595834868
 30
0.0
 11
-174.4592983114338
 21
-68.4436595834868
 31
0.0
  0
LINE
  5
5A
330
1F
100
AcDbEntity
  8
1
  6
DOT_CENTER
 62
     2
100
AcDbLine
 10
-142.4897709387598
 20
-90.5033663449061
 30
0.0
 11
-142.4897709387598
 21
-94.62339990768866
 31
0.0
  0
LINE
  5
5B
330
1F
100
AcDbEntity
  8
1
  6
Continuous
 62
     7
100
AcDbLine
 10
-168.1092983114338
 20
-51.62339990768865
 30
0.0
 11
-168.1092983114338
 21
72.37660009231135
 31
0.0
  0
LINE
  5
5C
330
1F
100
AcDbEntity
  8
1
  6
Continuous
 62
     7
100
AcDbLine
 10
-168.1092983114338
 20
71.37660009231135
 30
0.0
 11
-168.1092983114338
 21
72.37660009231135
 31
0.0
  0
LINE
  5
5D
330
1F
100
AcDbEntity
  8
1
  6
DOT_CENTER
 62
     2
100
AcDbLine
 10
-149.813153873782
 20
5.37660009231135
 30
0.0
 11
-135.8383329234636
 21
5.37660009231135
 31
0.0
  0
LINE
  5
5E
330
1F
100
AcDbEntity
  8
1
  6
DOT_CENTER
 62
     2
100
AcDbLine
 10
-188.554644728426
 20
62.87660009231135
 30
0.0
 11
-166.132898766084
 21
62.87660009231135
 31
0.0
  0
LINE
  5
5F
330
1F
100
AcDbEntity
  8
1
  6
DOT_CENTER
 62
     2
100
AcDbLine
 10
-186.939077315715
 20
-52.12339990768866
 30
0.0
 11
-166.009785283542
 21
-52.12339990768866
 31
0.0
  0
LINE
  5
60
330
1F
100
AcDbEntity
  8
1
  6
DOT_CENTER
 62
     2
100
AcDbLine
 10
-177.1092983114338
 20
74.1913679844397
 30
0.0
 11
-177.1092983114338
 21
-62.92176113992363
 31
0.0
  0
LINE
  5
61
330
1F
100
AcDbEntity
  8
1
  6
DOT_CENTER
 62
     2
100
AcDbLine
 10
-197.6000806359427
 20
5.37660009231135
 30
0.0
 11
-159.866450626103
 21
5.37660009231135
 31
0.0
  0
LINE
  5
62
330
1F
100
AcDbEntity
  8
1
  6
DOT_CENTER
 62
     2
100
AcDbLine
 10
-190.620962865328
 20
-61.63531142598714
 30
0.0
 11
-166.18830624847
 21
-61.63531142598714
 31
0.0
  0
LINE
  5
63
330
1F
100
AcDbEntity
  8
1
  6
DOT_CENTER
 62
     2
100
AcDbLine
 10
-179.1092983114338
 20
-75.5804222971521
 30
0.0
 11
-179.1092983114338
 21
86.3336224817748
 31
0.0
  0
LINE
  5
64
330
1F
100
AcDbEntity
  8
1
  6
DOT_CENTER
 62
     2
100
AcDbLine
 10
-190.620962865328
 20
72.37660009231135
 30
0.0
 11
-166.856329904655
 21
72.37660009231135
 31
0.0
  0
LINE
  5
65
330
1F
100
AcDbEntity
  8
1
  6
Continuous
 62
     7
100
AcDbLine
 10
-189.1092983114338
 20
-61.62339990768865
 30
0.0
 11
-189.1092983114338
 21
72.37660009231135
 31
0.0
  0
LINE
  5
66
330
1F
100
AcDbEntity
  8
1
  6
Continuous
 62
     7
100
AcDbLine
 10
-168.1092983114338
 20
-61.62339990768865
 30
0.0
 11
-168.1092983114338
 21
-51.62339990768865
 31
0.0
  0
LINE
  5
67
330
1F
100
AcDbEntity
  8
1
  6
Continuous
 62
     7
100
AcDbLine
 10
-186.1092983114338
 20
-51.62339990768865
 30
0.0
 11
-186.1092983114338
 21
62.37660009231134
 31
0.0
  0
LINE
  5
68
330
1F
100
AcDbEntity
  8
1
  6
Continuous
 62
     7
100
AcDbLine
 10
-78.80177865188125
 20
71.37660009231135
 30
0.0
 11
-78.80177865188125
 21
-50.62339990768866
 31
0.0
  0
LINE
  5
69
330
1F
100
AcDbEntity
  8
1
  6
Continuous
 62
     7
100
AcDbLine
 10
-78.80177865188125
 20
-60.62339990768867
 30
0.0
 11
-78.80177865188125
 21
-50.62339990768866
 31
0.0
  0
LINE
  5
6A
330
1F
100
AcDbEntity
  8
1
  6
Continuous
 62
     7
100
AcDbLine
 10
-68.80177865188125
 20
-72.12339990768866
 30
0.0
 11
-68.80177865188125
 21
-94.62339990768865
 31
0.0
  0
LINE
  5
6B
330
1F
100
AcDbEntity
  8
1
  6
Continuous
 62
     7
100
AcDbLine
 10
-78.80177865188125
 20
-72.12339990768865
 30
0.0
 11
-68.80177865188125
 21
-72.12339990768866
 31
0.0
  0
LINE
  5
6C
330
1F
100
AcDbEntity
  8
1
  6
Continuous
 62
     7
100
AcDbLine
 10
-78.80177865188125
 20
-60.62339990768867
 30
0.0
 11
-78.80177865188125
 21
-72.12339990768865
 31
0.0
  0
LINE
  5
6D
330
1F
100
AcDbEntity
  8
1
  6
Continuous
 62
     7
100
AcDbLine
 10
-92.80488390961862
 20
-60.62339990768862
 30
0.0
 11
-83.8017786518812
 21
-60.62339990768866
 31
0.0
  0
LINE
  5
6E
330
1F
100
AcDbEntity
  8
1
  6
Continuous
 62
     7
100
AcDbLine
 10
-92.80177865188125
 20
71.37660009231135
 30
0.0
 11
-92.80488390961862
 21
-60.62339990768862
 31
0.0
  0
LINE
  5
6F
330
1F
100
AcDbEntity
  8
1
  6
Continuous
 62
     7
100
AcDbLine
 10
-83.8017786518812
 20
71.37660009231135
 30
0.0
 11
-92.80177865188125
 21
71.37660009231135
 31
0.0
  0
LINE
  5
70
330
1F
100
AcDbEntity
  8
1
  6
Continuous
 62
     7
100
AcDbLine
 10
-78.80177865188125
 20
82.87660009231135
 30
0.0
 11
-78.80177865188125
 21
71.37660009231135
 31
0.0
  0
LINE
  5
71
330
1F
100
AcDbEntity
  8
1
  6
Continuous
 62
     7
100
AcDbLine
 10
-68.80177865188125
 20
82.87660009231135
 30
0.0
 11
-68.80177865188125
 21
-72.12339990768866
 31
0.0
  0
LINE
  5
72
330
1F
100
AcDbEntity
  8
1
  6
Continuous
 62
     7
100
AcDbLine
 10
-68.80177865188125
 20
82.87660009231135
 30
0.0
 11
-78.80177865188125
 21
82.87660009231135
 31
0.0
  0
LINE
  5
73
330
1F
100
AcDbEntity
  8
1
  6
DOT_CENTER
 62
     2
100
AcDbLine
 10
-68.80177865188125
 20
-94.62339990768865
 30
0.0
 11
-55.80177865188119
 21
-94.62339990768865
 31
0.0
  0
LINE
  5
74
330
1F
100
AcDbEntity
  8
1
  6
DOT_CENTER
 62
     2
100
AcDbLine
 10
-68.80177865188125
 20
105.3766000923113
 30
0.0
 11
-55.80177865188119
 21
105.3766000923113
 31
0.0
  0
LINE
  5
75
330
1F
100
AcDbEntity
  8
1
  6
Continuous
 62
     7
100
AcDbLine
 10
-68.80177865188125
 20
105.3766000923113
 30
0.0
 11
-68.80177865188125
 21
82.87660009231135
 31
0.0
  0
LINE
  5
76
330
1F
100
AcDbEntity
  8
1
  6
DOT_CENTER
 62
     2
100
AcDbLine
 10
-55.80177865188119
 20
-94.62339990768865
 30
0.0
 11
-51.29189472598307
 21
-94.62339990768865
 31
0.0
  0
LINE
  5
77
330
1F
100
AcDbEntity
  8
1
  6
DOT_CENTER
 62
     2
100
AcDbLine
 10
-55.80177865188119
 20
105.3766000923113
 30
0.0
 11
-51.29189472598307
 21
105.3766000923113
 31
0.0
  0
LINE
  5
78
330
1F
100
AcDbEntity
  8
1
  6
Continuous
 62
     7
100
AcDbLine
 10
-55.80177865188119
 20
-94.62339990768865
 30
0.0
 11
-55.80177865188119
 21
105.3766000923113
 31
0.0
  0
LINE
  5
79
330
1F
100
AcDbEntity
  8
1
  6
DOT_CENTER
 62
     2
100
AcDbLine
 10
-108.8017786518813
 20
-94.62339990768865
 30
0.0
 11
-68.80177865188125
 21
-94.62339990768865
 31
0.0
  0
LINE
  5
7A
330
1F
100
AcDbEntity
  8
1
  6
DOT_CENTER
 62
     2
100
AcDbLine
 10
-108.8017786518813
 20
105.3766000923113
 30
0.0
 11
-68.80177865188125
 21
105.3766000923113
 31
0.0
  0
LINE
  5
7B
330
1F
100
AcDbEntity
  8
1
  6
Continuous
 62
     7
100
AcDbLine
 10
-108.8017786518813
 20
105.3766000923113
 30
0.0
 11
-108.8017786518813
 21
-94.62339990768865
 31
0.0
  0
LINE
  5
7C
330
1F
100
AcDbEntity
  8
1
  6
DOT_CENTER
 62
     2
100
AcDbLine
 10
-114.5635309971518
 20
-94.62339990768865
 30
0.0
 11
-108.8017786518813
 21
-94.62339990768865
 31
0.0
  0
LINE
  5
7D
330
1F
100
AcDbEntity
  8
1
  6
DOT_CENTER
 62
     2
100
AcDbLine
 10
-114.5635309971518
 20
5.37660009231135
 30
0.0
 11
-51.29189472598307
 21
5.37660009231135
 31
0.0
  0
LINE
  5
7E
330
1F
100
AcDbEntity
  8
1
  6
DOT_CENTER
 62
     2
100
AcDbLine
 10
-114.5635309971518
 20
105.3766000923113
 30
0.0
 11
-108.8017786518813
 21
105.3766000923113
 31
0.0
  0
LINE
  5
7F
330
1F
100
AcDbEntity
  8
1
  6
DOT_CENTER
 62
     2
100
AcDbLine
 10
-163.1092983114338
 20
-94.62339990768865
 30
0.0
 11
-142.4897709387598
 21
-94.62339990768866
 31
0.0
  0
LINE
  5
80
330
1F
100
AcDbEntity
  8
1
  6
DOT_CENTER
 62
     2
100
AcDbLine
 10
-163.1092983114338
 20
105.3766000923113
 30
0.0
 11
-142.4897709387598
 21
105.3766000923113
 31
0.0
  0
LINE
  5
81
330
1F
100
AcDbEntity
  8
1
  6
Continuous
 62
     7
100
AcDbLine
 10
-163.1092983114338
 20
105.3766000923113
 30
0.0
 11
-163.1092983114338
 21
-94.62339990768865
 31
0.0
  0
LINE
  5
82
330
1F
100
AcDbEntity
  8
1
  6
DOT_CENTER
 62
     2
100
AcDbLine
 10
-192.1092983114338
 20
-94.62339990768865
 30
0.0
 11
-163.1092983114338
 21
-94.62339990768865
 31
0.0
  0
LINE
  5
83
330
1F
100
AcDbEntity
  8
1
  6
DOT_CENTER
 62
     2
100
AcDbLine
 10
-192.1092983114338
 20
105.3766000923113
 30
0.0
 11
-163.1092983114338
 21
105.3766000923113
 31
0.0
  0
LINE
  5
84
330
1F
100
AcDbEntity
  8
1
  6
Continuous
 62
     7
100
AcDbLine
 10
-192.1092983114338
 20
105.3766000923113
 30
0.0
 11
-192.1092983114338
 21
-94.62339990768865
 31
0.0
  0
LINE
  5
85
330
1F
100
AcDbEntity
  8
1
  6
DOT_CENTER
 62
     2
100
AcDbLine
 10
-142.4897709387598
 20
105.3766000923113
 30
0.0
 11
-142.4897709387598
 21
109.761881720986
 31
0.0
  0
LINE
  5
86
330
1F
100
AcDbEntity
  8
1
  6
DOT_CENTER
 62
     2
100
AcDbLine
 10
-142.4897709387598
 20
-94.62339990768866
 30
0.0
 11
-142.4897709387598
 21
-99.90359801694666
 31
0.0
  0
LINE
  5
87
330
1F
100
AcDbEntity
  8
1
  6
DOT_CENTER
 62
     2
100
AcDbLine
 10
-142.4897709387598
 20
-94.62339990768866
 30
0.0
 11
-137.5343223151126
 21
-94.62339990768865
 31
0.0
  0
LINE
  5
88
330
1F
100
AcDbEntity
  8
1
  6
DOT_CENTER
 62
     2
100
AcDbLine
 10
-142.4897709387598
 20
105.3766000923113
 30
0.0
 11
-137.5343223151126
 21
105.3766000923113
 31
0.0
  0
LINE
  5
89
330
1F
100
AcDbEntity
  8
1
  6
DOT_CENTER
 62
     2
100
AcDbLine
 10
-142.4897709387598
 20
105.3766000923113
 30
0.0
 11
-142.4897709387598
 21
-76.801730201106
 31
0.0
  0
LINE
  5
8A
330
1F
100
AcDbEntity
  8
1
  6
DOT_CENTER
 62
     2
100
AcDbLine
 10
-196.6000806359427
 20
-94.62339990768865
 30
0.0
 11
-192.1092983114338
 21
-94.62339990768865
 31
0.0
  0
LINE
  5
8B
330
1F
100
AcDbEntity
  8
1
  6
DOT_CENTER
 62
     2
100
AcDbLine
 10
-194.6000806359427
 20
105.3766000923113
 30
0.0
 11
-192.1092983114338
 21
105.3766000923113
 31
0.0
  0
LINE
  5
8C
330
1F
100
AcDbEntity
  8
1
  6
DOT_CENTER
 62
     2
100
AcDbLine
 10
14.580883670625
 20
-53.6979399702632
 30
0.0
 11
0.86388297763482
 21
-53.6979399702632
 31
0.0
  0
LINE
  5
8D
330
1F
100
AcDbEntity
  8
1
  6
Continuous
 62
     7
100
AcDbLine
 10
29.3867936726667
 20
-60.69793997026319
 30
0.0
 11
29.3867936726667
 21
-44.69793997026326
 31
0.0
  0
LINE
  5
8E
330
1F
100
AcDbEntity
  8
1
  6
Continuous
 62
     7
100
AcDbLine
 10
12.38679367266665
 20
-60.69793997026319
 30
0.0
 11
12.38679367266663
 21
-62.69793997026319
 31
0.0
  0
LINE
  5
8F
330
1F
100
AcDbEntity
  8
1
  6
Continuous
 62
     7
100
AcDbLine
 10
12.38679367266665
 20
-60.69793997026319
 30
0.0
 11
29.3867936726667
 21
-60.69793997026319
 31
0.0
  0
LINE
  5
90
330
1F
100
AcDbEntity
  8
1
  6
PHANTOM
 62
     2
100
AcDbLine
 10
47.38679367266684
 20
-26.69793997026321
 30
0.0
 11
47.38679367266686
 21
-23.65515166616186
 31
0.0
  0
LINE
  5
91
330
1F
100
AcDbEntity
  8
1
  6
Continuous
 62
     7
100
AcDbLine
 10
15.38679367266695
 20
-26.69793997026321
 30
0.0
 11
47.38679367266684
 21
-26.69793997026321
 31
0.0
  0
LINE
  5
92
330
1F
100
AcDbEntity
  8
1
  6
Continuous
 62
     7
100
AcDbLine
 10
15.38679367266695
 20
-42.69793997026321
 30
0.0
 11
15.38679367266695
 21
-26.69793997026321
 31
0.0
  0
LINE
  5
93
330
1F
100
AcDbEntity
  8
1
  6
Continuous
 62
     7
100
AcDbLine
 10
10.15474286509789
 20
-42.69793997026326
 30
0.0
 11
15.38679367266695
 21
-42.69793997026321
 31
0.0
  0
LINE
  5
94
330
1F
100
AcDbEntity
  8
1
  6
PHANTOM
 62
     2
100
AcDbLine
 10
47.38679367266684
 20
-68.47367057736668
 30
0.0
 11
47.38679367266684
 21
-66.6979399702632
 31
0.0
  0
LINE
  5
95
330
1F
100
AcDbEntity
  8
1
  6
PHANTOM
 62
     2
100
AcDbLine
 10
47.38679367266684
 20
-66.6979399702632
 30
0.0
 11
47.38679367266684
 21
-26.69793997026321
 31
0.0
  0
LINE
  5
96
330
1F
100
AcDbEntity
  8
1
  6
Continuous
 62
     7
100
AcDbLine
 10
2.38679367266681
 20
-44.69793997026316
 30
0.0
 11
2.38679367266684
 21
-42.69793997026321
 31
0.0
  0
LINE
  5
97
330
1F
100
AcDbEntity
  8
1
  6
Continuous
 62
     7
100
AcDbLine
 10
29.3867936726667
 20
-44.69793997026326
 30
0.0
 11
12.38679367266682
 21
-44.69793997026319
 31
0.0
  0
LINE
  5
98
330
1F
100
AcDbEntity
  8
1
  6
Continuous
 62
     7
100
AcDbLine
 10
2.38679367266664
 20
-62.69793997026319
 30
0.0
 11
12.38679367266663
 21
-62.69793997026319
 31
0.0
  0
LINE
  5
99
330
1F
100
AcDbEntity
  8
1
  6
Continuous
 62
     7
100
AcDbLine
 10
2.38679367266664
 20
-66.6979399702632
 30
0.0
 11
2.38679367266664
 21
-62.69793997026319
 31
0.0
  0
LINE
  5
9A
330
1F
100
AcDbEntity
  8
1
  6
Continuous
 62
     7
100
AcDbLine
 10
47.38679367266684
 20
-66.6979399702632
 30
0.0
 11
2.38679367266664
 21
-66.6979399702632
 31
0.0
  0
LINE
  5
9B
330
1F
100
AcDbEntity
  8
1
  6
Continuous
 62
     7
100
AcDbLine
 10
12.38679367266682
 20
-44.69793997026319
 30
0.0
 11
12.38679367266665
 21
-60.69793997026319
 31
0.0
  0
LINE
  5
9C
330
1F
100
AcDbEntity
  8
1
  6
Continuous
 62
     7
100
AcDbLine
 10
12.38679367266682
 20
-44.69793997026319
 30
0.0
 11
2.38679367266681
 21
-44.69793997026316
 31
0.0
  0
LINE
  5
9D
330
1F
100
AcDbEntity
  8
1
  6
DOT_CENTER
 62
     2
100
AcDbLine
 10
30.99343703560656
 20
-52.69793997026323
 30
0.0
 11
10.2442424891523
 21
-52.69793997026323
 31
0.0
  0
LINE
  5
9E
330
1F
100
AcDbEntity
  8
1
  6
Continuous
 62
     7
100
AcDbLine
 10
2.38679367266664
 20
-62.69793997026319
 30
0.0
 11
2.38679367266681
 21
-44.69793997026316
 31
0.0
  0
LINE
  5
9F
330
1F
100
AcDbEntity
  8
1
  6
DOT_CENTER
 62
     2
100
AcDbLine
 10
-17.11417331874418
 20
-53.69793997026323
 30
0.0
 11
0.10542870525273
 21
-53.69793997026323
 31
0.0
  0
LINE
  5
A0
330
1F
100
AcDbEntity
  8
1
  6
Continuous
 62
     7
100
AcDbLine
 10
-11.11320632733327
 20
-42.6979399702632
 30
0.0
 11
-11.11320632733327
 21
24.08734679886903
 31
0.0
  0
LINE
  5
A1
330
1F
100
AcDbEntity
  8
1
  6
Continuous
 62
     7
100
AcDbLine
 10
-1.11320632733327
 20
-37.69793997026321
 30
0.0
 11
-1.11320632733316
 21
-42.69793997026321
 31
0.0
  0
LINE
  5
A2
330
1F
100
AcDbEntity
  8
1
  6
Continuous
 62
     7
100
AcDbLine
 10
-1.11320632733316
 20
-42.69793997026321
 30
0.0
 11
-1.11320632733316
 21
-63.69793997026321
 31
0.0
  0
LINE
  5
A3
330
1F
100
AcDbEntity
  8
1
  6
Continuous
 62
     7
100
AcDbLine
 10
-11.11320632733327
 20
-42.6979399702632
 30
0.0
 11
-1.11320632733316
 21
-42.69793997026321
 31
0.0
  0
LINE
  5
A4
330
1F
100
AcDbEntity
  8
1
  6
Continuous
 62
     7
100
AcDbLine
 10
-15.11320632733316
 20
-63.69793997026321
 30
0.0
 11
-16.11320632733316
 21
-63.69793997026321
 31
0.0
  0
LINE
  5
A5
330
1F
100
AcDbEntity
  8
1
  6
Continuous
 62
     7
100
AcDbLine
 10
-16.11320632733316
 20
-59.69793997026324
 30
0.0
 11
-25.11320632733316
 21
-59.69793997026325
 31
0.0
  0
LINE
  5
A6
330
1F
100
AcDbEntity
  8
1
  6
Continuous
 62
     7
100
AcDbLine
 10
-16.11320632733316
 20
-63.69793997026321
 30
0.0
 11
-16.11320632733316
 21
-59.69793997026324
 31
0.0
  0
LINE
  5
A7
330
1F
100
AcDbEntity
  8
1
  6
PHANTOM
 62
     2
100
AcDbLine
 10
-12.86320632733339
 20
-23.44793997026322
 30
0.0
 11
-12.86320632733339
 21
-17.94793997026322
 31
0.0
  0
LINE
  5
A8
330
1F
100
AcDbEntity
  8
1
  6
PHANTOM
 62
     2
100
AcDbLine
 10
-12.86320632733339
 20
-17.94793997026322
 30
0.0
 11
-15.11320632733339
 21
-15.6979399702632
 31
0.0
  0
LINE
  5
A9
330
1F
100
AcDbEntity
  8
1
  6
PHANTOM
 62
     2
100
AcDbLine
 10
-11.11320632733339
 20
-17.94793997026322
 30
0.0
 11
-12.86320632733339
 21
-17.94793997026322
 31
0.0
  0
LINE
  5
AA
330
1F
100
AcDbEntity
  8
1
  6
PHANTOM
 62
     2
100
AcDbLine
 10
-12.86320632733339
 20
-23.44793997026322
 30
0.0
 11
-15.11320632733339
 21
-25.69793997026322
 31
0.0
  0
LINE
  5
AB
330
1F
100
AcDbEntity
  8
1
  6
PHANTOM
 62
     2
100
AcDbLine
 10
-11.11320632733339
 20
-23.44793997026322
 30
0.0
 11
-12.86320632733339
 21
-23.44793997026322
 31
0.0
  0
LINE
  5
AC
330
1F
100
AcDbEntity
  8
1
  6
PHANTOM
 62
     2
100
AcDbLine
 10
5.38679367266673
 20
-20.69793997026322
 30
0.0
 11
-16.61320632733327
 21
-20.69793997026322
 31
0.0
  0
LINE
  5
AD
330
1F
100
AcDbEntity
  8
1
  6
PHANTOM
 62
     2
100
AcDbLine
 10
-12.86320632733339
 20
-6.44793997026321
 30
0.0
 11
-12.86320632733339
 21
-0.94793997026321
 31
0.0
  0
LINE
  5
AE
330
1F
100
AcDbEntity
  8
1
  6
PHANTOM
 62
     2
100
AcDbLine
 10
-12.86320632733339
 20
-0.94793997026321
 30
0.0
 11
-15.11320632733339
 21
1.30206002973679
 31
0.0
  0
LINE
  5
AF
330
1F
100
AcDbEntity
  8
1
  6
PHANTOM
 62
     2
100
AcDbLine
 10
-11.11320632733339
 20
-0.94793997026321
 30
0.0
 11
-12.86320632733339
 21
-0.94793997026321
 31
0.0
  0
LINE
  5
B0
330
1F
100
AcDbEntity
  8
1
  6
PHANTOM
 62
     2
100
AcDbLine
 10
-12.86320632733339
 20
-6.44793997026321
 30
0.0
 11
-15.11320632733339
 21
-8.69793997026322
 31
0.0
  0
LINE
  5
B1
330
1F
100
AcDbEntity
  8
1
  6
PHANTOM
 62
     2
100
AcDbLine
 10
-11.11320632733339
 20
-6.44793997026321
 30
0.0
 11
-12.86320632733339
 21
-6.44793997026321
 31
0.0
  0
LINE
  5
B2
330
1F
100
AcDbEntity
  8
1
  6
PHANTOM
 62
     2
100
AcDbLine
 10
5.38679367266673
 20
-3.69793997026321
 30
0.0
 11
-16.61320632733327
 21
-3.69793997026321
 31
0.0
  0
LINE
  5
B3
330
1F
100
AcDbEntity
  8
1
  6
PHANTOM
 62
     2
100
AcDbLine
 10
-11.11320632733327
 20
6.30206002973679
 30
0.0
 11
-15.11320632733327
 21
6.30206002973679
 31
0.0
  0
LINE
  5
B4
330
1F
100
AcDbEntity
  8
1
  6
PHANTOM
 62
     2
100
AcDbLine
 10
-15.11320632733327
 20
6.30206002973679
 30
0.0
 11
-15.11320632733316
 21
-63.69793997026321
 31
0.0
  0
LINE
  5
B5
330
1F
100
AcDbEntity
  8
1
  6
DOT_CENTER
 62
     2
100
AcDbLine
 10
11.88679367266684
 20
24.08734679886903
 30
0.0
 11
18.90126688979774
 21
24.08734679886903
 31
0.0
  0
LINE
  5
B6
330
1F
100
AcDbEntity
  8
1
  6
Continuous
 62
     7
100
AcDbLine
 10
-1.11320632733316
 20
-39.69793997026326
 30
0.0
 11
0.61884448023557
 21
-42.69793997026326
 31
0.0
  0
LINE
  5
B7
330
1F
100
AcDbEntity
  8
1
  6
Continuous
 62
     7
100
AcDbLine
 10
0.61884448023557
 20
-42.69793997026326
 30
0.0
 11
10.15474286509789
 21
-42.69793997026326
 31
0.0
  0
LINE
  5
B8
330
1F
100
AcDbEntity
  8
1
  6
Continuous
 62
     7
100
AcDbLine
 10
10.15474286509789
 20
-42.69793997026326
 30
0.0
 11
11.88679367266684
 21
-39.69793997026326
 31
0.0
  0
LINE
  5
B9
330
1F
100
AcDbEntity
  8
1
  6
Continuous
 62
     7
100
AcDbLine
 10
11.88679367266684
 20
-39.69793997026326
 30
0.0
 11
11.88679367266684
 21
-37.69793997026326
 31
0.0
  0
LINE
  5
BA
330
1F
100
AcDbEntity
  8
1
  6
Continuous
 62
     7
100
AcDbLine
 10
-0.11320632733316
 20
-38.69793997026326
 30
0.0
 11
10.88679367266684
 21
-38.69793997026326
 31
0.0
  0
LINE
  5
BB
330
1F
100
AcDbEntity
  8
1
  6
Continuous
 62
     7
100
AcDbLine
 10
10.88679367266684
 20
-38.69793997026326
 30
0.0
 11
10.88679367266684
 21
-39.42999077783222
 31
0.0
  0
LINE
  5
BC
330
1F
100
AcDbEntity
  8
1
  6
Continuous
 62
     7
100
AcDbLine
 10
10.88679367266684
 20
-39.42999077783222
 30
0.0
 11
9.57739259590824
 21
-41.69793997026326
 31
0.0
  0
LINE
  5
BD
330
1F
100
AcDbEntity
  8
1
  6
Continuous
 62
     7
100
AcDbLine
 10
9.57739259590824
 20
-41.69793997026326
 30
0.0
 11
1.19619474942522
 21
-41.69793997026326
 31
0.0
  0
LINE
  5
BE
330
1F
100
AcDbEntity
  8
1
  6
Continuous
 62
     7
100
AcDbLine
 10
1.19619474942522
 20
-41.69793997026326
 30
0.0
 11
-0.11320632733316
 21
-39.42999077783222
 31
0.0
  0
LINE
  5
BF
330
1F
100
AcDbEntity
  8
1
  6
Continuous
 62
     7
100
AcDbLine
 10
-0.11320632733316
 20
-39.42999077783222
 30
0.0
 11
-0.11320632733316
 21
-38.69793997026326
 31
0.0
  0
LINE
  5
C0
330
1F
100
AcDbEntity
  8
1
  6
Continuous
 62
     7
100
AcDbLine
 10
-1.11320632733316
 20
-63.69793997026321
 30
0.0
 11
-11.11320632733316
 21
-63.69793997026321
 31
0.0
  0
LINE
  5
C1
330
1F
100
AcDbEntity
  8
1
  6
Continuous
 62
     7
100
AcDbLine
 10
-25.11320632733316
 20
-59.69793997026325
 30
0.0
 11
-25.11320632733316
 21
-51.69793997026321
 31
0.0
  0
LINE
  5
C2
330
1F
100
AcDbEntity
  8
1
  6
Continuous
 62
     7
100
AcDbLine
 10
-1.11320632733327
 20
-37.69793997026321
 30
0.0
 11
11.88679367266684
 21
-37.69793997026326
 31
0.0
  0
LINE
  5
C3
330
1F
100
AcDbEntity
  8
1
  6
Continuous
 62
     7
100
AcDbLine
 10
11.88679367266684
 20
-37.69793997026326
 30
0.0
 11
11.88679367266684
 21
24.08734679886903
 31
0.0
  0
LINE
  5
C4
330
1F
100
AcDbEntity
  8
1
  6
DOT_CENTER
 62
     2
100
AcDbLine
 10
11.88679367266684
 20
24.08734679886903
 30
0.0
 11
-11.11320632733327
 21
24.08734679886903
 31
0.0
  0
LINE
  5
C5
330
1F
100
AcDbEntity
  8
1
  6
Continuous
 62
     7
100
AcDbLine
 10
-1.11320632733316
 20
-66.6979399702632
 30
0.0
 11
-44.11320632733327
 21
-66.69793997026326
 31
0.0
  0
LINE
  5
C6
330
1F
100
AcDbEntity
  8
1
  6
Continuous
 62
     7
100
AcDbLine
 10
-11.11320632733316
 20
-63.69793997026321
 30
0.0
 11
-15.11320632733316
 21
-63.69793997026321
 31
0.0
  0
LINE
  5
C7
330
1F
100
AcDbEntity
  8
1
  6
DOT_CENTER
 62
     2
100
AcDbLine
 10
-11.11320632733327
 20
24.08734679886903
 30
0.0
 11
-15.34507646136615
 21
24.08734679886903
 31
0.0
  0
LINE
  5
C8
330
1F
100
AcDbEntity
  8
1
  6
Continuous
 62
     7
100
AcDbLine
 10
-11.11320632733327
 20
-42.6979399702632
 30
0.0
 11
-11.11320632733327
 21
-51.69793997026321
 31
0.0
  0
LINE
  5
C9
330
1F
100
AcDbEntity
  8
1
  6
Continuous
 62
     7
100
AcDbLine
 10
-1.11320632733316
 20
-63.69793997026321
 30
0.0
 11
-1.11320632733316
 21
-66.6979399702632
 31
0.0
  0
LINE
  5
CA
330
1F
100
AcDbEntity
  8
1
  6
Continuous
 62
     7
100
AcDbLine
 10
-16.11320632733316
 20
-59.69793997026324
 30
0.0
 11
-16.11320632733316
 21
-51.69793997026321
 31
0.0
  0
LINE
  5
CB
330
1F
100
AcDbEntity
  8
1
  6
Continuous
 62
     7
100
AcDbLine
 10
-44.11320632733327
 20
-51.69793997026321
 30
0.0
 11
-25.11320632733316
 21
-51.69793997026321
 31
0.0
  0
LINE
  5
CC
330
1F
100
AcDbEntity
  8
1
  6
Continuous
 62
     7
100
AcDbLine
 10
-44.11320632733327
 20
-51.69793997026321
 30
0.0
 11
-44.11320632733327
 21
-66.69793997026326
 31
0.0
  0
LINE
  5
CD
330
1F
100
AcDbEntity
  8
1
  6
PHANTOM
 62
     2
100
AcDbLine
 10
-11.11320632733327
 20
-51.69793997026321
 30
0.0
 11
-11.11320632733316
 21
-63.69793997026321
 31
0.0
  0
LINE
  5
CE
330
1F
100
AcDbEntity
  8
1
  6
Continuous
 62
     7
100
AcDbLine
 10
-25.11320632733316
 20
-51.69793997026321
 30
0.0
 11
-11.11320632733327
 21
-51.69793997026321
 31
0.0
  0
LINE
  5
CF
330
1F
100
AcDbEntity
  8
1
  6
Continuous
 62
     7
100
AcDbLine
 10
-83.8017786518812
 20
82.87660009231135
 30
0.0
 11
-83.8017786518812
 21
61.37660009231135
 31
0.0
  0
LINE
  5
D0
330
1F
100
AcDbEntity
  8
1
  6
Continuous
 62
     7
100
AcDbLine
 10
-83.8017786518812
 20
82.87660009231135
 30
0.0
 11
-78.80177865188125
 21
82.87660009231135
 31
0.0
  0
LINE
  5
D1
330
1F
100
AcDbEntity
  8
1
  6
Continuous
 62
     7
100
AcDbLine
 10
-83.8017786518812
 20
-72.12339990768865
 30
0.0
 11
-78.80177865188125
 21
-72.12339990768865
 31
0.0
  0
LINE
  5
D2
330
1F
100
AcDbEntity
  8
1
  6
Continuous
 62
     7
100
AcDbLine
 10
-83.8017786518812
 20
-50.62339990768866
 30
0.0
 11
-83.8017786518812
 21
-72.12339990768865
 31
0.0
  0
LINE
  5
D3
330
1F
100
AcDbEntity
  8
1
  6
Continuous
 62
     2
100
AcDbLine
 10
-36.0507179525206
 20
36.0260258415958
 30
0.0
 11
-2.0507179525206
 21
36.0260258415958
 31
0.0
  0
LINE
  5
D4
330
1F
100
AcDbEntity
  8
1
  6
Continuous
 62
     2
100
AcDbLine
 10
-36.0507179525206
 20
36.0260258415958
 30
0.0
 11
-14.0507179525206
 21
3.0260258415958
 31
0.0
  0
LINE
  5
D5
330
1F
100
AcDbEntity
  8
1
  6
Continuous
 62
     7
100
AcDbLine
 10
71.1986003432113
 20
-46.12339990768865
 30
0.0
 11
71.1986003432113
 21
-54.62339990768865
 31
0.0
  0
LINE
  5
D6
330
1F
100
AcDbEntity
  8
1
  6
DOT_CENTER
 62
     2
100
AcDbLine
 10
160.6873616027949
 20
-46.62339990768864
 30
0.0
 11
178.967026411746
 21
-46.62339990768864
 31
0.0
  0
LINE
  5
D7
330
1F
100
AcDbEntity
  8
1
  6
DOT_CENTER
 62
     2
100
AcDbLine
 10
160.6435698257925
 20
57.37660009231134
 30
0.0
 11
179.3225562623248
 21
57.37660009231134
 31
0.0
  0
LINE
  5
D8
330
1F
100
AcDbEntity
  8
1
  6
DOT_CENTER
 62
     2
100
AcDbLine
 10
169.9119338369392
 20
-58.17778590641503
 30
0.0
 11
169.9119338369392
 21
13.98807882745509
 31
0.0
  0
LINE
  5
D9
330
1F
100
AcDbEntity
  8
1
  6
DOT_CENTER
 62
     2
100
AcDbLine
 10
143.9119338369392
 20
105.3766000923114
 30
0.0
 11
159.9119338369392
 21
105.3766000923114
 31
0.0
  0
LINE
  5
DA
330
1F
100
AcDbEntity
  8
1
  6
DOT_CENTER
 62
     2
100
AcDbLine
 10
143.9119338369392
 20
-94.62339990768871
 30
0.0
 11
159.9119338369392
 21
-94.62339990768871
 31
0.0
  0
LINE
  5
DB
330
1F
100
AcDbEntity
  8
1
  6
Continuous
 62
     7
100
AcDbLine
 10
143.9119338369392
 20
105.3766000923114
 30
0.0
 11
143.9119338369392
 21
-94.62339990768871
 31
0.0
  0
LINE
  5
DC
330
1F
100
AcDbEntity
  8
1
  6
DOT_CENTER
 62
     2
100
AcDbLine
 10
183.9119338369392
 20
-63.12339990768865
 30
0.0
 11
161.9119338369392
 21
-63.12339990768867
 31
0.0
  0
LINE
  5
DD
330
1F
100
AcDbEntity
  8
1
  6
DOT_CENTER
 62
     2
100
AcDbLine
 10
170.9119338369392
 20
5.37660009231135
 30
0.0
 11
170.9119338369392
 21
-77.12339990768866
 31
0.0
  0
LINE
  5
DE
330
1F
100
AcDbEntity
  8
1
  6
Continuous
 62
     7
100
AcDbLine
 10
179.9119338369392
 20
5.37660009231135
 30
0.0
 11
179.9119338369392
 21
-63.12339990768865
 31
0.0
  0
LINE
  5
DF
330
1F
100
AcDbEntity
  8
1
  6
Continuous
 62
     7
100
AcDbLine
 10
161.9119338369392
 20
5.37660009231135
 30
0.0
 11
161.9119338369392
 21
-63.12339990768867
 31
0.0
  0
LINE
  5
E0
330
1F
100
AcDbEntity
  8
1
  6
Continuous
 62
     7
100
AcDbLine
 10
177.9119338369392
 20
5.37660009231135
 30
0.0
 11
177.9119338369392
 21
-46.62339990768865
 31
0.0
  0
LINE
  5
E1
330
1F
100
AcDbEntity
  8
1
  6
Continuous
 62
     7
100
AcDbLine
 10
183.9119338369392
 20
-63.12339990768865
 30
0.0
 11
183.9119338369392
 21
105.3766000923114
 31
0.0
  0
LINE
  5
E2
330
1F
100
AcDbEntity
  8
1
  6
DOT_CENTER
 62
     2
100
AcDbLine
 10
177.9119338369392
 20
5.37660009231135
 30
0.0
 11
186.5946427794926
 21
5.37660009231135
 31
0.0
  0
LINE
  5
E3
330
1F
100
AcDbEntity
  8
1
  6
Continuous
 62
     7
100
AcDbLine
 10
177.9119338369392
 20
57.37660009231134
 30
0.0
 11
177.9119338369392
 21
5.37660009231135
 31
0.0
  0
LINE
  5
E4
330
1F
100
AcDbEntity
  8
1
  6
DOT_CENTER
 62
     2
100
AcDbLine
 10
170.9119338369392
 20
5.37660009231135
 30
0.0
 11
177.9119338369392
 21
5.37660009231135
 31
0.0
  0
LINE
  5
E5
330
1F
100
AcDbEntity
  8
1
  6
Continuous
 62
     7
100
AcDbLine
 10
183.9119338369392
 20
73.87660009231138
 30
0.0
 11
183.9119338369392
 21
105.3766000923114
 31
0.0
  0
LINE
  5
E6
330
1F
100
AcDbEntity
  8
1
  6
DOT_CENTER
 62
     2
100
AcDbLine
 10
155.2482796794875
 20
73.87660009231136
 30
0.0
 11
183.9119338369392
 21
73.87660009231138
 31
0.0
  0
LINE
  5
E7
330
1F
100
AcDbEntity
  8
1
  6
Continuous
 62
     7
100
AcDbLine
 10
161.9119338369392
 20
73.87660009231138
 30
0.0
 11
161.9119338369392
 21
5.37660009231135
 31
0.0
  0
LINE
  5
E8
330
1F
100
AcDbEntity
  8
1
  6
DOT_CENTER
 62
     2
100
AcDbLine
 10
141.4034493333617
 20
105.3766000923114
 30
0.0
 11
143.9119338369392
 21
105.3766000923114
 31
0.0
  0
LINE
  5
E9
330
1F
100
AcDbEntity
  8
1
  6
DOT_CENTER
 62
     2
100
AcDbLine
 10
141.4034493333617
 20
-94.62339990768871
 30
0.0
 11
143.9119338369392
 21
-94.62339990768871
 31
0.0
  0
LINE
  5
EA
330
1F
100
AcDbEntity
  8
1
  6
Continuous
 62
     7
100
AcDbLine
 10
159.9119338369392
 20
-94.62339990768871
 30
0.0
 11
159.9119338369392
 21
105.3766000923114
 31
0.0
  0
LINE
  5
EB
330
1F
100
AcDbEntity
  8
1
  6
DOT_CENTER
 62
     2
100
AcDbLine
 10
159.9119338369392
 20
105.3766000923114
 30
0.0
 11
183.9119338369392
 21
105.3766000923114
 31
0.0
  0
LINE
  5
EC
330
1F
100
AcDbEntity
  8
1
  6
DOT_CENTER
 62
     2
100
AcDbLine
 10
159.9119338369392
 20
-94.62339990768871
 30
0.0
 11
183.9119338369392
 21
-94.62339990768871
 31
0.0
  0
LINE
  5
ED
330
1F
100
AcDbEntity
  8
1
  6
Continuous
 62
     7
100
AcDbLine
 10
183.9119338369392
 20
-94.62339990768871
 30
0.0
 11
183.9119338369392
 21
73.87660009231138
 31
0.0
  0
LINE
  5
EE
330
1F
100
AcDbEntity
  8
1
  6
DOT_CENTER
 62
     2
100
AcDbLine
 10
183.9119338369392
 20
105.3766000923114
 30
0.0
 11
190.5946427794926
 21
105.3766000923114
 31
0.0
  0
LINE
  5
EF
330
1F
100
AcDbEntity
  8
1
  6
DOT_CENTER
 62
     2
100
AcDbLine
 10
183.9119338369392
 20
-94.62339990768871
 30
0.0
 11
190.5946427794926
 21
-94.62339990768871
 31
0.0
  0
LINE
  5
F0
330
1F
100
AcDbEntity
  8
1
  6
DOT_CENTER
 62
     2
100
AcDbLine
 10
137.7727714248734
 20
5.37660009231135
 30
0.0
 11
170.9119338369392
 21
5.37660009231135
 31
0.0
  0
LINE
  5
F1
330
1F
100
AcDbEntity
  8
1
  6
DOT_CENTER
 62
     2
100
AcDbLine
 10
101.1986003432113
 20
105.3766000923114
 30
0.0
 11
107.337762755277
 21
105.3766000923114
 31
0.0
  0
LINE
  5
F2
330
1F
100
AcDbEntity
  8
1
  6
DOT_CENTER
 62
     2
100
AcDbLine
 10
61.1986003432113
 20
105.3766000923114
 30
0.0
 11
106.1986003432113
 21
105.3766000923114
 31
0.0
  0
LINE
  5
F3
330
1F
100
AcDbEntity
  8
1
  6
DOT_CENTER
 62
     2
100
AcDbLine
 10
59.13367838314855
 20
105.3766000923114
 30
0.0
 11
61.1986003432113
 21
105.3766000923114
 31
0.0
  0
LINE
  5
F4
330
1F
100
AcDbEntity
  8
1
  6
DOT_CENTER
 62
     2
100
AcDbLine
 10
101.1986003432113
 20
-94.62339990768866
 30
0.0
 11
107.337762755277
 21
-94.62339990768866
 31
0.0
  0
LINE
  5
F5
330
1F
100
AcDbEntity
  8
1
  6
DOT_CENTER
 62
     2
100
AcDbLine
 10
61.1986003432113
 20
-94.62339990768866
 30
0.0
 11
106.1986003432113
 21
-94.62339990768866
 31
0.0
  0
LINE
  5
F6
330
1F
100
AcDbEntity
  8
1
  6
DOT_CENTER
 62
     2
100
AcDbLine
 10
59.13367838314855
 20
-94.62339990768866
 30
0.0
 11
61.1986003432113
 21
-94.62339990768866
 31
0.0
  0
LINE
  5
F7
330
1F
100
AcDbEntity
  8
1
  6
Continuous
 62
     7
100
AcDbLine
 10
61.1986003432113
 20
82.87660009231132
 30
0.0
 11
61.1986003432113
 21
105.3766000923114
 31
0.0
  0
LINE
  5
F8
330
1F
100
AcDbEntity
  8
1
  6
Continuous
 62
     7
100
AcDbLine
 10
71.1986003432113
 20
82.87660009231135
 30
0.0
 11
61.1986003432113
 21
82.87660009231132
 31
0.0
  0
LINE
  5
F9
330
1F
100
AcDbEntity
  8
1
  6
Continuous
 62
     7
100
AcDbLine
 10
61.1986003432113
 20
-72.12339990768865
 30
0.0
 11
61.1986003432113
 21
82.87660009231132
 31
0.0
  0
LINE
  5
FA
330
1F
100
AcDbEntity
  8
1
  6
Continuous
 62
     7
100
AcDbLine
 10
71.1986003432113
 20
65.37660009231138
 30
0.0
 11
71.1986003432113
 21
82.87660009231135
 31
0.0
  0
LINE
  5
FB
330
1F
100
AcDbEntity
  8
1
  6
Continuous
 62
     7
100
AcDbLine
 10
88.1986003432113
 20
65.37660009231135
 30
0.0
 11
71.1986003432113
 21
65.37660009231138
 31
0.0
  0
LINE
  5
FC
330
1F
100
AcDbEntity
  8
1
  6
Continuous
 62
     7
100
AcDbLine
 10
88.1986003432113
 20
-54.62339990768866
 30
0.0
 11
88.1986003432113
 21
65.37660009231135
 31
0.0
  0
LINE
  5
FD
330
1F
100
AcDbEntity
  8
1
  6
Continuous
 62
     7
100
AcDbLine
 10
71.1986003432113
 20
-54.62339990768865
 30
0.0
 11
88.1986003432113
 21
-54.62339990768866
 31
0.0
  0
LINE
  5
FE
330
1F
100
AcDbEntity
  8
1
  6
Continuous
 62
     7
100
AcDbLine
 10
71.1986003432113
 20
-72.12339990768865
 30
0.0
 11
71.1986003432113
 21
-54.62339990768865
 31
0.0
  0
LINE
  5
FF
330
1F
100
AcDbEntity
  8
1
  6
Continuous
 62
     7
100
AcDbLine
 10
61.1986003432113
 20
-72.12339990768865
 30
0.0
 11
71.1986003432113
 21
-72.12339990768865
 31
0.0
  0
LINE
  5
100
330
1F
100
AcDbEntity
  8
1
  6
Continuous
 62
     7
100
AcDbLine
 10
61.1986003432113
 20
-94.62339990768866
 30
0.0
 11
61.1986003432113
 21
-72.12339990768865
 31
0.0
  0
LINE
  5
101
330
1F
100
AcDbEntity
  8
1
  6
DOT_CENTER
 62
     2
100
AcDbLine
 10
106.1986003432113
 20
-94.62339990768866
 30
0.0
 11
106.1986003432113
 21
105.3766000923114
 31
0.0
  0
LINE
  5
102
330
1F
100
AcDbEntity
  8
1
  6
DOT_CENTER
 62
     2
100
AcDbLine
 10
106.1986003432113
 20
-104.1112895265787
 30
0.0
 11
106.1986003432113
 21
-94.62339990768866
 31
0.0
  0
LINE
  5
103
330
1F
100
AcDbEntity
  8
1
  6
DOT_CENTER
 62
     2
100
AcDbLine
 10
106.1986003432113
 20
109.4193999621323
 30
0.0
 11
106.1986003432113
 21
105.3766000923114
 31
0.0
  0
LINE
  5
104
330
1F
100
AcDbEntity
  8
1
  6
DOT_CENTER
 62
     2
100
AcDbLine
 10
58.96643305415955
 20
5.37660009231135
 30
0.0
 11
110.3030600059606
 21
5.37660009231135
 31
0.0
  0
LINE
  5
105
330
1F
100
AcDbEntity
  8
1
  6
Continuous
 62
     7
100
AcDbLine
 10
71.1986003432113
 20
65.37660009231138
 30
0.0
 11
71.1986003432113
 21
56.87660009231138
 31
0.0
  0
LINE
  5
106
330
1F
100
AcDbEntity
  8
1
  6
Continuous
 62
     7
100
AcDbLine
 10
179.9119338369392
 20
73.87660009231138
 30
0.0
 11
179.9119338369392
 21
5.37660009231135
 31
0.0
  0
LINE
  5
107
330
1F
100
AcDbEntity
  8
1
  6
DOT_CENTER
 62
     2
100
AcDbLine
 10
168.6619338369392
 20
76.37660009231135
 30
0.0
 11
173.1619338369392
 21
76.37660009231135
 31
0.0
  0
LINE
  5
108
330
1F
100
AcDbEntity
  8
1
  6
DOT_CENTER
 62
     2
100
AcDbLine
 10
168.6619338369392
 20
-65.62339990768865
 30
0.0
 11
173.1619338369392
 21
-65.62339990768865
 31
0.0
  0
LINE
  5
109
330
1F
100
AcDbEntity
  8
1
  6
DOT_CENTER
 62
     2
100
AcDbLine
 10
169.9119338369392
 20
17.9064781914974
 30
0.0
 11
169.9119338369392
 21
69.88724435850082
 31
0.0
  0
LINE
  5
10A
330
1F
100
AcDbEntity
  8
1
  6
DOT_CENTER
 62
     2
100
AcDbLine
 10
170.9119338369392
 20
88.4334180606021
 30
0.0
 11
170.9119338369392
 21
17.79536252171009
 31
0.0
  0
LINE
  5
10B
330
1F
100
AcDbEntity
  8
1
  6
DOT_CENTER
 62
     2
100
AcDbLine
 10
170.9119338369392
 20
13.7329803655398
 30
0.0
 11
170.9119338369392
 21
5.37660009231135
 31
0.0
  0
ARC
  5
10C
330
1F
100
AcDbEntity
  8
1
  6
Continuous
 62
     7
100
AcDbCircle
 10
169.9119338369392
 20
-46.62339990768865
 30
0.0
 40
8.0
100
AcDbArc
 50
179.9999999999999
 51
270.0
  0
ARC
  5
10D
330
1F
100
AcDbEntity
  8
1
  6
Continuous
 62
     7
100
AcDbCircle
 10
169.9119338369392
 20
57.37660009231134
 30
0.0
 40
8.0
100
AcDbArc
 50
0.0
 51
90.0
  0
ARC
  5
10E
330
1F
100
AcDbEntity
  8
1
  6
Continuous
 62
     7
100
AcDbCircle
 10
170.9119338369392
 20
-63.12339990768865
 30
0.0
 40
9.0
100
AcDbArc
 50
180.0000000000001
 51
270.0
  0
ARC
  5
10F
330
1F
100
AcDbEntity
  8
1
  6
Continuous
 62
     7
100
AcDbCircle
 10
170.9119338369392
 20
73.87660009231138
 30
0.0
 40
9.0
100
AcDbArc
 50
0.0
 51
90.0
  0
ARC
  5
110
330
1F
100
AcDbEntity
  8
1
  6
Continuous
 62
     7
100
AcDbCircle
 10
170.9119338369392
 20
-63.12339990768865
 30
0.0
 40
9.0
100
AcDbArc
 50
270.0
 51
0.0
  0
ARC
  5
111
330
1F
100
AcDbEntity
  8
1
  6
Continuous
 62
     7
100
AcDbCircle
 10
169.9119338369392
 20
-46.62339990768865
 30
0.0
 40
8.0
100
AcDbArc
 50
270.0
 51
0.0
  0
ARC
  5
112
330
1F
100
AcDbEntity
  8
1
  6
Continuous
 62
     7
100
AcDbCircle
 10
169.9119338369392
 20
57.37660009231134
 30
0.0
 40
8.000000000000007
100
AcDbArc
 50
90.0
 51
179.9999999999999
  0
ARC
  5
113
330
1F
100
AcDbEntity
  8
1
  6
Continuous
 62
     7
100
AcDbCircle
 10
170.9119338369392
 20
73.87660009231138
 30
0.0
 40
8.999999999999972
100
AcDbArc
 50
90.0
 51
180.0
  0
CIRCLE
  5
114
330
1F
100
AcDbEntity
  8
1
  6
DOT_CENTER
 62
     2
100
AcDbCircle
 10
168.2619338369392
 20
-63.12339990768865
 30
0.0
 40
6.349999999999994
  0
CIRCLE
  5
115
330
1F
100
AcDbEntity
  8
1
  6
DOT_CENTER
 62
     2
100
AcDbCircle
 10
-174.4592983114338
 20
-61.63531142598714
 30
0.0
 40
6.350011171979786
  0
CIRCLE
  5
116
330
1F
100
AcDbEntity
  8
1
  6
Continuous
 62
     7
100
AcDbCircle
 10
170.9119338369392
 20
76.37660009231135
 30
0.0
 40
1.5
  0
CIRCLE
  5
117
330
1F
100
AcDbEntity
  8
1
  6
Continuous
 62
     7
100
AcDbCircle
 10
170.9119338369392
 20
-65.62339990768865
 30
0.0
 40
1.5
  0
XLINE
  5
118
330
1F
100
AcDbEntity
  8
1
  6
DOT_CENTER
 62
     3
 60
     1
100
AcDbXline
 10
-197.6000806359427
 20
5.37660009231135
 30
0.0
 11
1.0
 21
0.0
 31
0.0
  0
ARC
  5
119
330
1F
100
AcDbEntity
  8
1
  6
Continuous
 62
     7
100
AcDbCircle
 10
-177.1092983114338
 20
-51.62339990768865
 30
0.0
 40
9.0
100
AcDbArc
 50
270.0
 51
0.0
  0
ARC
  5
11A
330
1F
100
AcDbEntity
  8
1
  6
Continuous
 62
     7
100
AcDbCircle
 10
-177.1092983114338
 20
-51.62339990768865
 30
0.0
 40
9.0
100
AcDbArc
 50
180.0
 51
270.0
  0
ARC
  5
11B
330
1F
100
AcDbEntity
  8
1
  6
Continuous
 62
     7
100
AcDbCircle
 10
-177.1092983114338
 20
62.37660009231135
 30
0.0
 40
9.0
100
AcDbArc
 50
0.0
 51
90.0
  0
ARC
  5
11C
330
1F
100
AcDbEntity
  8
1
  6
Continuous
 62
     7
100
AcDbCircle
 10
-177.1092983114338
 20
62.37660009231135
 30
0.0
 40
9.0
100
AcDbArc
 50
90.0
 51
180.0
  0
ARC
  5
11D
330
1F
100
AcDbEntity
  8
1
  6
Continuous
 62
     7
100
AcDbCircle
 10
-178.6092983114338
 20
-61.62339990768865
 30
0.0
 40
10.5
100
AcDbArc
 50
270.0
 51
0.0
  0
ARC
  5
11E
330
1F
100
AcDbEntity
  8
1
  6
Continuous
 62
     7
100
AcDbCircle
 10
-178.6092983114338
 20
-61.62339990768865
 30
0.0
 40
10.5
100
AcDbArc
 50
180.0
 51
270.0
  0
ARC
  5
11F
330
1F
100
AcDbEntity
  8
1
  6
Continuous
 62
     7
100
AcDbCircle
 10
-178.6092983114338
 20
72.37660009231135
 30
0.0
 40
10.5
100
AcDbArc
 50
90.0
 51
180.0
  0
ARC
  5
120
330
1F
100
AcDbEntity
  8
1
  6
Continuous
 62
     7
100
AcDbCircle
 10
-178.6092983114338
 20
72.37660009231135
 30
0.0
 40
10.5
100
AcDbArc
 50
0.0
 51
90.0
  0
MTEXT
  5
144
330
1F
100
AcDbEntity
  8
1
 62
     3
100
AcDbMText
 10
16.65554988135929
 20
-78.8598745247702
 30
0.0
 40
3.5
 41
0.0
 71
     4
 72
     1
  1
template\Pdoor panel
  7
CONVERTER_11
 73
     1
 44
1.32052821128451
  0
MTEXT
  5
145
330
1F
100
AcDbEntity
  8
1
 62
     3
100
AcDbMText
 10
-53.16073053579021
 20
-77.30127869513609
 30
0.0
 40
3.5
 41
0.0
 71
     4
 72
     1
  1
template\Pcasing frame
  7
CONVERTER_11
 73
     1
 44
1.32052821128451
  0
MTEXT
  5
146
330
1F
100
AcDbEntity
  8
1
 62
     2
100
AcDbMText
 10
-32.6038669156543
 20
36.0260258415958
 30
0.0
 40
2.5
 41
0.0
 71
     4
 72
     1
  1
fixing plate\PTE240-3D FZ/1
  7
CONVERTER_11
 73
     1
 44
1.32052821128451
  0
MTEXT
  5
147
330
1F
100
AcDbEntity
  8
1
 62
     3
100
AcDbMText
 10
196.310241791345
 20
-131.241505826512
 30
0.0
 40
3.5
 41
0.0
 71
     5
 72
     1
  1
TECTUS TE240-3D
  7
CONVERTER_11
 73
     1
 44
1.32052821128451
  0
DIMENSION
  5
154
330
1F
100
AcDbEntity
  8
1
100
AcDbDimension
  2
*D1
 10
-192.1092983114338
 20
-105.635225276103
 30
0.0
 11
-216.619257011963
 21
-101.885225276103
 31
0.0
 70
    32
  1
3mm (0.118
 71
     5
 42
-1.0
 53
0.00013888888889
  3
ME10_DIM_10
100
AcDbAlignedDimension
 13
-189.1092983114338
 23
-61.62339990768865
 33
0.0
 14
-192.1092983114338
 24
-94.62339990768865
 34
0.0
100
AcDbRotatedDimension
  0
DIMENSION
  5
15F
330
1F
100
AcDbEntity
  8
1
100
AcDbDimension
  2
*D2
 10
-151.908988527876
 20
71.37660009231135
 30
0.0
 11
-155.658988527876
 21
4.62500743621877
 31
0.0
 70
    32
  1
<>
 71
     5
 42
-1.0
 53
90.0
  3
ME10_DIM_11
100
AcDbAlignedDimension
 13
-177.1092983114338
 23
-60.62339990768865
 33
0.0
 14
-177.1092983114338
 24
71.37660009231135
 34
0.0
 50
90.0
100
AcDbRotatedDimension
  0
DIMENSION
  5
16A
330
1F
100
AcDbEntity
  8
1
100
AcDbDimension
  2
*D3
 10
-126.887717566138
 20
82.87660009231135
 30
0.0
 11
-130.637717566138
 21
6.81986230664208
 31
0.0
 70
    32
  1
<>
 71
     5
 42
-1.0
 53
90.0
  3
ME10_DIM_12
100
AcDbAlignedDimension
 13
-178.6092983114338
 23
-72.12339990768865
 33
0.0
 14
-178.6092983114338
 24
82.87660009231135
 34
0.0
 50
90.0
100
AcDbRotatedDimension
  0
DIMENSION
  5
176
330
1F
100
AcDbEntity
  8
1
100
AcDbDimension
  2
*D4
 10
-186.1092983114338
 20
28.4188748070954
 30
0.0
 11
-212.5515473033972
 21
32.1688748070954
 31
0.0
 70
    32
  1
18mm (0.709
 71
     5
 42
-1.0
 53
0.00013888888889
  3
ME10_DIM_13
100
AcDbAlignedDimension
 13
-168.1092983114338
 23
72.37660009231135
 33
0.0
 14
-186.1092983114338
 24
62.37660009231134
 34
0.0
100
AcDbRotatedDimension
  0
DIMENSION
  5
182
330
1F
100
AcDbEntity
  8
1
100
AcDbDimension
  2
*D5
 10
-168.1092983114338
 20
-117.5759847602375
 30
0.0
 11
-210.8452342178087
 21
-113.8259847602375
 31
0.0
 70
    32
  1
21mm (0.827
 71
     5
 42
-1.0
 53
0.00013888888889
  3
ME10_DIM_14
100
AcDbAlignedDimension
 13
-189.1092983114338
 23
-61.62339990768865
 33
0.0
 14
-168.1092983114338
 24
-61.62339990768865
 34
0.0
100
AcDbRotatedDimension
  0
DIMENSION
  5
18E
330
1F
100
AcDbEntity
  8
1
100
AcDbDimension
  2
*D6
 10
-68.80177865188125
 20
-118.2833961103276
 30
0.0
 11
-46.97599419807557
 21
-114.5333961103276
 31
0.0
 70
    32
  1
24mm (0.945
 71
     5
 42
-1.0
 53
0.00013888888889
  3
ME10_DIM_15
100
AcDbAlignedDimension
 13
-92.80488390961862
 23
-60.62339990768862
 33
0.0
 14
-68.80177865188125
 24
-72.12339990768866
 34
0.0
100
AcDbRotatedDimension
  0
DIMENSION
  5
19B
330
1F
100
AcDbEntity
  8
1
100
AcDbDimension
  2
*D7
 10
7.63953091356274
 20
-62.69793997026319
 30
0.0
 11
3.88953091356274
 21
-86.6886454488453
 31
0.0
 70
    32
  1
4mm (0.157
 71
     5
 42
-1.0
 53
90.0
  3
ME10_DIM_16
100
AcDbAlignedDimension
 13
2.38679367266664
 23
-66.6979399702632
 33
0.0
 14
12.38679367266663
 24
-62.69793997026319
 34
0.0
 50
90.0
100
AcDbRotatedDimension
  0
DIMENSION
  5
1A7
330
1F
100
AcDbEntity
  8
1
100
AcDbDimension
  2
*D8
 10
54.5158341698211
 20
-42.6979399702632
 30
0.0
 11
50.7658341698211
 21
-18.7226779503028
 31
0.0
 70
    32
  1
24mm (0.945
 71
     5
 42
-1.0
 53
90.0
  3
ME10_DIM_17
100
AcDbAlignedDimension
 13
47.38679367266684
 23
-66.6979399702632
 33
0.0
 14
15.38679367266695
 24
-42.69793997026321
 34
0.0
 50
90.0
100
AcDbRotatedDimension
  0
DIMENSION
  5
1B4
330
1F
100
AcDbEntity
  8
1
100
AcDbDimension
  2
*D9
 10
-7.18553578466981
 20
-66.6979399702632
 30
0.0
 11
-10.93553578466981
 21
-91.80640211641456
 31
0.0
 70
    32
  1
3mm (0.118
 71
     5
 42
-1.0
 53
90.0
  3
ME10_DIM_18
100
AcDbAlignedDimension
 13
-11.11320632733316
 23
-63.69793997026321
 33
0.0
 14
-1.11320632733316
 24
-66.6979399702632
 34
0.0
 50
90.0
100
AcDbRotatedDimension
  0
DIMENSION
  5
1C0
330
1F
100
AcDbEntity
  8
1
100
AcDbDimension
  2
*D10
 10
-68.80177865188125
 20
-105.210878074178
 30
0.0
 11
-46.76693430511141
 21
-101.460878074178
 31
0.0
 70
    32
  1
15mm (0.591
 71
     5
 42
-1.0
 53
0.00013888888889
  3
ME10_DIM_19
100
AcDbAlignedDimension
 13
-83.8017786518812
 23
-72.12339990768865
 33
0.0
 14
-68.80177865188125
 24
-72.12339990768866
 34
0.0
100
AcDbRotatedDimension
  0
DIMENSION
  5
1CD
330
1F
100
AcDbEntity
  8
1
100
AcDbDimension
  2
*D11
 10
183.9119338369392
 20
-105.781584343866
 30
0.0
 11
204.3038725289399
 21
-102.031584343866
 31
0.0
 70
    32
  1
4mm (0.157
 71
     5
 42
-1.0
 53
0.00013888888889
  3
ME10_DIM_20
100
AcDbAlignedDimension
 13
179.9119338369392
 23
-63.12339990768865
 33
0.0
 14
183.9119338369392
 24
-94.62339990768871
 34
0.0
100
AcDbRotatedDimension
  0
DIMENSION
  5
1D9
330
1F
100
AcDbEntity
  8
1
100
AcDbDimension
  2
*D12
 10
179.9119338369392
 20
-115.781584343866
 30
0.0
 11
204.6042017945568
 21
-112.031584343866
 31
0.0
 70
    32
  1
18mm (0.709
 71
     5
 42
-1.0
 53
0.00013888888889
  3
ME10_DIM_21
100
AcDbAlignedDimension
 13
161.9119338369392
 23
-63.12339990768867
 33
0.0
 14
179.9119338369392
 24
-63.12339990768865
 34
0.0
100
AcDbRotatedDimension
  0
DIMENSION
  5
1E5
330
1F
100
AcDbEntity
  8
1
100
AcDbDimension
  2
*D13
 10
177.9119338369392
 20
16.3048182481224
 30
0.0
 11
205.4154146002617
 21
20.0548182481224
 31
0.0
 70
    32
  1
16mm (0.630
 71
     5
 42
-1.0
 53
0.00013888888889
  3
ME10_DIM_22
100
AcDbAlignedDimension
 13
161.9119338369392
 23
5.37660009231135
 33
0.0
 14
177.9119338369392
 24
-46.62339990768865
 34
0.0
100
AcDbRotatedDimension
  0
DIMENSION
  5
1F1
330
1F
100
AcDbEntity
  8
1
100
AcDbDimension
  2
*D14
 10
71.1986003432113
 20
-103.785670014645
 30
0.0
 11
41.6801120072015
 21
-100.035670014645
 31
0.0
 70
    32
  1
10mm (0.394
 71
     5
 42
-1.0
 53
0.00013888888889
  3
ME10_DIM_23
100
AcDbAlignedDimension
 13
61.1986003432113
 23
-94.62339990768866
 33
0.0
 14
71.1986003432113
 24
-72.12339990768865
 34
0.0
100
AcDbRotatedDimension
  0
DIMENSION
  5
1FD
330
1F
100
AcDbEntity
  8
1
100
AcDbDimension
  2
*D15
 10
61.1986003432113
 20
-114.622960427562
 30
0.0
 11
40.74111234376289
 21
-110.872960427562
 31
0.0
 70
    32
  1
<>
 71
     5
 42
-1.0
 53
0.00013888888889
  3
ME10_DIM_24
100
AcDbAlignedDimension
 13
88.1986003432113
 23
-54.62339990768866
 33
0.0
 14
61.1986003432113
 24
-72.12339990768865
 34
0.0
100
AcDbRotatedDimension
  0
DIMENSION
  5
208
330
1F
100
AcDbEntity
  8
1
100
AcDbDimension
  2
*D16
 10
134.7034829434959
 20
65.37660009231135
 30
0.0
 11
130.9534829434959
 21
3.84182995880025
 31
0.0
 70
    32
  1
<>
 71
     5
 42
-1.0
 53
90.0
  3
ME10_DIM_25
100
AcDbAlignedDimension
 13
169.9119338369392
 23
-54.62339990768865
 33
0.0
 14
169.9119338369392
 24
65.37660009231135
 34
0.0
 50
90.0
100
AcDbRotatedDimension
  0
DIMENSION
  5
213
330
1F
100
AcDbEntity
  8
1
100
AcDbDimension
  2
*D17
 10
125.370386594335
 20
73.87660009231135
 30
0.0
 11
121.620386594335
 21
4.36093773205647
 31
0.0
 70
    32
  1
<>
 71
     5
 42
-1.0
 53
90.0
  3
ME10_DIM_26
100
AcDbAlignedDimension
 13
155.2482796794875
 23
-63.12339990768866
 33
0.0
 14
155.2482796794875
 24
73.87660009231136
 34
0.0
 50
90.0
100
AcDbRotatedDimension
  0
DIMENSION
  5
21E
330
1F
100
AcDbEntity
  8
1
100
AcDbDimension
  2
*D18
 10
117.726890102643
 20
82.87660009231135
 30
0.0
 11
113.976890102643
 21
5.24632044276422
 31
0.0
 70
    32
  1
<>
 71
     5
 42
-1.0
 53
90.0
  3
ME10_DIM_27
100
AcDbAlignedDimension
 13
170.9119338369392
 23
-72.12339990768865
 33
0.0
 14
170.9119338369392
 24
82.87660009231135
 34
0.0
 50
90.0
100
AcDbRotatedDimension
  0
INSERT
  5
225
330
1F
100
AcDbEntity
  8
1
100
AcDbBlockReference
  2
*D19
 10
0.0
 20
0.0
 30
0.0
  0
INSERT
  5
22E
330
1F
100
AcDbEntity
  8
1
100
AcDbBlockReference
  2
*D20
 10
0.0
 20
0.0
 30
0.0
  0
INSERT
  5
237
330
1F
100
AcDbEntity
  8
1
100
AcDbBlockReference
  2
*D21
 10
0.0
 20
0.0
 30
0.0
  0
INSERT
  5
240
330
1F
100
AcDbEntity
  8
1
100
AcDbBlockReference
  2
*D22
 10
0.0
 20
0.0
 30
0.0
  0
ENDSEC
  0
SECTION
  2
OBJECTS
  0
DICTIONARY
  5
C
330
0
100
AcDbDictionary
281
     1
  3
ACAD_GROUP
350
D
  3
ACAD_LAYOUT
350
1A
  3
ACAD_MLEADERSTYLE
350
244
  3
ACAD_MLINESTYLE
350
17
  3
ACAD_PLOTSETTINGS
350
19
  3
ACAD_PLOTSTYLENAME
350
E
  3
ACAD_SCALELIST
350
122
  3
ACAD_TABLESTYLE
350
243
  3
ACAD_VISUALSTYLE
350
2A
  3
AcDbVariableDictionary
350
241
  0
DICTIONARY
  5
D
102
{ACAD_REACTORS
330
C
102
}
330
C
100
AcDbDictionary
281
     1
  0
DICTIONARY
  5
1A
102
{ACAD_REACTORS
330
C
102
}
330
C
100
AcDbDictionary
281
     1
  3
Layout1
350
1E
  3
Layout2
350
26
  3
Model
350
22
  0
DICTIONARY
  5
244
102
{ACAD_REACTORS
330
C
102
}
330
C
100
AcDbDictionary
281
     1
  0
DICTIONARY
  5
17
102
{ACAD_REACTORS
330
C
102
}
330
C
100
AcDbDictionary
281
     1
  3
Standard
350
18
  0
DICTIONARY
  5
19
102
{ACAD_REACTORS
330
C
102
}
330
C
100
AcDbDictionary
281
     1
  0
ACDBDICTIONARYWDFLT
  5
E
102
{ACAD_REACTORS
330
C
102
}
330
C
100
AcDbDictionary
281
     1
  3
Normal
350
F
100
AcDbDictionaryWithDefault
340
F
  0
DICTIONARY
  5
122
102
{ACAD_REACTORS
330
C
102
}
330
C
100
AcDbDictionary
281
     1
  3
A0
350
123
  3
A1
350
124
  3
A2
350
125
  3
A3
350
126
  3
A4
350
127
  3
A5
350
128
  3
A6
350
129
  3
A7
350
12A
  3
A8
350
12B
  3
A9
350
12C
  3
B0
350
12D
  3
B1
350
12E
  3
B2
350
12F
  3
B3
350
130
  3
B4
350
131
  3
B5
350
132
  3
B6
350
133
  3
B7
350
134
  3
B8
350
135
  3
B9
350
136
  3
C0
350
137
  3
C1
350
138
  3
C2
350
139
  3
C3
350
13A
  3
C4
350
13B
  3
C5
350
13C
  3
C6
350
13D
  3
C7
350
13E
  3
C8
350
13F
  3
C9
350
140
  3
D0
350
141
  3
D1
350
142
  3
D2
350
143
  0
DICTIONARY
  5
243
102
{ACAD_REACTORS
330
C
102
}
330
C
100
AcDbDictionary
281
     1
  0
DICTIONARY
  5
2A
102
{ACAD_REACTORS
330
C
102
}
330
C
100
AcDbDictionary
281
     1
  3
2dWireframe
350
2F
  3
3D Hidden
350
31
  3
3dWireframe
350
30
  3
Basic
350
32
  3
Brighten
350
36
  3
ColorChange
350
3A
  3
Conceptual
350
34
  3
Dim
350
35
  3
Facepattern
350
39
  3
Flat
350
2B
  3
FlatWithEdges
350
2C
  3
Gouraud
350
2D
  3
GouraudWithEdges
350
2E
  3
Linepattern
350
38
  3
Realistic
350
33
  3
Thicken
350
37
  0
DICTIONARY
  5
241
102
{ACAD_REACTORS
330
C
102
}
330
C
100
AcDbDictionary
281
     1
  3
CANNOSCALE
350
242
  0
LAYOUT
  5
1E
102
{ACAD_REACTORS
330
1A
102
}
330
1A
100
AcDbPlotSettings
  1

  2
none_device
  4

  6

 40
0.0
 41
0.0
 42
0.0
 43
0.0
 44
0.0
 45
0.0
 46
0.0
 47
0.0
 48
0.0
 49
0.0
140
0.0
141
0.0
142
1.0
143
1.0
 70
   688
 72
     0
 73
     0
 74
     5
  7

 75
    16
 76
     0
 77
     2
 78
   300
147
1.0
148
0.0
149
0.0
100
AcDbLayout
  1
Layout1
 70
     1
 71
     1
 10
0.0
 20
0.0
 11
12.0
 21
9.0
 12
0.0
 22
0.0
 32
0.0
 14
1.00000000000000E+20
 24
1.00000000000000E+20
 34
1.00000000000000E+20
 15
-1.00000000000000E+20
 25
-1.00000000000000E+20
 35
-1.00000000000000E+20
146
0.0
 13
0.0
 23
0.0
 33
0.0
 16
1.0
 26
0.0
 36
0.0
 17
0.0
 27
1.0
 37
0.0
 76
     0
330
1B
  0
LAYOUT
  5
26
102
{ACAD_REACTORS
330
1A
102
}
330
1A
100
AcDbPlotSettings
  1

  2
none_device
  4

  6

 40
0.0
 41
0.0
 42
0.0
 43
0.0
 44
0.0
 45
0.0
 46
0.0
 47
0.0
 48
0.0
 49
0.0
140
0.0
141
0.0
142
1.0
143
1.0
 70
   688
 72
     0
 73
     0
 74
     5
  7

 75
    16
 76
     0
 77
     2
 78
   300
147
1.0
148
0.0
149
0.0
100
AcDbLayout
  1
Layout2
 70
     1
 71
     2
 10
0.0
 20
0.0
 11
0.0
 21
0.0
 12
0.0
 22
0.0
 32
0.0
 14
0.0
 24
0.0
 34
0.0
 15
0.0
 25
0.0
 35
0.0
146
0.0
 13
0.0
 23
0.0
 33
0.0
 16
1.0
 26
0.0
 36
0.0
 17
0.0
 27
1.0
 37
0.0
 76
     0
330
23
  0
LAYOUT
  5
22
102
{ACAD_REACTORS
330
1A
102
}
330
1A
100
AcDbPlotSettings
  1

  2
none_device
  4

  6

 40
0.0
 41
0.0
 42
0.0
 43
0.0
 44
0.0
 45
0.0
 46
0.0
 47
0.0
 48
0.0
 49
0.0
140
0.0
141
0.0
142
1.0
143
1.0
 70
  1712
 72
     0
 73
     0
 74
     0
  7

 75
     0
 76
     0
 77
     2
 78
   300
147
1.0
148
0.0
149
0.0
100
AcDbLayout
  1
Model
 70
     1
 71
     0
 10
0.0
 20
0.0
 11
12.0
 21
9.0
 12
0.0
 22
0.0
 32
0.0
 14
-231.888007011963
 24
-132.991505826512
 34
0.0
 15
222.7841646002617
 25
109.761881720986
 35
0.0
146
0.0
 13
0.0
 23
0.0
 33
0.0
 16
1.0
 26
0.0
 36
0.0
 17
0.0
 27
1.0
 37
0.0
 76
     0
330
1F
331
29
  0
MLINESTYLE
  5
18
102
{ACAD_REACTORS
330
17
102
}
330
17
100
AcDbMlineStyle
  2
Standard
 70
     0
  3

 62
   256
 51
90.0
 52
90.0
 71
     2
 49
0.5
 62
   256
  6
BYLAYER
 49
-0.5
 62
   256
  6
BYLAYER
  0
ACDBPLACEHOLDER
  5
F
102
{ACAD_REACTORS
330
E
102
}
330
E
  0
SCALE
  5
123
102
{ACAD_REACTORS
330
122
102
}
330
122
100
AcDbScale
 70
     0
300
1:1
140
1.0
141
1.0
290
     1
  0
SCALE
  5
124
102
{ACAD_REACTORS
330
122
102
}
330
122
100
AcDbScale
 70
     0
300
1:2
140
1.0
141
2.0
290
     0
  0
SCALE
  5
125
102
{ACAD_REACTORS
330
122
102
}
330
122
100
AcDbScale
 70
     0
300
1:4
140
1.0
141
4.0
290
     0
  0
SCALE
  5
126
102
{ACAD_REACTORS
330
122
102
}
330
122
100
AcDbScale
 70
     0
300
1:5
140
1.0
141
5.0
290
     0
  0
SCALE
  5
127
102
{ACAD_REACTORS
330
122
102
}
330
122
100
AcDbScale
 70
     0
300
1:8
140
1.0
141
8.0
290
     0
  0
SCALE
  5
128
102
{ACAD_REACTORS
330
122
102
}
330
122
100
AcDbScale
 70
     0
300
1:10
140
1.0
141
10.0
290
     0
  0
SCALE
  5
129
102
{ACAD_REACTORS
330
122
102
}
330
122
100
AcDbScale
 70
     0
300
1:16
140
1.0
141
16.0
290
     0
  0
SCALE
  5
12A
102
{ACAD_REACTORS
330
122
102
}
330
122
100
AcDbScale
 70
     0
300
1:20
140
1.0
141
20.0
290
     0
  0
SCALE
  5
12B
102
{ACAD_REACTORS
330
122
102
}
330
122
100
AcDbScale
 70
     0
300
1:30
140
1.0
141
30.0
290
     0
  0
SCALE
  5
12C
102
{ACAD_REACTORS
330
122
102
}
330
122
100
AcDbScale
 70
     0
300
1:40
140
1.0
141
40.0
290
     0
  0
SCALE
  5
12D
102
{ACAD_REACTORS
330
122
102
}
330
122
100
AcDbScale
 70
     0
300
1:50
140
1.0
141
50.0
290
     0
  0
SCALE
  5
12E
102
{ACAD_REACTORS
330
122
102
}
330
122
100
AcDbScale
 70
     0
300
1:100
140
1.0
141
100.0
290
     0
  0
SCALE
  5
12F
102
{ACAD_REACTORS
330
122
102
}
330
122
100
AcDbScale
 70
     0
300
2:1
140
2.0
141
1.0
290
     0
  0
SCALE
  5
130
102
{ACAD_REACTORS
330
122
102
}
330
122
100
AcDbScale
 70
     0
300
4:1
140
4.0
141
1.0
290
     0
  0
SCALE
  5
131
102
{ACAD_REACTORS
330
122
102
}
330
122
100
AcDbScale
 70
     0
300
8:1
140
8.0
141
1.0
290
     0
  0
SCALE
  5
132
102
{ACAD_REACTORS
330
122
102
}
330
122
100
AcDbScale
 70
     0
300
10:1
140
10.0
141
1.0
290
     0
  0
SCALE
  5
133
102
{ACAD_REACTORS
330
122
102
}
330
122
100
AcDbScale
 70
     0
300
100:1
140
100.0
141
1.0
290
     0
  0
SCALE
  5
134
102
{ACAD_REACTORS
330
122
102
}
330
122
100
AcDbScale
 70
     0
300
1/128" = 1'-0"
140
0.0078125
141
12.0
290
     0
  0
SCALE
  5
135
102
{ACAD_REACTORS
330
122
102
}
330
122
100
AcDbScale
 70
     0
300
1/64" = 1'-0"
140
0.015625
141
12.0
290
     0
  0
SCALE
  5
136
102
{ACAD_REACTORS
330
122
102
}
330
122
100
AcDbScale
 70
     0
300
1/32" = 1'-0"
140
0.03125
141
12.0
290
     0
  0
SCALE
  5
137
102
{ACAD_REACTORS
330
122
102
}
330
122
100
AcDbScale
 70
     0
300
1/16" = 1'-0"
140
0.0625
141
12.0
290
     0
  0
SCALE
  5
138
102
{ACAD_REACTORS
330
122
102
}
330
122
100
AcDbScale
 70
     0
300
3/32" = 1'-0"
140
0.09375
141
12.0
290
     0
  0
SCALE
  5
139
102
{ACAD_REACTORS
330
122
102
}
330
122
100
AcDbScale
 70
     0
300
1/8" = 1'-0"
140
0.125
141
12.0
290
     0
  0
SCALE
  5
13A
102
{ACAD_REACTORS
330
122
102
}
330
122
100
AcDbScale
 70
     0
300
3/16" = 1'-0"
140
0.1875
141
12.0
290
     0
  0
SCALE
  5
13B
102
{ACAD_REACTORS
330
122
102
}
330
122
100
AcDbScale
 70
     0
300
1/4" = 1'-0"
140
0.25
141
12.0
290
     0
  0
SCALE
  5
13C
102
{ACAD_REACTORS
330
122
102
}
330
122
100
AcDbScale
 70
     0
300
3/8" = 1'-0"
140
0.375
141
12.0
290
     0
  0
SCALE
  5
13D
102
{ACAD_REACTORS
330
122
102
}
330
122
100
AcDbScale
 70
     0
300
1/2" = 1'-0"
140
0.5
141
12.0
290
     0
  0
SCALE
  5
13E
102
{ACAD_REACTORS
330
122
102
}
330
122
100
AcDbScale
 70
     0
300
3/4" = 1'-0"
140
0.75
141
12.0
290
     0
  0
SCALE
  5
13F
102
{ACAD_REACTORS
330
122
102
}
330
122
100
AcDbScale
 70
     0
300
1" = 1'-0"
140
1.0
141
12.0
290
     0
  0
SCALE
  5
140
102
{ACAD_REACTORS
330
122
102
}
330
122
100
AcDbScale
 70
     0
300
1-1/2" = 1'-0"
140
1.5
141
12.0
290
     0
  0
SCALE
  5
141
102
{ACAD_REACTORS
330
122
102
}
330
122
100
AcDbScale
 70
     0
300
3" = 1'-0"
140
3.0
141
12.0
290
     0
  0
SCALE
  5
142
102
{ACAD_REACTORS
330
122
102
}
330
122
100
AcDbScale
 70
     0
300
6" = 1'-0"
140
6.0
141
12.0
290
     0
  0
SCALE
  5
143
102
{ACAD_REACTORS
330
122
102
}
330
122
100
AcDbScale
 70
     0
300
1'-0" = 1'-0"
140
12.0
141
12.0
290
     0
  0
VISUALSTYLE
  5
2F
102
{ACAD_REACTORS
330
2A
102
}
330
2A
100
AcDbVisualStyle
  2
2dWireframe
 70
     4
 71
     0
 72
     2
 73
     0
 90
        0
 40
-0.6
 41
-30.0
 62
     5
 63
     7
421
 16777215
 74
     1
 91
        4
 64
     7
 65
   257
 75
     1
175
     1
 42
1.0
 92
        0
 66
   257
 43
1.0
 76
     1
 77
     6
 78
     2
 67
     7
 79
     5
170
     0
171
     0
290
     0
174
     0
 93
        1
 44
0.0
173
     0
291
     0
 45
0.0
1001
ACAD
1000
AcDbSavedByObjectVersion
1070
     0
  0
VISUALSTYLE
  5
31
102
{ACAD_REACTORS
330
2A
102
}
330
2A
100
AcDbVisualStyle
  2
3D Hidden
 70
     6
 71
     1
 72
     2
 73
     2
 90
        0
 40
-0.6
 41
-30.0
 62
     5
 63
     7
421
 16777215
 74
     2
 91
        2
 64
     7
 65
   257
 75
     2
175
     1
 42
40.0
 92
        0
 66
   257
 43
1.0
 76
     1
 77
     6
 78
     2
 67
     7
 79
     3
170
     0
171
     0
290
     0
174
     0
 93
        1
 44
0.0
173
     0
291
     0
 45
0.0
1001
ACAD
1000
AcDbSavedByObjectVersion
1070
     0
  0
VISUALSTYLE
  5
30
102
{ACAD_REACTORS
330
2A
102
}
330
2A
100
AcDbVisualStyle
  2
3dWireframe
 70
     5
 71
     0
 72
     2
 73
     0
 90
        0
 40
-0.6
 41
-30.0
 62
     5
 63
     7
421
 16777215
 74
     1
 91
        4
 64
     7
 65
   257
 75
     1
175
     1
 42
1.0
 92
        0
 66
   257
 43
1.0
 76
     1
 77
     6
 78
     2
 67
     7
 79
     5
170
     0
171
     0
290
     0
174
     0
 93
        1
 44
0.0
173
     0
291
     0
 45
0.0
1001
ACAD
1000
AcDbSavedByObjectVersion
1070
     0
  0
VISUALSTYLE
  5
32
102
{ACAD_REACTORS
330
2A
102
}
330
2A
100
AcDbVisualStyle
  2
Basic
 70
     7
 71
     1
 72
     0
 73
     1
 90
        0
 40
-0.6
 41
-30.0
 62
     5
 63
     7
421
 16777215
 74
     0
 91
        4
 64
     7
 65
   257
 75
     1
175
     1
 42
1.0
 92
        8
 66
     7
 43
1.0
 76
     1
 77
     6
 78
     2
 67
     7
 79
     5
170
     0
171
     0
290
     0
174
     0
 93
        1
 44
0.0
173
     0
291
     1
 45
0.0
1001
ACAD
1000
AcDbSavedByObjectVersion
1070
     0
  0
VISUALSTYLE
  5
36
102
{ACAD_REACTORS
330
2A
102
}
330
2A
100
AcDbVisualStyle
  2
Brighten
 70
    12
 71
     2
 72
     2
 73
     0
 90
        0
 40
-0.6
 41
-30.0
 62
     5
 63
     7
421
 16777215
 74
     1
 91
        4
 64
     7
 65
   257
 75
     1
175
     1
 42
1.0
 92
        8
 66
     7
 43
1.0
 76
     1
 77
     6
 78
     2
 67
     7
 79
     5
170
     0
171
     0
290
     0
174
     0
 93
        1
 44
50.0
173
     0
291
     1
 45
0.0
1001
ACAD
1000
AcDbSavedByObjectVersion
1070
     0
  0
VISUALSTYLE
  5
3A
102
{ACAD_REACTORS
330
2A
102
}
330
2A
100
AcDbVisualStyle
  2
ColorChange
 70
    16
 71
     2
 72
     2
 73
     3
 90
        0
 40
-0.6
 41
-30.0
 62
     5
 63
     8
421
  8421504
 74
     1
 91
        4
 64
     7
 65
   257
 75
     1
175
     1
 42
1.0
 92
        8
 66
     8
424
  8421504
 43
1.0
 76
     1
 77
     6
 78
     2
 67
     7
 79
     5
170
     0
171
     0
290
     0
174
     0
 93
        1
 44
0.0
173
     0
291
     1
 45
0.0
1001
ACAD
1000
AcDbSavedByObjectVersion
1070
     0
  0
VISUALSTYLE
  5
34
102
{ACAD_REACTORS
330
2A
102
}
330
2A
100
AcDbVisualStyle
  2
Conceptual
 70
     9
 71
     3
 72
     2
 73
     0
 90
        0
 40
-0.6
 41
-30.0
 62
     5
 63
     7
421
 16777215
 74
     2
 91
        2
 64
     7
 65
   257
 75
     1
175
     1
 42
40.0
 92
        8
 66
     7
 43
1.0
 76
     1
 77
     6
 78
     2
 67
     7
 79
     3
170
     0
171
     0
290
     0
174
     0
 93
        1
 44
0.0
173
     0
291
     0
 45
0.0
1001
ACAD
1000
AcDbSavedByObjectVersion
1070
     0
  0
VISUALSTYLE
  5
35
102
{ACAD_REACTORS
330
2A
102
}
330
2A
100
AcDbVisualStyle
  2
Dim
 70
    11
 71
     2
 72
     2
 73
     0
 90
        0
 40
-0.6
 41
-30.0
 62
     5
 63
     7
421
 16777215
 74
     1
 91
        4
 64
     7
 65
   257
 75
     1
175
     1
 42
1.0
 92
        8
 66
     7
 43
1.0
 76
     1
 77
     6
 78
     2
 67
     7
 79
     5
170
     0
171
     0
290
     0
174
     0
 93
        1
 44
-50.0
173
     0
291
     1
 45
0.0
1001
ACAD
1000
AcDbSavedByObjectVersion
1070
     0
  0
VISUALSTYLE
  5
39
102
{ACAD_REACTORS
330
2A
102
}
330
2A
100
AcDbVisualStyle
  2
Facepattern
 70
    15
 71
     2
 72
     2
 73
     0
 90
        0
 40
-0.6
 41
-30.0
 62
     5
 63
     7
421
 16777215
 74
     1
 91
        4
 64
     7
 65
   257
 75
     1
175
     1
 42
1.0
 92
        8
 66
     7
 43
1.0
 76
     1
 77
     6
 78
     2
 67
     7
 79
     5
170
     0
171
     0
290
     0
174
     0
 93
        1
 44
0.0
173
     0
291
     1
 45
0.0
1001
ACAD
1000
AcDbSavedByObjectVersion
1070
     0
  0
VISUALSTYLE
  5
2B
102
{ACAD_REACTORS
330
2A
102
}
330
2A
100
AcDbVisualStyle
  2
Flat
 70
     0
 71
     2
 72
     1
 73
     1
 90
        2
 40
-0.6
 41
30.0
 62
     5
 63
     7
421
 16777215
 74
     0
 91
        4
 64
     7
 65
   257
 75
     1
175
     1
 42
1.0
 92
        8
 66
     7
 43
1.0
 76
     1
 77
     6
 78
     2
 67
     7
 79
     5
170
     0
171
     0
290
     0
174
     0
 93
       13
 44
0.0
173
     0
291
     1
 45
0.0
1001
ACAD
1000
AcDbSavedByObjectVersion
1070
     0
  0
VISUALSTYLE
  5
2C
102
{ACAD_REACTORS
330
2A
102
}
330
2A
100
AcDbVisualStyle
  2
FlatWithEdges
 70
     1
 71
     2
 72
     1
 73
     1
 90
        2
 40
-0.6
 41
30.0
 62
     5
 63
     7
421
 16777215
 74
     1
 91
        4
 64
     7
 65
   257
 75
     1
175
     1
 42
1.0
 92
        0
 66
   257
 43
1.0
 76
     1
 77
     6
 78
     2
 67
     7
 79
     5
170
     0
171
     0
290
     0
174
     0
 93
       13
 44
0.0
173
     0
291
     1
 45
0.0
1001
ACAD
1000
AcDbSavedByObjectVersion
1070
     0
  0
VISUALSTYLE
  5
2D
102
{ACAD_REACTORS
330
2A
102
}
330
2A
100
AcDbVisualStyle
  2
Gouraud
 70
     2
 71
     2
 72
     2
 73
     1
 90
        2
 40
-0.6
 41
30.0
 62
     5
 63
     7
421
 16777215
 74
     0
 91
        4
 64
     7
 65
   257
 75
     1
175
     1
 42
1.0
 92
        0
 66
     7
 43
1.0
 76
     1
 77
     6
 78
     2
 67
     7
 79
     5
170
     0
171
     0
290
     0
174
     0
 93
       13
 44
0.0
173
     0
291
     1
 45
0.0
1001
ACAD
1000
AcDbSavedByObjectVersion
1070
     0
  0
VISUALSTYLE
  5
2E
102
{ACAD_REACTORS
330
2A
102
}
330
2A
100
AcDbVisualStyle
  2
GouraudWithEdges
 70
     3
 71
     2
 72
     2
 73
     1
 90
        2
 40
-0.6
 41
30.0
 62
     5
 63
     7
421
 16777215
 74
     1
 91
        4
 64
     7
 65
   257
 75
     1
175
     1
 42
1.0
 92
        0
 66
   257
 43
1.0
 76
     1
 77
     6
 78
     2
 67
     7
 79
     5
170
     0
171
     0
290
     0
174
     0
 93
       13
 44
0.0
173
     0
291
     1
 45
0.0
1001
ACAD
1000
AcDbSavedByObjectVersion
1070
     0
  0
VISUALSTYLE
  5
38
102
{ACAD_REACTORS
330
2A
102
}
330
2A
100
AcDbVisualStyle
  2
Linepattern
 70
    14
 71
     2
 72
     2
 73
     0
 90
        0
 40
-0.6
 41
-30.0
 62
     5
 63
     7
421
 16777215
 74
     1
 91
        4
 64
     7
 65
   257
 75
     7
175
     7
 42
1.0
 92
        8
 66
     7
 43
1.0
 76
     1
 77
     6
 78
     2
 67
     7
 79
     5
170
     0
171
     0
290
     0
174
     0
 93
        1
 44
0.0
173
     0
291
     1
 45
0.0
1001
ACAD
1000
AcDbSavedByObjectVersion
1070
     0
  0
VISUALSTYLE
  5
33
102
{ACAD_REACTORS
330
2A
102
}
330
2A
100
AcDbVisualStyle
  2
Realistic
 70
     8
 71
     2
 72
     2
 73
     0
 90
        0
 40
-0.6
 41
-30.0
 62
     5
 63
     7
421
 16777215
 74
     1
 91
        0
 64
     7
 65
   257
 75
     1
175
     1
 42
1.0
 92
        8
 66
     8
424
  7895160
 43
1.0
 76
     1
 77
     6
 78
     2
 67
     7
 79
     5
170
     0
171
     0
290
     0
174
     0
 93
       13
 44
0.0
173
     0
291
     0
 45
0.0
1001
ACAD
1000
AcDbSavedByObjectVersion
1070
     0
  0
VISUALSTYLE
  5
37
102
{ACAD_REACTORS
330
2A
102
}
330
2A
100
AcDbVisualStyle
  2
Thicken
 70
    13
 71
     2
 72
     2
 73
     0
 90
        0
 40
-0.6
 41
-30.0
 62
     5
 63
     7
421
 16777215
 74
     1
 91
        4
 64
     7
 65
   257
 75
     1
175
     1
 42
1.0
 92
       12
 66
     7
 43
1.0
 76
     1
 77
     6
 78
     2
 67
     7
 79
     5
170
     0
171
     0
290
     0
174
     0
 93
        1
 44
0.0
173
     0
291
     1
 45
0.0
1001
ACAD
1000
AcDbSavedByObjectVersion
1070
     0
  0
DICTIONARYVAR
  5
242
102
{ACAD_REACTORS
330
241
102
}
330
241
100
DictionaryVariables
280
     0
  1
1:1
  0
ENDSEC
  0
EOF
