  0
SECTION
  2
HEADER
  9
$ACADVER
  1
AC1018
  9
$ACADMAINTVER
 70
     0
  9
$DWGCODEPAGE
  3
ANSI_1252
  9
$INSBASE
 10
0.0
 20
0.0
 30
0.0
  9
$EXTMIN
 10
-259.1648718607152
 20
-409.2209932167699
 30
0.0
  9
$EXTMAX
 10
215.1158087712946
 20
-157.7823806458009
 30
0.0
  9
$LIMMIN
 10
0.0
 20
0.0
  9
$LIMMAX
 10
12.0
 20
9.0
  9
$ORTHOMODE
 70
     0
  9
$REGENMODE
 70
     1
  9
$FILLMODE
 70
     1
  9
$QTEXTMODE
 70
     0
  9
$MIRRTEXT
 70
     1
  9
$LTSCALE
 40
1.0
  9
$ATTMODE
 70
     1
  9
$TEXTSIZE
 40
0.2
  9
$TRACEWID
 40
0.05
  9
$TEXTSTYLE
  7
Standard
  9
$CLAYER
  8
0
  9
$CELTYPE
  6
ByLayer
  9
$CECOLOR
 62
   256
  9
$CELTSCALE
 40
1.0
  9
$DISPSILH
 70
     0
  9
$DIMSCALE
 40
1.0
  9
$DIMASZ
 40
0.18
  9
$DIMEXO
 40
0.0625
  9
$DIMDLI
 40
0.38
  9
$DIMRND
 40
0.0
  9
$DIMDLE
 40
0.0
  9
$DIMEXE
 40
0.18
  9
$DIMTP
 40
0.0
  9
$DIMTM
 40
0.0
  9
$DIMTXT
 40
0.18
  9
$DIMCEN
 40
0.09
  9
$DIMTSZ
 40
0.0
  9
$DIMTOL
 70
     0
  9
$DIMLIM
 70
     0
  9
$DIMTIH
 70
     1
  9
$DIMTOH
 70
     1
  9
$DIMSE1
 70
     0
  9
$DIMSE2
 70
     0
  9
$DIMTAD
 70
     0
  9
$DIMZIN
 70
     0
  9
$DIMBLK
  1

  9
$DIMASO
 70
     1
  9
$DIMSHO
 70
     1
  9
$DIMPOST
  1

  9
$DIMAPOST
  1

  9
$DIMALT
 70
     0
  9
$DIMALTD
 70
     2
  9
$DIMALTF
 40
25.4
  9
$DIMLFAC
 40
1.0
  9
$DIMTOFL
 70
     0
  9
$DIMTVP
 40
0.0
  9
$DIMTIX
 70
     0
  9
$DIMSOXD
 70
     0
  9
$DIMSAH
 70
     0
  9
$DIMBLK1
  1

  9
$DIMBLK2
  1

  9
$DIMSTYLE
  2
Standard
  9
$DIMCLRD
 70
     0
  9
$DIMCLRE
 70
     0
  9
$DIMCLRT
 70
     0
  9
$DIMTFAC
 40
1.0
  9
$DIMGAP
 40
0.09
  9
$DIMJUST
 70
     0
  9
$DIMSD1
 70
     0
  9
$DIMSD2
 70
     0
  9
$DIMTOLJ
 70
     1
  9
$DIMTZIN
 70
     0
  9
$DIMALTZ
 70
     0
  9
$DIMALTTZ
 70
     0
  9
$DIMUPT
 70
     0
  9
$DIMDEC
 70
     4
  9
$DIMTDEC
 70
     4
  9
$DIMALTU
 70
     2
  9
$DIMALTTD
 70
     2
  9
$DIMTXSTY
  7
Standard
  9
$DIMAUNIT
 70
     0
  9
$DIMADEC
 70
     0
  9
$DIMALTRND
 40
0.0
  9
$DIMAZIN
 70
     0
  9
$DIMDSEP
 70
    46
  9
$DIMATFIT
 70
     3
  9
$DIMFRAC
 70
     0
  9
$DIMLDRBLK
  1

  9
$DIMLUNIT
 70
     2
  9
$DIMLWD
 70
    -2
  9
$DIMLWE
 70
    -2
  9
$DIMTMOVE
 70
     0
  9
$LUNITS
 70
     2
  9
$LUPREC
 70
     4
  9
$SKETCHINC
 40
0.1
  9
$FILLETRAD
 40
0.5
  9
$AUNITS
 70
     0
  9
$AUPREC
 70
     0
  9
$MENU
  1
.
  9
$ELEVATION
 40
0.0
  9
$PELEVATION
 40
0.0
  9
$THICKNESS
 40
0.0
  9
$LIMCHECK
 70
     0
  9
$CHAMFERA
 40
0.5
  9
$CHAMFERB
 40
0.5
  9
$CHAMFERC
 40
1.0
  9
$CHAMFERD
 40
0.0
  9
$SKPOLY
 70
     0
  9
$TDCREATE
 40
2456905.417738125
  9
$TDUCREATE
 40
2456905.334404792
  9
$TDUPDATE
 40
2456905.4177386
  9
$TDUUPDATE
 40
2456905.334405266
  9
$TDINDWG
 40
0.0000000116
  9
$TDUSRTIMER
 40
0.0000000116
  9
$USRTIMER
 70
     1
  9
$ANGBASE
 50
0.0
  9
$ANGDIR
 70
     0
  9
$PDMODE
 70
     0
  9
$PDSIZE
 40
0.0
  9
$PLINEWID
 40
0.0
  9
$SPLFRAME
 70
     0
  9
$SPLINETYPE
 70
     6
  9
$SPLINESEGS
 70
     8
  9
$HANDSEED
  5
2C0
  9
$SURFTAB1
 70
     6
  9
$SURFTAB2
 70
     6
  9
$SURFTYPE
 70
     6
  9
$SURFU
 70
     6
  9
$SURFV
 70
     6
  9
$UCSBASE
  2

  9
$UCSNAME
  2

  9
$UCSORG
 10
0.0
 20
0.0
 30
0.0
  9
$UCSXDIR
 10
1.0
 20
0.0
 30
0.0
  9
$UCSYDIR
 10
0.0
 20
1.0
 30
0.0
  9
$UCSORTHOREF
  2

  9
$UCSORTHOVIEW
 70
     0
  9
$UCSORGTOP
 10
0.0
 20
0.0
 30
0.0
  9
$UCSORGBOTTOM
 10
0.0
 20
0.0
 30
0.0
  9
$UCSORGLEFT
 10
0.0
 20
0.0
 30
0.0
  9
$UCSORGRIGHT
 10
0.0
 20
0.0
 30
0.0
  9
$UCSORGFRONT
 10
0.0
 20
0.0
 30
0.0
  9
$UCSORGBACK
 10
0.0
 20
0.0
 30
0.0
  9
$PUCSBASE
  2

  9
$PUCSNAME
  2

  9
$PUCSORG
 10
0.0
 20
0.0
 30
0.0
  9
$PUCSXDIR
 10
1.0
 20
0.0
 30
0.0
  9
$PUCSYDIR
 10
0.0
 20
1.0
 30
0.0
  9
$PUCSORTHOREF
  2

  9
$PUCSORTHOVIEW
 70
     0
  9
$PUCSORGTOP
 10
0.0
 20
0.0
 30
0.0
  9
$PUCSORGBOTTOM
 10
0.0
 20
0.0
 30
0.0
  9
$PUCSORGLEFT
 10
0.0
 20
0.0
 30
0.0
  9
$PUCSORGRIGHT
 10
0.0
 20
0.0
 30
0.0
  9
$PUCSORGFRONT
 10
0.0
 20
0.0
 30
0.0
  9
$PUCSORGBACK
 10
0.0
 20
0.0
 30
0.0
  9
$USERI1
 70
     0
  9
$USERI2
 70
     0
  9
$USERI3
 70
     0
  9
$USERI4
 70
     0
  9
$USERI5
 70
     0
  9
$USERR1
 40
18.1
  9
$USERR2
 40
0.0
  9
$USERR3
 40
0.0
  9
$USERR4
 40
0.0
  9
$USERR5
 40
0.0
  9
$WORLDVIEW
 70
     1
  9
$SHADEDGE
 70
     3
  9
$SHADEDIF
 70
    70
  9
$TILEMODE
 70
     1
  9
$MAXACTVP
 70
    64
  9
$PINSBASE
 10
0.0
 20
0.0
 30
0.0
  9
$PLIMCHECK
 70
     0
  9
$PEXTMIN
 10
1.00000000000000E+20
 20
1.00000000000000E+20
 30
1.00000000000000E+20
  9
$PEXTMAX
 10
-1.00000000000000E+20
 20
-1.00000000000000E+20
 30
-1.00000000000000E+20
  9
$PLIMMIN
 10
0.0
 20
0.0
  9
$PLIMMAX
 10
12.0
 20
9.0
  9
$UNITMODE
 70
     0
  9
$VISRETAIN
 70
     1
  9
$PLINEGEN
 70
     0
  9
$PSLTSCALE
 70
     1
  9
$TREEDEPTH
 70
  3020
  9
$CMLSTYLE
  2
Standard
  9
$CMLJUST
 70
     0
  9
$CMLSCALE
 40
1.0
  9
$PROXYGRAPHICS
 70
     1
  9
$MEASUREMENT
 70
     1
  9
$CELWEIGHT
370
    -1
  9
$ENDCAPS
280
     0
  9
$JOINSTYLE
280
     0
  9
$LWDISPLAY
290
     0
  9
$INSUNITS
 70
     4
  9
$HYPERLINKBASE
  1

  9
$STYLESHEET
  1

  9
$XEDIT
290
     1
  9
$CEPSNTYPE
380
     0
  9
$PSTYLEMODE
290
     1
  9
$FINGERPRINTGUID
  2
{915E15F8-C2FF-465E-8B41-F0160962C4E2}
  9
$VERSIONGUID
  2
{FAEB1C32-E019-11D5-929B-00C0DF256EC4}
  9
$EXTNAMES
290
     1
  9
$PSVPSCALE
 40
0.0
  9
$OLESTARTUP
290
     0
  9
$SORTENTS
280
   127
  9
$INDEXCTL
280
     0
  9
$HIDETEXT
280
     1
  9
$XCLIPFRAME
290
     0
  9
$HALOGAP
280
     0
  9
$OBSCOLOR
 70
   257
  9
$OBSLTYPE
280
     0
  9
$INTERSECTIONDISPLAY
280
     0
  9
$INTERSECTIONCOLOR
 70
   257
  9
$DIMASSOC
280
     2
  9
$PROJECTNAME
  1

  0
ENDSEC
  0
SECTION
  2
CLASSES
  0
CLASS
  1
ACDBDICTIONARYWDFLT
  2
AcDbDictionaryWithDefault
  3
ObjectDBX Classes
 90
        0
 91
        4
280
     0
281
     0
  0
CLASS
  1
VISUALSTYLE
  2
AcDbVisualStyle
  3
ObjectDBX Classes
 90
     4095
 91
        4
280
     0
281
     0
  0
CLASS
  1
MATERIAL
  2
AcDbMaterial
  3
ObjectDBX Classes
 90
     1153
 91
        4
280
     0
281
     0
  0
ENDSEC
  0
SECTION
  2
TABLES
  0
TABLE
  2
VPORT
  5
8
330
0
100
AcDbSymbolTable
 70
     1
  0
VPORT
  5
29
330
8
100
AcDbSymbolTableRecord
100
AcDbViewportTableRecord
  2
*Active
 70
     0
 10
0.0
 20
0.0
 11
1.0
 21
1.0
 12
-22.0245315447103
 22
-283.5016869312854
 13
0.0
 23
0.0
 14
0.5
 24
0.5
 15
0.5
 25
0.5
 16
0.0
 26
0.0
 36
1.0
 17
0.0
 27
0.0
 37
0.0
 40
325.5230075424158
 41
1.60267857142857
 42
50.0
 43
0.0
 44
0.0
 50
0.0
 51
0.0
 71
     0
 72
   100
 73
     1
 74
     3
 75
     0
 76
     0
 77
     0
 78
     0
281
     0
 65
     1
110
0.0
120
0.0
130
0.0
111
1.0
121
0.0
131
0.0
112
0.0
122
1.0
132
0.0
 79
     0
146
0.0
  0
ENDTAB
  0
TABLE
  2
LTYPE
  5
5
330
0
100
AcDbSymbolTable
 70
     8
  0
LTYPE
  5
14
330
5
100
AcDbSymbolTableRecord
100
AcDbLinetypeTableRecord
  2
ByBlock
 70
     0
  3

 72
    65
 73
     0
 40
0.0
  0
LTYPE
  5
15
330
5
100
AcDbSymbolTableRecord
100
AcDbLinetypeTableRecord
  2
ByLayer
 70
     0
  3

 72
    65
 73
     0
 40
0.0
  0
LTYPE
  5
16
330
5
100
AcDbSymbolTableRecord
100
AcDbLinetypeTableRecord
  2
Continuous
 70
     0
  3
Solid line
 72
    65
 73
     0
 40
0.0
  0
LTYPE
  5
3F
330
5
100
AcDbSymbolTableRecord
100
AcDbLinetypeTableRecord
  2
DASHED
 70
     0
  3
Dashed
 72
    65
 73
     2
 40
15.0
 49
7.0
 74
     0
 49
-8.0
 74
     0
  0
LTYPE
  5
40
330
5
100
AcDbSymbolTableRecord
100
AcDbLinetypeTableRecord
  2
DOTTED
 70
     0
  3
Dotted
 72
    65
 73
     2
 40
1.0
 49
0.0
 74
     0
 49
-1.0
 74
     0
  0
LTYPE
  5
41
330
5
100
AcDbSymbolTableRecord
100
AcDbLinetypeTableRecord
  2
DOT_CENTER
 70
     0
  3
Dot_Center
 72
    65
 73
     4
 40
14.0
 49
12.0
 74
     0
 49
-1.0
 74
     0
 49
0.0
 74
     0
 49
-1.0
 74
     0
  0
LTYPE
  5
42
330
5
100
AcDbSymbolTableRecord
100
AcDbLinetypeTableRecord
  2
LONG_DASHED
 70
     0
  3
Long_Dashed
 72
    65
 73
     2
 40
15.0
 49
10.0
 74
     0
 49
-5.0
 74
     0
  0
LTYPE
  5
43
330
5
100
AcDbSymbolTableRecord
100
AcDbLinetypeTableRecord
  2
DASH_CENTER
 70
     0
  3
Dash_Center
 72
    65
 73
     4
 40
14.0
 49
11.0
 74
     0
 49
-1.0
 74
     0
 49
1.0
 74
     0
 49
-1.0
 74
     0
  0
LTYPE
  5
44
330
5
100
AcDbSymbolTableRecord
100
AcDbLinetypeTableRecord
  2
PHANTOM
 70
     0
  3
Phantom
 72
    65
 73
     6
 40
13.0
 49
10.0
 74
     0
 49
-1.0
 74
     0
 49
0.0
 74
     0
 49
-1.0
 74
     0
 49
0.0
 74
     0
 49
-1.0
 74
     0
  0
LTYPE
  5
45
330
5
100
AcDbSymbolTableRecord
100
AcDbLinetypeTableRecord
  2
CENTER_DASH_DASH
 70
     0
  3
Center_Dash_Dash
 72
    65
 73
     6
 40
14.0
 49
9.0
 74
     0
 49
-1.0
 74
     0
 49
1.0
 74
     0
 49
-1.0
 74
     0
 49
1.0
 74
     0
 49
-1.0
 74
     0
  0
ENDTAB
  0
TABLE
  2
LAYER
  5
2
330
0
100
AcDbSymbolTable
 70
     2
  0
LAYER
  5
10
330
2
100
AcDbSymbolTableRecord
100
AcDbLayerTableRecord
  2
0
 70
     0
 62
     7
  6
Continuous
370
    -3
390
F
  0
LAYER
  5
46
330
2
100
AcDbSymbolTableRecord
100
AcDbLayerTableRecord
  2
1
 70
     0
 62
     7
  6
Continuous
370
    -3
390
F
  0
ENDTAB
  0
TABLE
  2
STYLE
  5
3
330
0
100
AcDbSymbolTable
 70
     2
  0
STYLE
  5
11
330
3
100
AcDbSymbolTableRecord
100
AcDbTextStyleTableRecord
  2
Standard
 70
     0
 40
0.0
 41
1.0
 50
0.0
 71
     0
 42
0.2
  3
txt
  4

  0
STYLE
  5
148
330
3
100
AcDbSymbolTableRecord
100
AcDbTextStyleTableRecord
  2
CONVERTER_11
 70
     0
 40
0.0
 41
0.9
 50
0.0
 71
     0
 42
0.2
  3
txt.shx
  4

  0
ENDTAB
  0
TABLE
  2
VIEW
  5
6
330
0
100
AcDbSymbolTable
 70
     0
  0
ENDTAB
  0
TABLE
  2
UCS
  5
7
330
0
100
AcDbSymbolTable
 70
     0
  0
ENDTAB
  0
TABLE
  2
APPID
  5
9
330
0
100
AcDbSymbolTable
 70
     1
  0
APPID
  5
12
330
9
100
AcDbSymbolTableRecord
100
AcDbRegAppTableRecord
  2
ACAD
 70
     0
  0
ENDTAB
  0
TABLE
  2
DIMSTYLE
  5
A
330
0
100
AcDbSymbolTable
 70
    26
100
AcDbDimStyleTable
  0
DIMSTYLE
105
27
330
A
100
AcDbSymbolTableRecord
100
AcDbDimStyleTableRecord
  2
Standard
 70
     0
178
     0
340
11
  0
DIMSTYLE
105
156
102
{ACAD_REACTORS
330
157
102
}
330
A
100
AcDbSymbolTableRecord
100
AcDbDimStyleTableRecord
  2
ME10_DIM_10
 70
     0
 41
3.5
 42
0.0
 44
2.0
 73
     0
 74
     0
 77
     1
 78
     4
140
3.5
144
0.03937007874016
147
2.0
172
     1
173
     1
174
     1
175
     1
176
     2
177
     2
271
     3
178
     2
271
     3
340
148
  0
DIMSTYLE
105
161
102
{ACAD_REACTORS
330
162
102
}
330
A
100
AcDbSymbolTableRecord
100
AcDbDimStyleTableRecord
  2
ME10_DIM_11
 70
     0
  3
40mm (<>``)
 41
3.5
 42
0.0
 44
2.0
 73
     0
 74
     0
 77
     1
 78
     4
140
3.5
144
0.03937007874016
147
2.0
172
     1
173
     1
174
     1
175
     1
176
     2
177
     2
271
     3
178
     2
271
     3
340
148
  0
DIMSTYLE
105
16D
102
{ACAD_REACTORS
330
16E
102
}
330
A
100
AcDbSymbolTableRecord
100
AcDbDimStyleTableRecord
  2
ME10_DIM_12
 70
     0
  3
15mm (<>``)
 41
3.5
 42
0.0
 44
2.0
 73
     0
 74
     0
 77
     1
 78
     4
140
3.5
144
0.03937007874016
147
2.0
172
     1
173
     1
174
     1
175
     1
176
     2
177
     2
271
     3
178
     2
271
     3
340
148
  0
DIMSTYLE
105
17A
102
{ACAD_REACTORS
330
17B
102
}
330
A
100
AcDbSymbolTableRecord
100
AcDbDimStyleTableRecord
  2
ME10_DIM_13
 70
     0
  3
3mm (<>``)
 41
3.5
 42
0.0
 44
2.0
 73
     0
 74
     0
 77
     1
 78
     4
140
3.5
144
0.03937007874016
147
2.0
172
     1
173
     1
174
     1
175
     1
176
     2
177
     2
271
     3
178
     2
271
     3
340
148
  0
DIMSTYLE
105
186
102
{ACAD_REACTORS
330
187
102
}
330
A
100
AcDbSymbolTableRecord
100
AcDbDimStyleTableRecord
  2
ME10_DIM_14
 70
     0
  3
24mm (<>``)
 41
3.5
 42
0.0
 44
2.0
 73
     0
 74
     0
 77
     1
 78
     4
140
3.5
144
0.03937007874016
147
2.0
172
     1
173
     1
174
     1
175
     1
176
     2
177
     2
271
     3
178
     2
271
     3
340
148
  0
DIMSTYLE
105
193
102
{ACAD_REACTORS
330
194
102
}
330
A
100
AcDbSymbolTableRecord
100
AcDbDimStyleTableRecord
  2
ME10_DIM_15
 70
     0
  3
4mm (<>``)
 41
3.5
 42
0.0
 44
2.0
 73
     0
 74
     0
 77
     1
 78
     4
140
3.5
144
0.03937007874016
147
2.0
172
     1
173
     1
174
     1
175
     1
176
     2
177
     2
271
     3
178
     2
271
     3
340
148
  0
DIMSTYLE
105
1A0
102
{ACAD_REACTORS
330
1A1
102
}
330
A
100
AcDbSymbolTableRecord
100
AcDbDimStyleTableRecord
  2
ME10_DIM_16
 70
     0
  3
24mm (<>``)
 41
3.5
 42
0.0
 44
2.0
 73
     0
 74
     0
 77
     1
 78
     4
140
3.5
144
0.03937007874016
147
2.0
172
     1
173
     1
174
     1
175
     1
176
     2
177
     2
271
     3
178
     2
271
     3
340
148
  0
DIMSTYLE
105
1AC
102
{ACAD_REACTORS
330
1AD
102
}
330
A
100
AcDbSymbolTableRecord
100
AcDbDimStyleTableRecord
  2
ME10_DIM_17
 70
     0
  3
21mm (<>``)
 41
3.5
 42
0.0
 44
2.0
 73
     0
 74
     0
 77
     1
 78
     4
140
3.5
144
0.03937007874016
147
2.0
172
     1
173
     1
174
     1
175
     1
176
     2
177
     2
271
     3
178
     2
271
     3
340
148
  0
DIMSTYLE
105
1B8
102
{ACAD_REACTORS
330
1B9
102
}
330
A
100
AcDbSymbolTableRecord
100
AcDbDimStyleTableRecord
  2
ME10_DIM_18
 70
     0
  3
18mm(<>``)
 41
3.5
 42
0.0
 44
2.0
 73
     0
 74
     0
 77
     1
 78
     4
140
3.5
144
0.03937007874016
147
2.0
172
     1
173
     1
174
     1
175
     1
176
     2
177
     2
271
     3
178
     2
271
     3
340
148
  0
DIMSTYLE
105
1C3
102
{ACAD_REACTORS
330
1C4
102
}
330
A
100
AcDbSymbolTableRecord
100
AcDbDimStyleTableRecord
  2
ME10_DIM_19
 70
     0
  3
155mm (<>``)
 41
3.5
 42
0.0
 44
2.0
 73
     0
 74
     0
 77
     1
 78
     4
140
3.5
144
0.03937007874016
147
2.0
172
     1
173
     1
174
     1
175
     1
176
     2
177
     2
271
     3
178
     2
271
     3
340
148
  0
DIMSTYLE
105
1CE
102
{ACAD_REACTORS
330
1CF
102
}
330
A
100
AcDbSymbolTableRecord
100
AcDbDimStyleTableRecord
  2
ME10_DIM_20
 70
     0
  3
132mm (<>``)
 41
3.5
 42
0.0
 44
2.0
 73
     0
 74
     0
 77
     1
 78
     4
140
3.5
144
0.03937007874016
147
2.0
172
     1
173
     1
174
     1
175
     1
176
     2
177
     2
271
     3
178
     2
271
     3
340
148
  0
DIMSTYLE
105
1DB
102
{ACAD_REACTORS
330
1DC
102
}
330
A
100
AcDbSymbolTableRecord
100
AcDbDimStyleTableRecord
  2
ME10_DIM_21
 70
     0
  3
3mm (<>``)
 41
3.5
 42
0.0
 44
2.0
 73
     0
 74
     0
 77
     1
 78
     4
140
3.5
144
0.03937007874016
147
2.0
172
     1
173
     1
174
     1
175
     1
176
     2
177
     2
271
     3
178
     2
271
     3
340
148
  0
DIMSTYLE
105
1E6
102
{ACAD_REACTORS
330
1E7
102
}
330
A
100
AcDbSymbolTableRecord
100
AcDbDimStyleTableRecord
  2
ME10_DIM_22
 70
     0
  3
142mm (<>``)
 41
3.5
 42
0.0
 44
2.0
 73
     0
 74
     0
 77
     1
 78
     4
140
3.5
144
0.03937007874016
147
2.0
172
     1
173
     1
174
     1
175
     1
176
     2
177
     2
271
     3
178
     2
271
     3
340
148
  0
DIMSTYLE
105
1F2
102
{ACAD_REACTORS
330
1F3
102
}
330
A
100
AcDbSymbolTableRecord
100
AcDbDimStyleTableRecord
  2
ME10_DIM_23
 70
     0
  3
27mm (<>``)
 41
3.5
 42
0.0
 44
2.0
 73
     0
 74
     0
 77
     1
 78
     4
140
3.5
144
0.03937007874016
147
2.0
172
     1
173
     1
174
     1
175
     1
176
     2
177
     2
271
     3
178
     2
271
     3
340
148
  0
DIMSTYLE
105
1FE
102
{ACAD_REACTORS
330
1FF
102
}
330
A
100
AcDbSymbolTableRecord
100
AcDbDimStyleTableRecord
  2
ME10_DIM_24
 70
     0
  3
10mm (<>``)
 41
3.5
 42
0.0
 44
2.0
 73
     0
 74
     0
 77
     1
 78
     4
140
3.5
144
0.03937007874016
147
2.0
172
     1
173
     1
174
     1
175
     1
176
     2
177
     2
271
     3
178
     2
271
     3
340
148
  0
DIMSTYLE
105
209
102
{ACAD_REACTORS
330
20A
102
}
330
A
100
AcDbSymbolTableRecord
100
AcDbDimStyleTableRecord
  2
ME10_DIM_25
 70
     0
  3
120mm (<>``)
 41
3.5
 42
0.0
 44
2.0
 73
     0
 74
     0
 77
     1
 78
     4
140
3.5
144
0.03937007874016
147
2.0
172
     1
173
     1
174
     1
175
     1
176
     2
177
     2
271
     3
178
     2
271
     3
340
148
  0
DIMSTYLE
105
214
102
{ACAD_REACTORS
330
215
102
}
330
A
100
AcDbSymbolTableRecord
100
AcDbDimStyleTableRecord
  2
ME10_DIM_26
 70
     0
  3
155mm (<>``)
 41
3.5
 42
0.0
 44
2.0
 73
     0
 74
     0
 77
     1
 78
     4
140
3.5
144
0.03937007874016
147
2.0
172
     1
173
     1
174
     1
175
     1
176
     2
177
     2
271
     3
178
     2
271
     3
340
148
  0
DIMSTYLE
105
220
102
{ACAD_REACTORS
330
221
102
}
330
A
100
AcDbSymbolTableRecord
100
AcDbDimStyleTableRecord
  2
ME10_DIM_27
 70
     0
  3
16mm (<>``)
 41
3.5
 42
0.0
 44
2.0
 73
     0
 74
     0
 77
     1
 78
     4
140
3.5
144
0.03937007874016
147
2.0
172
     1
173
     1
174
     1
175
     1
176
     2
177
     2
271
     3
178
     2
271
     3
340
148
  0
DIMSTYLE
105
22C
102
{ACAD_REACTORS
330
22D
102
}
330
A
100
AcDbSymbolTableRecord
100
AcDbDimStyleTableRecord
  2
ME10_DIM_28
 70
     0
  3
18mm (<>``)
 41
3.5
 42
0.0
 44
2.0
 73
     0
 74
     0
 77
     1
 78
     4
140
3.5
144
0.03937007874016
147
2.0
172
     1
173
     1
174
     1
175
     1
176
     2
177
     2
271
     3
178
     2
271
     3
340
148
  0
DIMSTYLE
105
239
102
{ACAD_REACTORS
330
23A
102
}
330
A
100
AcDbSymbolTableRecord
100
AcDbDimStyleTableRecord
  2
ME10_DIM_29
 70
     0
  3
4mm (<>``)
 41
3.5
 42
0.0
 44
2.0
 73
     0
 74
     0
 77
     1
 78
     4
140
3.5
144
0.03937007874016
147
2.0
172
     1
173
     1
174
     1
175
     1
176
     2
177
     2
271
     3
178
     2
271
     3
340
148
  0
DIMSTYLE
105
245
102
{ACAD_REACTORS
330
246
102
}
330
A
100
AcDbSymbolTableRecord
100
AcDbDimStyleTableRecord
  2
ME10_DIM_30
 70
     0
  3
16mm (<>``)
 41
3.5
 42
0.0
 44
2.0
 73
     0
 74
     0
 77
     1
 78
     4
140
3.5
144
0.03937007874016
147
2.0
172
     1
173
     1
174
     1
175
     1
176
     2
177
     2
271
     3
178
     2
271
     3
340
148
  0
DIMSTYLE
105
250
102
{ACAD_REACTORS
330
251
102
}
330
A
100
AcDbSymbolTableRecord
100
AcDbDimStyleTableRecord
  2
ME10_DIM_31
 70
     0
  3
40mm (<>``)
 41
3.5
 42
0.0
 44
2.0
 73
     0
 74
     0
 77
     1
 78
     4
140
3.5
144
0.03937007874016
147
2.0
172
     1
173
     1
174
     1
175
     1
176
     2
177
     2
271
     3
178
     2
271
     3
340
148
  0
DIMSTYLE
105
25C
102
{ACAD_REACTORS
330
25D
102
}
330
A
100
AcDbSymbolTableRecord
100
AcDbDimStyleTableRecord
  2
ME10_DIM_32
 70
     0
  3
24mm (<>``)
 41
3.5
 42
0.0
 44
2.0
 73
     0
 74
     0
 77
     1
 78
     4
140
3.5
144
0.03937007874016
147
2.0
172
     1
173
     1
174
     1
175
     1
176
     2
177
     2
271
     3
178
     2
271
     3
340
148
  0
DIMSTYLE
105
269
102
{ACAD_REACTORS
330
26A
102
}
330
A
100
AcDbSymbolTableRecord
100
AcDbDimStyleTableRecord
  2
ME10_DIM_33
 70
     0
 41
3.5
 42
0.0
 44
2.0
 73
     0
 74
     0
 77
     1
 78
     4
140
3.5
144
0.03937007874016
147
2.0
172
     1
173
     1
174
     1
175
     1
176
     2
177
     2
271
     3
178
     2
271
     3
340
148
  0
DIMSTYLE
105
274
102
{ACAD_REACTORS
330
275
102
}
330
A
100
AcDbSymbolTableRecord
100
AcDbDimStyleTableRecord
  2
ME10_DIM_34
 70
     0
 41
3.5
 42
0.0
 44
2.0
 73
     0
 74
     0
 77
     1
 78
     4
140
3.5
144
0.03937007874016
147
2.0
172
     1
173
     1
174
     1
175
     1
176
     2
177
     2
271
     3
178
     2
271
     3
340
148
  0
ENDTAB
  0
TABLE
  2
BLOCK_RECORD
  5
1
330
0
100
AcDbSymbolTable
 70
    30
  0
BLOCK_RECORD
  5
1F
330
1
100
AcDbSymbolTableRecord
100
AcDbBlockTableRecord
  2
*Model_Space
340
22
  0
BLOCK_RECORD
  5
1B
330
1
100
AcDbSymbolTableRecord
100
AcDbBlockTableRecord
  2
*Paper_Space
340
1E
  0
BLOCK_RECORD
  5
23
330
1
100
AcDbSymbolTableRecord
100
AcDbBlockTableRecord
  2
*Paper_Space0
340
26
  0
BLOCK_RECORD
  5
14D
330
1
100
AcDbSymbolTableRecord
100
AcDbBlockTableRecord
  2
*D1
340
0
  0
BLOCK_RECORD
  5
158
330
1
100
AcDbSymbolTableRecord
100
AcDbBlockTableRecord
  2
*D2
340
0
  0
BLOCK_RECORD
  5
163
330
1
100
AcDbSymbolTableRecord
100
AcDbBlockTableRecord
  2
*D3
340
0
  0
BLOCK_RECORD
  5
16F
330
1
100
AcDbSymbolTableRecord
100
AcDbBlockTableRecord
  2
*D4
340
0
  0
BLOCK_RECORD
  5
17C
330
1
100
AcDbSymbolTableRecord
100
AcDbBlockTableRecord
  2
*D5
340
0
  0
BLOCK_RECORD
  5
188
330
1
100
AcDbSymbolTableRecord
100
AcDbBlockTableRecord
  2
*D6
340
0
  0
BLOCK_RECORD
  5
195
330
1
100
AcDbSymbolTableRecord
100
AcDbBlockTableRecord
  2
*D7
340
0
  0
BLOCK_RECORD
  5
1A2
330
1
100
AcDbSymbolTableRecord
100
AcDbBlockTableRecord
  2
*D8
340
0
  0
BLOCK_RECORD
  5
1AE
330
1
100
AcDbSymbolTableRecord
100
AcDbBlockTableRecord
  2
*D9
340
0
  0
BLOCK_RECORD
  5
1BA
330
1
100
AcDbSymbolTableRecord
100
AcDbBlockTableRecord
  2
*D10
340
0
  0
BLOCK_RECORD
  5
1C5
330
1
100
AcDbSymbolTableRecord
100
AcDbBlockTableRecord
  2
*D11
340
0
  0
BLOCK_RECORD
  5
1D0
330
1
100
AcDbSymbolTableRecord
100
AcDbBlockTableRecord
  2
*D12
340
0
  0
BLOCK_RECORD
  5
1DD
330
1
100
AcDbSymbolTableRecord
100
AcDbBlockTableRecord
  2
*D13
340
0
  0
BLOCK_RECORD
  5
1E8
330
1
100
AcDbSymbolTableRecord
100
AcDbBlockTableRecord
  2
*D14
340
0
  0
BLOCK_RECORD
  5
1F4
330
1
100
AcDbSymbolTableRecord
100
AcDbBlockTableRecord
  2
*D15
340
0
  0
BLOCK_RECORD
  5
200
330
1
100
AcDbSymbolTableRecord
100
AcDbBlockTableRecord
  2
*D16
340
0
  0
BLOCK_RECORD
  5
20B
330
1
100
AcDbSymbolTableRecord
100
AcDbBlockTableRecord
  2
*D17
340
0
  0
BLOCK_RECORD
  5
216
330
1
100
AcDbSymbolTableRecord
100
AcDbBlockTableRecord
  2
*D18
340
0
  0
BLOCK_RECORD
  5
222
330
1
100
AcDbSymbolTableRecord
100
AcDbBlockTableRecord
  2
*D19
340
0
  0
BLOCK_RECORD
  5
22E
330
1
100
AcDbSymbolTableRecord
100
AcDbBlockTableRecord
  2
*D20
340
0
  0
BLOCK_RECORD
  5
23B
330
1
100
AcDbSymbolTableRecord
100
AcDbBlockTableRecord
  2
*D21
340
0
  0
BLOCK_RECORD
  5
247
330
1
100
AcDbSymbolTableRecord
100
AcDbBlockTableRecord
  2
*D22
340
0
  0
BLOCK_RECORD
  5
252
330
1
100
AcDbSymbolTableRecord
100
AcDbBlockTableRecord
  2
*D23
340
0
  0
BLOCK_RECORD
  5
25E
330
1
100
AcDbSymbolTableRecord
100
AcDbBlockTableRecord
  2
*D24
340
0
  0
BLOCK_RECORD
  5
26B
330
1
100
AcDbSymbolTableRecord
100
AcDbBlockTableRecord
  2
*D25
340
0
  0
BLOCK_RECORD
  5
276
330
1
100
AcDbSymbolTableRecord
100
AcDbBlockTableRecord
  2
*D26
340
0
102
{BLKREFS
331
27C
102
}
  0
BLOCK_RECORD
  5
27D
330
1
100
AcDbSymbolTableRecord
100
AcDbBlockTableRecord
  2
*D27
340
0
102
{BLKREFS
331
285
102
}
  0
BLOCK_RECORD
  5
286
330
1
100
AcDbSymbolTableRecord
100
AcDbBlockTableRecord
  2
*D28
340
0
102
{BLKREFS
331
28E
102
}
  0
BLOCK_RECORD
  5
28F
330
1
100
AcDbSymbolTableRecord
100
AcDbBlockTableRecord
  2
*D29
340
0
102
{BLKREFS
331
297
102
}
  0
ENDTAB
  0
ENDSEC
  0
SECTION
  2
BLOCKS
  0
BLOCK
  5
20
330
1F
100
AcDbEntity
  8
0
100
AcDbBlockBegin
  2
*Model_Space
 70
     0
 10
0.0
 20
0.0
 30
0.0
  3
*Model_Space
  1

  0
ENDBLK
  5
21
330
1F
100
AcDbEntity
  8
0
100
AcDbBlockEnd
  0
BLOCK
  5
1C
330
1B
100
AcDbEntity
 67
     1
  8
0
100
AcDbBlockBegin
  2
*Paper_Space
 70
     0
 10
0.0
 20
0.0
 30
0.0
  3
*Paper_Space
  1

  0
ENDBLK
  5
1D
330
1B
100
AcDbEntity
 67
     1
  8
0
100
AcDbBlockEnd
  0
BLOCK
  5
24
330
23
100
AcDbEntity
  8
0
100
AcDbBlockBegin
  2
*Paper_Space0
 70
     0
 10
0.0
 20
0.0
 30
0.0
  3
*Paper_Space0
  1

  0
ENDBLK
  5
25
330
23
100
AcDbEntity
  8
0
100
AcDbBlockEnd
  0
BLOCK
  5
154
330
14D
100
AcDbEntity
  8
0
100
AcDbBlockBegin
  2
*D1
 70
     1
 10
0.0
 20
0.0
 30
0.0
  3
*D1
  1

  0
LINE
  5
14E
330
14D
100
AcDbEntity
  8
1
  6
Continuous
 62
     2
100
AcDbLine
 10
29.01081685408047
 20
-270.5302751537187
 30
0.0
 11
47.01081685408062
 21
-270.5302751537187
 31
0.0
  0
LINE
  5
14F
330
14D
100
AcDbEntity
  8
1
  6
Continuous
 62
     2
100
AcDbLine
 10
29.01081685408047
 20
-312.2422023370502
 30
0.0
 11
29.01081685408047
 21
-268.5302751537187
 31
0.0
  0
LINE
  5
150
330
14D
100
AcDbEntity
  8
1
  6
Continuous
 62
     2
100
AcDbLine
 10
47.01081685408062
 20
-294.2422023370501
 30
0.0
 11
47.01081685408062
 21
-268.5302751537187
 31
0.0
  0
SOLID
  5
151
330
14D
100
AcDbEntity
  8
1
 62
     2
100
AcDbTrace
 10
32.51081685408047
 20
-270.0694914121628
 30
0.0
 11
32.51081685408047
 21
-270.9910588952746
 31
0.0
 12
29.01081685408047
 22
-270.5302751537187
 32
0.0
 13
29.01081685408047
 23
-270.5302751537187
 33
0.0
  0
SOLID
  5
152
330
14D
100
AcDbEntity
  8
1
 62
     2
100
AcDbTrace
 10
43.51081685408062
 20
-270.9910588952746
 30
0.0
 11
43.51081685408062
 21
-270.0694914121628
 31
0.0
 12
47.01081685408062
 22
-270.5302751537187
 32
0.0
 13
47.01081685408062
 23
-270.5302751537187
 33
0.0
  0
MTEXT
  5
153
330
14D
100
AcDbEntity
  8
1
 62
     2
100
AcDbMText
 10
14.04520760443007
 20
-268.5302751537187
 30
0.0
 40
3.5
 41
0.0
 71
     7
 72
     1
  1
min. 35mm (1.378``)
  7
CONVERTER_11
 11
0.9999999999970619
 21
2.424068405545306E-6
 31
0.0
 73
     1
 44
0.60024009603842
  0
ENDBLK
  5
155
330
14D
100
AcDbEntity
  8
0
100
AcDbBlockEnd
  0
BLOCK
  5
15F
330
158
100
AcDbEntity
  8
0
100
AcDbBlockBegin
  2
*D2
 70
     1
 10
0.0
 20
0.0
 30
0.0
  3
*D2
  1

  0
LINE
  5
159
330
158
100
AcDbEntity
  8
1
  6
Continuous
 62
     2
100
AcDbLine
 10
89.67222342742375
 20
-282.1676622744755
 30
0.0
 11
89.67222342742375
 21
-242.1676622744755
 31
0.0
  0
LINE
  5
15A
330
158
100
AcDbEntity
  8
1
  6
Continuous
 62
     2
100
AcDbLine
 10
96.47992205542275
 20
-242.1676622744755
 30
0.0
 11
87.67222342742375
 21
-242.1676622744755
 31
0.0
  0
LINE
  5
15B
330
158
100
AcDbEntity
  8
1
  6
Continuous
 62
     2
100
AcDbLine
 10
96.47992205542275
 20
-282.1676622744755
 30
0.0
 11
87.67222342742375
 21
-282.1676622744755
 31
0.0
  0
SOLID
  5
15C
330
158
100
AcDbEntity
  8
1
 62
     2
100
AcDbTrace
 10
89.21143968586786
 20
-278.6676622744755
 30
0.0
 11
90.13300716897963
 21
-278.6676622744755
 31
0.0
 12
89.67222342742375
 22
-282.1676622744755
 32
0.0
 13
89.67222342742375
 23
-282.1676622744755
 33
0.0
  0
SOLID
  5
15D
330
158
100
AcDbEntity
  8
1
 62
     2
100
AcDbTrace
 10
90.13300716897963
 20
-245.6676622744755
 30
0.0
 11
89.21143968586786
 21
-245.6676622744755
 31
0.0
 12
89.67222342742375
 22
-242.1676622744755
 32
0.0
 13
89.67222342742375
 23
-242.1676622744755
 33
0.0
  0
MTEXT
  5
15E
330
158
100
AcDbEntity
  8
1
 62
     2
100
AcDbMText
 10
87.67222342742375
 20
-278.3814122744755
 30
0.0
 40
3.5
 41
0.0
 71
     7
 72
     1
  1
\C2;40mm (\C2;1.575\C2;``)
  7
CONVERTER_11
 11
0.0
 21
1.0
 31
0.0
 73
     1
 44
0.60024009603842
  0
ENDBLK
  5
160
330
158
100
AcDbEntity
  8
0
100
AcDbBlockEnd
  0
BLOCK
  5
16B
330
163
100
AcDbEntity
  8
0
100
AcDbBlockBegin
  2
*D3
 70
     1
 10
0.0
 20
0.0
 30
0.0
  3
*D3
  1

  0
LINE
  5
164
330
163
100
AcDbEntity
  8
1
  6
Continuous
 62
     2
100
AcDbLine
 10
-103.1777554704674
 20
-374.7551404409649
 30
0.0
 11
-118.1777554704674
 21
-374.7551404409649
 31
0.0
  0
LINE
  5
165
330
163
100
AcDbEntity
  8
1
  6
Continuous
 62
     2
100
AcDbLine
 10
-118.1777554704674
 20
-374.7551404409649
 30
0.0
 11
-164.9866611236976
 21
-374.7551404409649
 31
0.0
  0
LINE
  5
166
330
163
100
AcDbEntity
  8
1
  6
Continuous
 62
     2
100
AcDbLine
 10
-103.1777554704674
 20
-339.6676622744756
 30
0.0
 11
-103.1777554704674
 21
-376.7551404409649
 31
0.0
  0
LINE
  5
167
330
163
100
AcDbEntity
  8
1
  6
Continuous
 62
     2
100
AcDbLine
 10
-118.1777554704674
 20
-339.6676622744756
 30
0.0
 11
-118.1777554704674
 21
-376.7551404409649
 31
0.0
  0
SOLID
  5
168
330
163
100
AcDbEntity
  8
1
 62
     2
100
AcDbTrace
 10
-106.6777554704674
 20
-375.2159241825208
 30
0.0
 11
-106.6777554704674
 21
-374.294356699409
 31
0.0
 12
-103.1777554704674
 22
-374.7551404409649
 32
0.0
 13
-103.1777554704674
 23
-374.7551404409649
 33
0.0
  0
SOLID
  5
169
330
163
100
AcDbEntity
  8
1
 62
     2
100
AcDbTrace
 10
-114.6777554704674
 20
-374.294356699409
 30
0.0
 11
-114.6777554704674
 21
-375.2159241825208
 31
0.0
 12
-118.1777554704674
 22
-374.7551404409649
 32
0.0
 13
-118.1777554704674
 23
-374.7551404409649
 33
0.0
  0
MTEXT
  5
16A
330
163
100
AcDbEntity
  8
1
 62
     2
100
AcDbMText
 10
-164.881661123647
 20
-372.7551821834228
 30
0.0
 40
3.5
 41
0.0
 71
     7
 72
     1
  1
\C2;15mm (\C2;0.591\C2;``)
  7
CONVERTER_11
 11
0.9999999999970619
 21
2.424068405545306E-6
 31
0.0
 73
     1
 44
0.60024009603842
  0
ENDBLK
  5
16C
330
163
100
AcDbEntity
  8
0
100
AcDbBlockEnd
  0
BLOCK
  5
178
330
16F
100
AcDbEntity
  8
0
100
AcDbBlockBegin
  2
*D4
 70
     1
 10
0.0
 20
0.0
 30
0.0
  3
*D4
  1

  0
LINE
  5
170
330
16F
100
AcDbEntity
  8
1
  6
Continuous
 62
     2
100
AcDbLine
 10
-4.13944020120679
 20
-366.5016578156322
 30
0.0
 11
-4.13944020120679
 21
-334.2422023370501
 31
0.0
  0
LINE
  5
171
330
16F
100
AcDbEntity
  8
1
  6
Continuous
 62
     2
100
AcDbLine
 10
-4.13944020120679
 20
-334.2422023370501
 30
0.0
 11
-4.13944020120679
 21
-331.2422023370501
 31
0.0
  0
LINE
  5
172
330
16F
100
AcDbEntity
  8
1
  6
Continuous
 62
     2
100
AcDbLine
 10
-4.13944020120679
 20
-331.2422023370501
 30
0.0
 11
-4.13944020120679
 21
-324.2422023370501
 31
0.0
  0
LINE
  5
173
330
16F
100
AcDbEntity
  8
1
  6
Continuous
 62
     2
100
AcDbLine
 10
-1.48918314591937
 20
-334.2422023370501
 30
0.0
 11
-6.13944020120679
 21
-334.2422023370501
 31
0.0
  0
LINE
  5
174
330
16F
100
AcDbEntity
  8
1
  6
Continuous
 62
     2
100
AcDbLine
 10
-11.48918314591939
 20
-331.2422023370501
 30
0.0
 11
-2.13944020120679
 21
-331.2422023370501
 31
0.0
  0
SOLID
  5
175
330
16F
100
AcDbEntity
  8
1
 62
     2
100
AcDbTrace
 10
-3.67865645965091
 20
-337.7422023370501
 30
0.0
 11
-4.60022394276268
 21
-337.7422023370501
 31
0.0
 12
-4.13944020120679
 22
-334.2422023370501
 32
0.0
 13
-4.13944020120679
 23
-334.2422023370501
 33
0.0
  0
SOLID
  5
176
330
16F
100
AcDbEntity
  8
1
 62
     2
100
AcDbTrace
 10
-4.60022394276268
 20
-327.7422023370501
 30
0.0
 11
-3.6786564596509
 21
-327.7422023370501
 31
0.0
 12
-4.13944020120679
 22
-331.2422023370501
 32
0.0
 13
-4.13944020120679
 23
-331.2422023370501
 33
0.0
  0
MTEXT
  5
177
330
16F
100
AcDbEntity
  8
1
 62
     2
100
AcDbMText
 10
-6.13944020120679
 20
-365.6266578156322
 30
0.0
 40
3.5
 41
0.0
 71
     7
 72
     1
  1
\C2;3mm (\C2;0.118\C2;``)
  7
CONVERTER_11
 11
0.0
 21
1.0
 31
0.0
 73
     1
 44
0.60024009603842
  0
ENDBLK
  5
179
330
16F
100
AcDbEntity
  8
0
100
AcDbBlockEnd
  0
BLOCK
  5
184
330
17C
100
AcDbEntity
  8
0
100
AcDbBlockBegin
  2
*D5
 70
     1
 10
0.0
 20
0.0
 30
0.0
  3
*D5
  1

  0
LINE
  5
17D
330
17C
100
AcDbEntity
  8
1
  6
Continuous
 62
     2
100
AcDbLine
 10
58.13985735123487
 20
-272.3731903170897
 30
0.0
 11
58.13985735123487
 21
-310.2422023370501
 31
0.0
  0
LINE
  5
17E
330
17C
100
AcDbEntity
  8
1
  6
Continuous
 62
     2
100
AcDbLine
 10
58.13985735123487
 20
-310.2422023370501
 30
0.0
 11
58.13985735123487
 21
-334.2422023370501
 31
0.0
  0
LINE
  5
17F
330
17C
100
AcDbEntity
  8
1
  6
Continuous
 62
     2
100
AcDbLine
 10
15.01081685408072
 20
-310.2422023370501
 30
0.0
 11
60.13985735123487
 21
-310.2422023370501
 31
0.0
  0
LINE
  5
180
330
17C
100
AcDbEntity
  8
1
  6
Continuous
 62
     2
100
AcDbLine
 10
47.01081685408062
 20
-334.2422023370501
 30
0.0
 11
60.13985735123487
 21
-334.2422023370501
 31
0.0
  0
SOLID
  5
181
330
17C
100
AcDbEntity
  8
1
 62
     2
100
AcDbTrace
 10
58.60064109279076
 20
-313.7422023370501
 30
0.0
 11
57.67907360967899
 21
-313.7422023370501
 31
0.0
 12
58.13985735123487
 22
-310.2422023370501
 32
0.0
 13
58.13985735123487
 23
-310.2422023370501
 33
0.0
  0
SOLID
  5
182
330
17C
100
AcDbEntity
  8
1
 62
     2
100
AcDbTrace
 10
57.67907360967899
 20
-330.7422023370501
 30
0.0
 11
58.60064109279076
 21
-330.7422023370501
 31
0.0
 12
58.13985735123487
 22
-334.2422023370501
 32
0.0
 13
58.13985735123487
 23
-334.2422023370501
 33
0.0
  0
MTEXT
  5
183
330
17C
100
AcDbEntity
  8
1
 62
     2
100
AcDbMText
 10
56.13985735123487
 20
-307.0056903170897
 30
0.0
 40
3.5
 41
0.0
 71
     7
 72
     1
  1
\C2;24mm (\C2;0.945\C2;``)
  7
CONVERTER_11
 11
0.0
 21
1.0
 31
0.0
 73
     1
 44
0.60024009603842
  0
ENDBLK
  5
185
330
17C
100
AcDbEntity
  8
0
100
AcDbBlockEnd
  0
BLOCK
  5
191
330
188
100
AcDbEntity
  8
0
100
AcDbBlockBegin
  2
*D6
 70
     1
 10
0.0
 20
0.0
 30
0.0
  3
*D6
  1

  0
LINE
  5
189
330
188
100
AcDbEntity
  8
1
  6
Continuous
 62
     2
100
AcDbLine
 10
15.26355409497651
 20
-323.2422023370501
 30
0.0
 11
15.26355409497651
 21
-330.2422023370501
 31
0.0
  0
LINE
  5
18A
330
188
100
AcDbEntity
  8
1
  6
Continuous
 62
     2
100
AcDbLine
 10
15.26355409497651
 20
-330.2422023370501
 30
0.0
 11
15.26355409497651
 21
-334.2422023370501
 31
0.0
  0
LINE
  5
18B
330
188
100
AcDbEntity
  8
1
  6
Continuous
 62
     2
100
AcDbLine
 10
15.26355409497651
 20
-334.2422023370501
 30
0.0
 11
15.26355409497651
 21
-369.0266578156322
 31
0.0
  0
LINE
  5
18C
330
188
100
AcDbEntity
  8
1
  6
Continuous
 62
     2
100
AcDbLine
 10
12.0108168540804
 20
-330.2422023370501
 30
0.0
 11
17.26355409497651
 21
-330.2422023370501
 31
0.0
  0
LINE
  5
18D
330
188
100
AcDbEntity
  8
1
  6
Continuous
 62
     2
100
AcDbLine
 10
2.01081685408041
 20
-334.2422023370501
 30
0.0
 11
17.26355409497651
 21
-334.2422023370501
 31
0.0
  0
SOLID
  5
18E
330
188
100
AcDbEntity
  8
1
 62
     2
100
AcDbTrace
 10
14.80277035342062
 20
-326.7422023370501
 30
0.0
 11
15.7243378365324
 21
-326.7422023370501
 31
0.0
 12
15.26355409497651
 22
-330.2422023370501
 32
0.0
 13
15.26355409497651
 23
-330.2422023370501
 33
0.0
  0
SOLID
  5
18F
330
188
100
AcDbEntity
  8
1
 62
     2
100
AcDbTrace
 10
15.72433783653239
 20
-337.7422023370501
 30
0.0
 11
14.80277035342062
 21
-337.7422023370501
 31
0.0
 12
15.26355409497651
 22
-334.2422023370501
 32
0.0
 13
15.26355409497651
 23
-334.2422023370501
 33
0.0
  0
MTEXT
  5
190
330
188
100
AcDbEntity
  8
1
 62
     2
100
AcDbMText
 10
13.26355409497651
 20
-368.1516578156322
 30
0.0
 40
3.5
 41
0.0
 71
     7
 72
     1
  1
\C2;4mm (\C2;0.157\C2;``)
  7
CONVERTER_11
 11
0.0
 21
1.0
 31
0.0
 73
     1
 44
0.60024009603842
  0
ENDBLK
  5
192
330
188
100
AcDbEntity
  8
0
100
AcDbBlockEnd
  0
BLOCK
  5
19E
330
195
100
AcDbEntity
  8
0
100
AcDbBlockBegin
  2
*D7
 70
     1
 10
0.0
 20
0.0
 30
0.0
  3
*D7
  1

  0
LINE
  5
196
330
195
100
AcDbEntity
  8
1
  6
Continuous
 62
     2
100
AcDbLine
 10
-103.1777554704675
 20
-384.8276584771145
 30
0.0
 11
-127.1808607282048
 21
-384.8276584771145
 31
0.0
  0
LINE
  5
197
330
195
100
AcDbEntity
  8
1
  6
Continuous
 62
     2
100
AcDbLine
 10
-127.1808607282048
 20
-384.8276584771145
 30
0.0
 11
-167.2457210166618
 21
-384.8276584771145
 31
0.0
  0
LINE
  5
198
330
195
100
AcDbEntity
  8
1
  6
Continuous
 62
     2
100
AcDbLine
 10
-103.1777554704675
 20
-339.6676622744756
 30
0.0
 11
-103.1777554704675
 21
-386.8276584771145
 31
0.0
  0
LINE
  5
199
330
195
100
AcDbEntity
  8
1
  6
Continuous
 62
     2
100
AcDbLine
 10
-127.1808607282048
 20
-378.4618782722939
 30
0.0
 11
-127.1808607282048
 21
-386.8276584771145
 31
0.0
  0
LINE
  5
19A
330
195
100
AcDbEntity
  8
1
  6
Continuous
 62
     2
100
AcDbLine
 10
-127.1808607282048
 20
-328.1676622744755
 30
0.0
 11
-127.1808607282048
 21
-371.2181519266539
 31
0.0
  0
SOLID
  5
19B
330
195
100
AcDbEntity
  8
1
 62
     2
100
AcDbTrace
 10
-106.6777554704675
 20
-385.2884422186704
 30
0.0
 11
-106.6777554704675
 21
-384.3668747355586
 31
0.0
 12
-103.1777554704675
 22
-384.8276584771145
 32
0.0
 13
-103.1777554704675
 23
-384.8276584771145
 33
0.0
  0
SOLID
  5
19C
330
195
100
AcDbEntity
  8
1
 62
     2
100
AcDbTrace
 10
-123.6808607282048
 20
-384.3668747355586
 30
0.0
 11
-123.6808607282048
 21
-385.2884422186704
 31
0.0
 12
-127.1808607282048
 22
-384.8276584771145
 32
0.0
 13
-127.1808607282048
 23
-384.8276584771145
 33
0.0
  0
MTEXT
  5
19D
330
195
100
AcDbEntity
  8
1
 62
     2
100
AcDbMText
 10
-166.0907210166112
 20
-382.8277002195724
 30
0.0
 40
3.5
 41
0.0
 71
     7
 72
     1
  1
\C2;24mm (\C2;0.945\C2;``)
  7
CONVERTER_11
 11
0.9999999999970619
 21
2.424068405545306E-6
 31
0.0
 73
     1
 44
0.60024009603842
  0
ENDBLK
  5
19F
330
195
100
AcDbEntity
  8
0
100
AcDbBlockEnd
  0
BLOCK
  5
1AA
330
1A2
100
AcDbEntity
  8
0
100
AcDbBlockBegin
  2
*D8
 70
     1
 10
0.0
 20
0.0
 30
0.0
  3
*D8
  1

  0
LINE
  5
1A3
330
1A2
100
AcDbEntity
  8
1
  6
Continuous
 62
     2
100
AcDbLine
 10
-194.48527513002
 20
-385.1202471270244
 30
0.0
 11
-215.48527513002
 21
-385.1202471270244
 31
0.0
  0
LINE
  5
1A4
330
1A2
100
AcDbEntity
  8
1
  6
Continuous
 62
     2
100
AcDbLine
 10
-215.48527513002
 20
-385.1202471270244
 30
0.0
 11
-251.5899610363949
 21
-385.1202471270244
 31
0.0
  0
LINE
  5
1A5
330
1A2
100
AcDbEntity
  8
1
  6
Continuous
 62
     2
100
AcDbLine
 10
-194.48527513002
 20
-329.1676622744756
 30
0.0
 11
-194.48527513002
 21
-387.1202471270244
 31
0.0
  0
LINE
  5
1A6
330
1A2
100
AcDbEntity
  8
1
  6
Continuous
 62
     2
100
AcDbLine
 10
-215.48527513002
 20
-329.1676622744756
 30
0.0
 11
-215.48527513002
 21
-387.1202471270244
 31
0.0
  0
SOLID
  5
1A7
330
1A2
100
AcDbEntity
  8
1
 62
     2
100
AcDbTrace
 10
-197.98527513002
 20
-385.5810308685803
 30
0.0
 11
-197.98527513002
 21
-384.6594633854685
 31
0.0
 12
-194.48527513002
 22
-385.1202471270244
 32
0.0
 13
-194.48527513002
 23
-385.1202471270244
 33
0.0
  0
SOLID
  5
1A8
330
1A2
100
AcDbEntity
  8
1
 62
     2
100
AcDbTrace
 10
-211.98527513002
 20
-384.6594633854685
 30
0.0
 11
-211.98527513002
 21
-385.5810308685803
 31
0.0
 12
-215.48527513002
 22
-385.1202471270244
 32
0.0
 13
-215.48527513002
 23
-385.1202471270244
 33
0.0
  0
MTEXT
  5
1A9
330
1A2
100
AcDbEntity
  8
1
 62
     2
100
AcDbMText
 10
-251.4849610363443
 20
-383.1202888694824
 30
0.0
 40
3.5
 41
0.0
 71
     7
 72
     1
  1
\C2;21mm (\C2;0.827\C2;``)
  7
CONVERTER_11
 11
0.9999999999970619
 21
2.424068405545306E-6
 31
0.0
 73
     1
 44
0.60024009603842
  0
ENDBLK
  5
1AB
330
1A2
100
AcDbEntity
  8
0
100
AcDbBlockEnd
  0
BLOCK
  5
1B6
330
1AE
100
AcDbEntity
  8
0
100
AcDbBlockBegin
  2
*D9
 70
     1
 10
0.0
 20
0.0
 30
0.0
  3
*D9
  1

  0
LINE
  5
1AF
330
1AE
100
AcDbEntity
  8
1
  6
Continuous
 62
     2
100
AcDbLine
 10
-252.8962741219834
 20
-239.1253875596915
 30
0.0
 11
-212.48527513002
 21
-239.1253875596915
 31
0.0
  0
LINE
  5
1B0
330
1AE
100
AcDbEntity
  8
1
  6
Continuous
 62
     2
100
AcDbLine
 10
-212.48527513002
 20
-239.1253875596915
 30
0.0
 11
-194.48527513002
 21
-239.1253875596915
 31
0.0
  0
LINE
  5
1B1
330
1AE
100
AcDbEntity
  8
1
  6
Continuous
 62
     2
100
AcDbLine
 10
-212.48527513002
 20
-205.1676622744756
 30
0.0
 11
-212.48527513002
 21
-241.1253875596915
 31
0.0
  0
LINE
  5
1B2
330
1AE
100
AcDbEntity
  8
1
  6
Continuous
 62
     2
100
AcDbLine
 10
-194.48527513002
 20
-195.1676622744755
 30
0.0
 11
-194.48527513002
 21
-241.1253875596915
 31
0.0
  0
SOLID
  5
1B3
330
1AE
100
AcDbEntity
  8
1
 62
     2
100
AcDbTrace
 10
-208.98527513002
 20
-238.6646038181356
 30
0.0
 11
-208.98527513002
 21
-239.5861713012474
 31
0.0
 12
-212.48527513002
 22
-239.1253875596915
 32
0.0
 13
-212.48527513002
 23
-239.1253875596915
 33
0.0
  0
SOLID
  5
1B4
330
1AE
100
AcDbEntity
  8
1
 62
     2
100
AcDbTrace
 10
-197.98527513002
 20
-239.5861713012474
 30
0.0
 11
-197.98527513002
 21
-238.6646038181356
 31
0.0
 12
-194.48527513002
 22
-239.1253875596915
 32
0.0
 13
-194.48527513002
 23
-239.1253875596915
 33
0.0
  0
MTEXT
  5
1B5
330
1AE
100
AcDbEntity
  8
1
 62
     2
100
AcDbMText
 10
-252.7212741219412
 20
-237.1254223450731
 30
0.0
 40
3.5
 41
0.0
 71
     7
 72
     1
  1
\C2;18mm(\C2;0.709\C2;``)
  7
CONVERTER_11
 11
0.9999999999970619
 21
2.424068405545306E-6
 31
0.0
 73
     1
 44
0.60024009603842
  0
ENDBLK
  5
1B7
330
1AE
100
AcDbEntity
  8
0
100
AcDbBlockEnd
  0
BLOCK
  5
1C1
330
1BA
100
AcDbEntity
  8
0
100
AcDbBlockBegin
  2
*D10
 70
     1
 10
0.0
 20
0.0
 30
0.0
  3
*D10
  1

  0
LINE
  5
1BB
330
1BA
100
AcDbEntity
  8
1
  6
Continuous
 62
     2
100
AcDbLine
 10
-153.2636943847242
 20
-184.6676622744755
 30
0.0
 11
-153.2636943847242
 21
-339.6676622744755
 31
0.0
  0
LINE
  5
1BC
330
1BA
100
AcDbEntity
  8
1
  6
Continuous
 62
     2
100
AcDbLine
 10
-204.98527513002
 20
-184.6676622744755
 30
0.0
 11
-151.2636943847242
 21
-184.6676622744755
 31
0.0
  0
LINE
  5
1BD
330
1BA
100
AcDbEntity
  8
1
  6
Continuous
 62
     2
100
AcDbLine
 10
-204.98527513002
 20
-339.6676622744755
 30
0.0
 11
-151.2636943847242
 21
-339.6676622744755
 31
0.0
  0
SOLID
  5
1BE
330
1BA
100
AcDbEntity
  8
1
 62
     2
100
AcDbTrace
 10
-152.8029106431683
 20
-188.1676622744755
 30
0.0
 11
-153.7244781262801
 21
-188.1676622744755
 31
0.0
 12
-153.2636943847242
 22
-184.6676622744755
 32
0.0
 13
-153.2636943847242
 23
-184.6676622744755
 33
0.0
  0
SOLID
  5
1BF
330
1BA
100
AcDbEntity
  8
1
 62
     2
100
AcDbTrace
 10
-153.7244781262801
 20
-336.1676622744755
 30
0.0
 11
-152.8029106431683
 21
-336.1676622744755
 31
0.0
 12
-153.2636943847242
 22
-339.6676622744755
 32
0.0
 13
-153.2636943847242
 23
-339.6676622744755
 33
0.0
  0
MTEXT
  5
1C0
330
1BA
100
AcDbEntity
  8
1
 62
     2
100
AcDbMText
 10
-155.2636943847242
 20
-278.7581500601448
 30
0.0
 40
3.5
 41
0.0
 71
     7
 72
     1
  1
\C2;155mm (\C2;6.102\C2;``)
  7
CONVERTER_11
 11
0.0
 21
1.0
 31
0.0
 73
     1
 44
0.60024009603842
  0
ENDBLK
  5
1C2
330
1BA
100
AcDbEntity
  8
0
100
AcDbBlockEnd
  0
BLOCK
  5
1CC
330
1C5
100
AcDbEntity
  8
0
100
AcDbBlockBegin
  2
*D11
 70
     1
 10
0.0
 20
0.0
 30
0.0
  3
*D11
  1

  0
LINE
  5
1C6
330
1C5
100
AcDbEntity
  8
1
  6
Continuous
 62
     2
100
AcDbLine
 10
-170.6384259326852
 20
-196.1676622744755
 30
0.0
 11
-170.6384259326852
 21
-328.1676622744756
 31
0.0
  0
LINE
  5
1C7
330
1C5
100
AcDbEntity
  8
1
  6
Continuous
 62
     2
100
AcDbLine
 10
-203.48527513002
 20
-196.1676622744755
 30
0.0
 11
-168.6384259326852
 21
-196.1676622744755
 31
0.0
  0
LINE
  5
1C8
330
1C5
100
AcDbEntity
  8
1
  6
Continuous
 62
     2
100
AcDbLine
 10
-203.48527513002
 20
-328.1676622744756
 30
0.0
 11
-168.6384259326852
 21
-328.1676622744756
 31
0.0
  0
SOLID
  5
1C9
330
1C5
100
AcDbEntity
  8
1
 62
     2
100
AcDbTrace
 10
-170.1776421911293
 20
-199.6676622744755
 30
0.0
 11
-171.0992096742411
 21
-199.6676622744755
 31
0.0
 12
-170.6384259326852
 22
-196.1676622744755
 32
0.0
 13
-170.6384259326852
 23
-196.1676622744755
 33
0.0
  0
SOLID
  5
1CA
330
1C5
100
AcDbEntity
  8
1
 62
     2
100
AcDbTrace
 10
-171.0992096742411
 20
-324.6676622744756
 30
0.0
 11
-170.1776421911293
 21
-324.6676622744756
 31
0.0
 12
-170.6384259326852
 22
-328.1676622744756
 32
0.0
 13
-170.6384259326852
 23
-328.1676622744756
 33
0.0
  0
MTEXT
  5
1CB
330
1C5
100
AcDbEntity
  8
1
 62
     2
100
AcDbMText
 10
-172.6384259326852
 20
-280.9530049305681
 30
0.0
 40
3.5
 41
0.0
 71
     7
 72
     1
  1
\C2;132mm (\C2;5.197\C2;``)
  7
CONVERTER_11
 11
0.0
 21
1.0
 31
0.0
 73
     1
 44
0.60024009603842
  0
ENDBLK
  5
1CD
330
1C5
100
AcDbEntity
  8
0
100
AcDbBlockEnd
  0
BLOCK
  5
1D9
330
1D0
100
AcDbEntity
  8
0
100
AcDbBlockBegin
  2
*D12
 70
     1
 10
0.0
 20
0.0
 30
0.0
  3
*D12
  1

  0
LINE
  5
1D1
330
1D0
100
AcDbEntity
  8
1
  6
Continuous
 62
     2
100
AcDbLine
 10
-250.2639838305492
 20
-375.1794876428899
 30
0.0
 11
-218.48527513002
 21
-375.1794876428899
 31
0.0
  0
LINE
  5
1D2
330
1D0
100
AcDbEntity
  8
1
  6
Continuous
 62
     2
100
AcDbLine
 10
-218.48527513002
 20
-375.1794876428899
 30
0.0
 11
-215.48527513002
 21
-375.1794876428899
 31
0.0
  0
LINE
  5
1D3
330
1D0
100
AcDbEntity
  8
1
  6
Continuous
 62
     2
100
AcDbLine
 10
-215.48527513002
 20
-375.1794876428899
 30
0.0
 11
-208.48527513002
 21
-375.1794876428899
 31
0.0
  0
LINE
  5
1D4
330
1D0
100
AcDbEntity
  8
1
  6
Continuous
 62
     2
100
AcDbLine
 10
-218.48527513002
 20
-362.1676622744756
 30
0.0
 11
-218.48527513002
 21
-377.1794876428899
 31
0.0
  0
LINE
  5
1D5
330
1D0
100
AcDbEntity
  8
1
  6
Continuous
 62
     2
100
AcDbLine
 10
-215.48527513002
 20
-329.1676622744756
 30
0.0
 11
-215.48527513002
 21
-377.1794876428899
 31
0.0
  0
SOLID
  5
1D6
330
1D0
100
AcDbEntity
  8
1
 62
     2
100
AcDbTrace
 10
-221.98527513002
 20
-375.6402713844458
 30
0.0
 11
-221.98527513002
 21
-374.718703901334
 31
0.0
 12
-218.48527513002
 22
-375.1794876428899
 32
0.0
 13
-218.48527513002
 23
-375.1794876428899
 33
0.0
  0
SOLID
  5
1D7
330
1D0
100
AcDbEntity
  8
1
 62
     2
100
AcDbTrace
 10
-211.98527513002
 20
-374.718703901334
 30
0.0
 11
-211.98527513002
 21
-375.6402713844458
 31
0.0
 12
-215.48527513002
 22
-375.1794876428899
 32
0.0
 13
-215.48527513002
 23
-375.1794876428899
 33
0.0
  0
MTEXT
  5
1D8
330
1D0
100
AcDbEntity
  8
1
 62
     2
100
AcDbMText
 10
-249.388983830507
 20
-373.1795224282715
 30
0.0
 40
3.5
 41
0.0
 71
     7
 72
     1
  1
\C2;3mm (\C2;0.118\C2;``)
  7
CONVERTER_11
 11
0.9999999999970619
 21
2.424068405545306E-6
 31
0.0
 73
     1
 44
0.60024009603842
  0
ENDBLK
  5
1DA
330
1D0
100
AcDbEntity
  8
0
100
AcDbBlockEnd
  0
BLOCK
  5
1E4
330
1DD
100
AcDbEntity
  8
0
100
AcDbBlockBegin
  2
*D13
 70
     1
 10
0.0
 20
0.0
 30
0.0
  3
*D13
  1

  0
LINE
  5
1DE
330
1DD
100
AcDbEntity
  8
1
  6
Continuous
 62
     2
100
AcDbLine
 10
197.2449417384247
 20
-191.1676622744756
 30
0.0
 11
197.2449417384247
 21
-333.1676622744756
 31
0.0
  0
LINE
  5
1DF
330
1DD
100
AcDbEntity
  8
1
  6
Continuous
 62
     2
100
AcDbLine
 10
163.8047908136769
 20
-191.1676622744756
 30
0.0
 11
199.2449417384247
 21
-191.1676622744756
 31
0.0
  0
LINE
  5
1E0
330
1DD
100
AcDbEntity
  8
1
  6
Continuous
 62
     2
100
AcDbLine
 10
163.8047908136769
 20
-333.1676622744756
 30
0.0
 11
199.2449417384247
 21
-333.1676622744756
 31
0.0
  0
SOLID
  5
1E1
330
1DD
100
AcDbEntity
  8
1
 62
     2
100
AcDbTrace
 10
197.7057254799806
 20
-194.6676622744756
 30
0.0
 11
196.7841579968688
 21
-194.6676622744756
 31
0.0
 12
197.2449417384247
 22
-191.1676622744756
 32
0.0
 13
197.2449417384247
 23
-191.1676622744756
 33
0.0
  0
SOLID
  5
1E2
330
1DD
100
AcDbEntity
  8
1
 62
     2
100
AcDbTrace
 10
196.7841579968688
 20
-329.6676622744756
 30
0.0
 11
197.7057254799806
 21
-329.6676622744756
 31
0.0
 12
197.2449417384247
 22
-333.1676622744756
 32
0.0
 13
197.2449417384247
 23
-333.1676622744756
 33
0.0
  0
MTEXT
  5
1E3
330
1DD
100
AcDbEntity
  8
1
 62
     2
100
AcDbMText
 10
195.2449417384247
 20
-282.2041258177889
 30
0.0
 40
3.5
 41
0.0
 71
     7
 72
     1
  1
\C2;142mm (\C2;5.591\C2;``)
  7
CONVERTER_11
 11
0.0
 21
1.0
 31
0.0
 73
     1
 44
0.60024009603842
  0
ENDBLK
  5
1E5
330
1DD
100
AcDbEntity
  8
0
100
AcDbBlockEnd
  0
BLOCK
  5
1F0
330
1E8
100
AcDbEntity
  8
0
100
AcDbBlockBegin
  2
*D14
 70
     1
 10
0.0
 20
0.0
 30
0.0
  3
*D14
  1

  0
LINE
  5
1E9
330
1E8
100
AcDbEntity
  8
1
  6
Continuous
 62
     2
100
AcDbLine
 10
69.47992205542273
 20
-378.1672227943489
 30
0.0
 11
96.47992205542273
 21
-378.1672227943489
 31
0.0
  0
LINE
  5
1EA
330
1E8
100
AcDbEntity
  8
1
  6
Continuous
 62
     2
100
AcDbLine
 10
26.65368405597436
 20
-378.1672227943489
 30
0.0
 11
69.47992205542273
 21
-378.1672227943489
 31
0.0
  0
LINE
  5
1EB
330
1E8
100
AcDbEntity
  8
1
  6
Continuous
 62
     2
100
AcDbLine
 10
96.47992205542273
 20
-322.1676622744756
 30
0.0
 11
96.47992205542273
 21
-380.1672227943489
 31
0.0
  0
LINE
  5
1EC
330
1E8
100
AcDbEntity
  8
1
  6
Continuous
 62
     2
100
AcDbLine
 10
69.47992205542273
 20
-339.6676622744756
 30
0.0
 11
69.47992205542273
 21
-380.1672227943489
 31
0.0
  0
SOLID
  5
1ED
330
1E8
100
AcDbEntity
  8
1
 62
     2
100
AcDbTrace
 10
72.97992205542273
 20
-377.706439052793
 30
0.0
 11
72.97992205542273
 21
-378.6280065359048
 31
0.0
 12
69.47992205542273
 22
-378.1672227943489
 32
0.0
 13
69.47992205542273
 23
-378.1672227943489
 33
0.0
  0
SOLID
  5
1EE
330
1E8
100
AcDbEntity
  8
1
 62
     2
100
AcDbTrace
 10
92.97992205542273
 20
-378.6280065359048
 30
0.0
 11
92.97992205542273
 21
-377.706439052793
 31
0.0
 12
96.47992205542273
 22
-378.1672227943489
 32
0.0
 13
96.47992205542273
 23
-378.1672227943489
 33
0.0
  0
MTEXT
  5
1EF
330
1E8
100
AcDbEntity
  8
1
 62
     2
100
AcDbMText
 10
27.80868405602493
 20
-376.1672645368068
 30
0.0
 40
3.5
 41
0.0
 71
     7
 72
     1
  1
\C2;27mm (\C2;1.063\C2;``)
  7
CONVERTER_11
 11
0.9999999999970619
 21
2.424068405545306E-6
 31
0.0
 73
     1
 44
0.60024009603842
  0
ENDBLK
  5
1F1
330
1E8
100
AcDbEntity
  8
0
100
AcDbBlockEnd
  0
BLOCK
  5
1FC
330
1F4
100
AcDbEntity
  8
0
100
AcDbBlockBegin
  2
*D15
 70
     1
 10
0.0
 20
0.0
 30
0.0
  3
*D15
  1

  0
LINE
  5
1F5
330
1F4
100
AcDbEntity
  8
1
  6
Continuous
 62
     2
100
AcDbLine
 10
69.47992205542275
 20
-366.3299323814319
 30
0.0
 11
30.59268371941297
 21
-366.3299323814319
 31
0.0
  0
LINE
  5
1F6
330
1F4
100
AcDbEntity
  8
1
  6
Continuous
 62
     2
100
AcDbLine
 10
79.47992205542275
 20
-366.3299323814319
 30
0.0
 11
69.47992205542275
 21
-366.3299323814319
 31
0.0
  0
LINE
  5
1F7
330
1F4
100
AcDbEntity
  8
1
  6
Continuous
 62
     2
100
AcDbLine
 10
69.47992205542275
 20
-357.1676622744756
 30
0.0
 11
69.47992205542275
 21
-368.3299323814319
 31
0.0
  0
LINE
  5
1F8
330
1F4
100
AcDbEntity
  8
1
  6
Continuous
 62
     2
100
AcDbLine
 10
79.47992205542275
 20
-339.6676622744755
 30
0.0
 11
79.47992205542275
 21
-368.3299323814319
 31
0.0
  0
SOLID
  5
1F9
330
1F4
100
AcDbEntity
  8
1
 62
     2
100
AcDbTrace
 10
75.97992205542275
 20
-366.7907161229878
 30
0.0
 11
75.97992205542275
 21
-365.869148639876
 31
0.0
 12
79.47992205542275
 22
-366.3299323814319
 32
0.0
 13
79.47992205542275
 23
-366.3299323814319
 33
0.0
  0
SOLID
  5
1FA
330
1F4
100
AcDbEntity
  8
1
 62
     2
100
AcDbTrace
 10
72.97992205542275
 20
-365.869148639876
 30
0.0
 11
72.97992205542275
 21
-366.7907161229878
 31
0.0
 12
69.47992205542275
 22
-366.3299323814319
 32
0.0
 13
69.47992205542275
 23
-366.3299323814319
 33
0.0
  0
MTEXT
  5
1FB
330
1F4
100
AcDbEntity
  8
1
 62
     2
100
AcDbMText
 10
30.69768371946354
 20
-364.3299741238898
 30
0.0
 40
3.5
 41
0.0
 71
     7
 72
     1
  1
\C2;10mm (\C2;0.394\C2;``)
  7
CONVERTER_11
 11
0.9999999999970619
 21
2.424068405545306E-6
 31
0.0
 73
     1
 44
0.60024009603842
  0
ENDBLK
  5
1FD
330
1F4
100
AcDbEntity
  8
0
100
AcDbBlockEnd
  0
BLOCK
  5
207
330
200
100
AcDbEntity
  8
0
100
AcDbBlockBegin
  2
*D16
 70
     1
 10
0.0
 20
0.0
 30
0.0
  3
*D16
  1

  0
LINE
  5
201
330
200
100
AcDbEntity
  8
1
  6
Continuous
 62
     2
100
AcDbLine
 10
188.6261072014397
 20
-202.1676622744756
 30
0.0
 11
188.6261072014397
 21
-322.1676622744756
 31
0.0
  0
LINE
  5
202
330
200
100
AcDbEntity
  8
1
  6
Continuous
 62
     2
100
AcDbLine
 10
165.054790813677
 20
-202.1676622744756
 30
0.0
 11
190.6261072014397
 21
-202.1676622744756
 31
0.0
  0
LINE
  5
203
330
200
100
AcDbEntity
  8
1
  6
Continuous
 62
     2
100
AcDbLine
 10
165.054790813677
 20
-322.1676622744756
 30
0.0
 11
190.6261072014397
 21
-322.1676622744756
 31
0.0
  0
SOLID
  5
204
330
200
100
AcDbEntity
  8
1
 62
     2
100
AcDbTrace
 10
189.0868909429956
 20
-205.6676622744756
 30
0.0
 11
188.1653234598838
 21
-205.6676622744756
 31
0.0
 12
188.6261072014397
 22
-202.1676622744756
 32
0.0
 13
188.6261072014397
 23
-202.1676622744756
 33
0.0
  0
SOLID
  5
205
330
200
100
AcDbEntity
  8
1
 62
     2
100
AcDbTrace
 10
188.1653234598838
 20
-318.6676622744756
 30
0.0
 11
189.0868909429956
 21
-318.6676622744756
 31
0.0
 12
188.6261072014397
 22
-322.1676622744756
 32
0.0
 13
188.6261072014397
 23
-322.1676622744756
 33
0.0
  0
MTEXT
  5
206
330
200
100
AcDbEntity
  8
1
 62
     2
100
AcDbMText
 10
186.6261072014397
 20
-282.4991420040404
 30
0.0
 40
3.5
 41
0.0
 71
     7
 72
     1
  1
\C2;120mm (\C2;4.724\C2;``)
  7
CONVERTER_11
 11
0.0
 21
1.0
 31
0.0
 73
     1
 44
0.60024009603842
  0
ENDBLK
  5
208
330
200
100
AcDbEntity
  8
0
100
AcDbBlockEnd
  0
BLOCK
  5
212
330
20B
100
AcDbEntity
  8
0
100
AcDbBlockBegin
  2
*D17
 70
     1
 10
0.0
 20
0.0
 30
0.0
  3
*D17
  1

  0
LINE
  5
20C
330
20B
100
AcDbEntity
  8
1
  6
Continuous
 62
     2
100
AcDbLine
 10
207.0206858816766
 20
-339.6676622744756
 30
0.0
 11
207.0206858816766
 21
-184.6676622744756
 31
0.0
  0
LINE
  5
20D
330
20B
100
AcDbEntity
  8
1
  6
Continuous
 62
     2
100
AcDbLine
 10
166.0547908136768
 20
-339.6676622744756
 30
0.0
 11
209.0206858816766
 21
-339.6676622744756
 31
0.0
  0
LINE
  5
20E
330
20B
100
AcDbEntity
  8
1
  6
Continuous
 62
     2
100
AcDbLine
 10
166.0547908136768
 20
-184.6676622744756
 30
0.0
 11
209.0206858816766
 21
-184.6676622744756
 31
0.0
  0
SOLID
  5
20F
330
20B
100
AcDbEntity
  8
1
 62
     2
100
AcDbTrace
 10
206.5599021401207
 20
-336.1676622744756
 30
0.0
 11
207.4814696232325
 21
-336.1676622744756
 31
0.0
 12
207.0206858816766
 22
-339.6676622744756
 32
0.0
 13
207.0206858816766
 23
-339.6676622744756
 33
0.0
  0
SOLID
  5
210
330
20B
100
AcDbEntity
  8
1
 62
     2
100
AcDbTrace
 10
207.4814696232325
 20
-188.1676622744756
 30
0.0
 11
206.5599021401207
 21
-188.1676622744756
 31
0.0
 12
207.0206858816766
 22
-184.6676622744756
 32
0.0
 13
207.0206858816766
 23
-184.6676622744756
 33
0.0
  0
MTEXT
  5
211
330
20B
100
AcDbEntity
  8
1
 62
     2
100
AcDbMText
 10
205.0206858816766
 20
-279.3256239598139
 30
0.0
 40
3.5
 41
0.0
 71
     7
 72
     1
  1
\C2;155mm (\C2;6.102\C2;``)
  7
CONVERTER_11
 11
0.0
 21
1.0
 31
0.0
 73
     1
 44
0.60024009603842
  0
ENDBLK
  5
213
330
20B
100
AcDbEntity
  8
0
100
AcDbBlockEnd
  0
BLOCK
  5
21E
330
216
100
AcDbEntity
  8
0
100
AcDbBlockBegin
  2
*D18
 70
     1
 10
0.0
 20
0.0
 30
0.0
  3
*D18
  1

  0
LINE
  5
217
330
216
100
AcDbEntity
  8
1
  6
Continuous
 62
     2
100
AcDbLine
 10
157.0547908136769
 20
-235.2394441186645
 30
0.0
 11
119.1895215769994
 21
-235.2394441186645
 31
0.0
  0
LINE
  5
218
330
216
100
AcDbEntity
  8
1
  6
Continuous
 62
     2
100
AcDbLine
 10
173.0547908136769
 20
-235.2394441186645
 30
0.0
 11
157.0547908136769
 21
-235.2394441186645
 31
0.0
  0
LINE
  5
219
330
216
100
AcDbEntity
  8
1
  6
Continuous
 62
     2
100
AcDbLine
 10
157.0547908136769
 20
-262.1676622744756
 30
0.0
 11
157.0547908136769
 21
-233.2394441186645
 31
0.0
  0
LINE
  5
21A
330
216
100
AcDbEntity
  8
1
  6
Continuous
 62
     2
100
AcDbLine
 10
173.0547908136769
 20
-314.1676622744756
 30
0.0
 11
173.0547908136769
 21
-233.2394441186645
 31
0.0
  0
SOLID
  5
21B
330
216
100
AcDbEntity
  8
1
 62
     2
100
AcDbTrace
 10
169.5547908136769
 20
-235.7002278602204
 30
0.0
 11
169.5547908136769
 21
-234.7786603771086
 31
0.0
 12
173.0547908136769
 22
-235.2394441186645
 32
0.0
 13
173.0547908136769
 23
-235.2394441186645
 33
0.0
  0
SOLID
  5
21C
330
216
100
AcDbEntity
  8
1
 62
     2
100
AcDbTrace
 10
160.5547908136769
 20
-234.7786603771086
 30
0.0
 11
160.5547908136769
 21
-235.7002278602204
 31
0.0
 12
157.0547908136769
 22
-235.2394441186645
 32
0.0
 13
157.0547908136769
 23
-235.2394441186645
 33
0.0
  0
MTEXT
  5
21D
330
216
100
AcDbEntity
  8
1
 62
     2
100
AcDbMText
 10
119.29452157705
 20
-233.2394858611224
 30
0.0
 40
3.5
 41
0.0
 71
     7
 72
     1
  1
\C2;16mm (\C2;0.630\C2;``)
  7
CONVERTER_11
 11
0.9999999999970619
 21
2.424068405545306E-6
 31
0.0
 73
     1
 44
0.60024009603842
  0
ENDBLK
  5
21F
330
216
100
AcDbEntity
  8
0
100
AcDbBlockEnd
  0
BLOCK
  5
22A
330
222
100
AcDbEntity
  8
0
100
AcDbBlockBegin
  2
*D19
 70
     1
 10
0.0
 20
0.0
 30
0.0
  3
*D19
  1

  0
LINE
  5
223
330
222
100
AcDbEntity
  8
1
  6
Continuous
 62
     2
100
AcDbLine
 10
215.1158087712946
 20
-383.3258467106529
 30
0.0
 11
175.0547908136769
 21
-383.3258467106529
 31
0.0
  0
LINE
  5
224
330
222
100
AcDbEntity
  8
1
  6
Continuous
 62
     2
100
AcDbLine
 10
175.0547908136769
 20
-383.3258467106529
 30
0.0
 11
157.0547908136769
 21
-383.3258467106529
 31
0.0
  0
LINE
  5
225
330
222
100
AcDbEntity
  8
1
  6
Continuous
 62
     2
100
AcDbLine
 10
175.0547908136769
 20
-330.6676622744756
 30
0.0
 11
175.0547908136769
 21
-385.3258467106529
 31
0.0
  0
LINE
  5
226
330
222
100
AcDbEntity
  8
1
  6
Continuous
 62
     2
100
AcDbLine
 10
157.0547908136769
 20
-330.6676622744756
 30
0.0
 11
157.0547908136769
 21
-385.3258467106529
 31
0.0
  0
SOLID
  5
227
330
222
100
AcDbEntity
  8
1
 62
     2
100
AcDbTrace
 10
171.5547908136769
 20
-383.7866304522088
 30
0.0
 11
171.5547908136769
 21
-382.865062969097
 31
0.0
 12
175.0547908136769
 22
-383.3258467106529
 32
0.0
 13
175.0547908136769
 23
-383.3258467106529
 33
0.0
  0
SOLID
  5
228
330
222
100
AcDbEntity
  8
1
 62
     2
100
AcDbTrace
 10
160.5547908136769
 20
-382.865062969097
 30
0.0
 11
160.5547908136769
 21
-383.7866304522088
 31
0.0
 12
157.0547908136769
 22
-383.3258467106529
 32
0.0
 13
157.0547908136769
 23
-383.3258467106529
 33
0.0
  0
MTEXT
  5
229
330
222
100
AcDbEntity
  8
1
 62
     2
100
AcDbMText
 10
180.4833087713452
 20
-381.3258884531108
 30
0.0
 40
3.5
 41
0.0
 71
     7
 72
     1
  1
\C2;18mm (\C2;0.709\C2;``)
  7
CONVERTER_11
 11
0.9999999999970619
 21
2.424068405545306E-6
 31
0.0
 73
     1
 44
0.60024009603842
  0
ENDBLK
  5
22B
330
222
100
AcDbEntity
  8
0
100
AcDbBlockEnd
  0
BLOCK
  5
237
330
22E
100
AcDbEntity
  8
0
100
AcDbBlockBegin
  2
*D20
 70
     1
 10
0.0
 20
0.0
 30
0.0
  3
*D20
  1

  0
LINE
  5
22F
330
22E
100
AcDbEntity
  8
1
  6
Continuous
 62
     2
100
AcDbLine
 10
214.2404795056777
 20
-368.3258467106529
 30
0.0
 11
179.0547908136769
 21
-368.3258467106529
 31
0.0
  0
LINE
  5
230
330
22E
100
AcDbEntity
  8
1
  6
Continuous
 62
     2
100
AcDbLine
 10
179.0547908136769
 20
-368.3258467106529
 30
0.0
 11
175.0547908136769
 21
-368.3258467106529
 31
0.0
  0
LINE
  5
231
330
22E
100
AcDbEntity
  8
1
  6
Continuous
 62
     2
100
AcDbLine
 10
175.0547908136769
 20
-368.3258467106529
 30
0.0
 11
168.0547908136769
 21
-368.3258467106529
 31
0.0
  0
LINE
  5
232
330
22E
100
AcDbEntity
  8
1
  6
Continuous
 62
     2
100
AcDbLine
 10
179.0547908136769
 20
-357.1676622744756
 30
0.0
 11
179.0547908136769
 21
-370.3258467106529
 31
0.0
  0
LINE
  5
233
330
22E
100
AcDbEntity
  8
1
  6
Continuous
 62
     2
100
AcDbLine
 10
175.0547908136769
 20
-330.6676622744756
 30
0.0
 11
175.0547908136769
 21
-370.3258467106529
 31
0.0
  0
SOLID
  5
234
330
22E
100
AcDbEntity
  8
1
 62
     2
100
AcDbTrace
 10
182.5547908136769
 20
-367.865062969097
 30
0.0
 11
182.5547908136769
 21
-368.7866304522088
 31
0.0
 12
179.0547908136769
 22
-368.3258467106529
 32
0.0
 13
179.0547908136769
 23
-368.3258467106529
 33
0.0
  0
SOLID
  5
235
330
22E
100
AcDbEntity
  8
1
 62
     2
100
AcDbTrace
 10
171.5547908136769
 20
-368.7866304522088
 30
0.0
 11
171.5547908136769
 21
-367.865062969097
 31
0.0
 12
175.0547908136769
 22
-368.3258467106529
 32
0.0
 13
175.0547908136769
 23
-368.3258467106529
 33
0.0
  0
MTEXT
  5
236
330
22E
100
AcDbEntity
  8
1
 62
     2
100
AcDbMText
 10
183.5279795057199
 20
-366.3258814960345
 30
0.0
 40
3.5
 41
0.0
 71
     7
 72
     1
  1
\C2;4mm (\C2;0.157\C2;``)
  7
CONVERTER_11
 11
0.9999999999970619
 21
2.424068405545306E-6
 31
0.0
 73
     1
 44
0.60024009603842
  0
ENDBLK
  5
238
330
22E
100
AcDbEntity
  8
0
100
AcDbBlockEnd
  0
BLOCK
  5
243
330
23B
100
AcDbEntity
  8
0
100
AcDbBlockBegin
  2
*D21
 70
     1
 10
0.0
 20
0.0
 30
0.0
  3
*D21
  1

  0
LINE
  5
23C
330
23B
100
AcDbEntity
  8
1
  6
Continuous
 62
     2
100
AcDbLine
 10
-259.1648718607152
 20
-291.2595644480209
 30
0.0
 11
-212.48527513002
 21
-291.2595644480209
 31
0.0
  0
LINE
  5
23D
330
23B
100
AcDbEntity
  8
1
  6
Continuous
 62
     2
100
AcDbLine
 10
-212.48527513002
 20
-291.2595644480209
 30
0.0
 11
-196.48527513002
 21
-291.2595644480209
 31
0.0
  0
LINE
  5
23E
330
23B
100
AcDbEntity
  8
1
  6
Continuous
 62
     2
100
AcDbLine
 10
-212.48527513002
 20
-319.1676622744756
 30
0.0
 11
-212.48527513002
 21
-289.2595644480209
 31
0.0
  0
LINE
  5
23F
330
23B
100
AcDbEntity
  8
1
  6
Continuous
 62
     2
100
AcDbLine
 10
-196.48527513002
 20
-274.1676622744756
 30
0.0
 11
-196.48527513002
 21
-293.2595644480209
 31
0.0
  0
SOLID
  5
240
330
23B
100
AcDbEntity
  8
1
 62
     2
100
AcDbTrace
 10
-208.98527513002
 20
-290.798780706465
 30
0.0
 11
-208.98527513002
 21
-291.7203481895768
 31
0.0
 12
-212.48527513002
 22
-291.2595644480209
 32
0.0
 13
-212.48527513002
 23
-291.2595644480209
 33
0.0
  0
SOLID
  5
241
330
23B
100
AcDbEntity
  8
1
 62
     2
100
AcDbTrace
 10
-199.98527513002
 20
-291.7203481895768
 30
0.0
 11
-199.98527513002
 21
-290.798780706465
 31
0.0
 12
-196.48527513002
 22
-291.2595644480209
 32
0.0
 13
-196.48527513002
 23
-291.2595644480209
 33
0.0
  0
MTEXT
  5
242
330
23B
100
AcDbEntity
  8
1
 62
     2
100
AcDbMText
 10
-259.0598718606646
 20
-289.2596061904788
 30
0.0
 40
3.5
 41
0.0
 71
     7
 72
     1
  1
\C2;16mm (\C2;0.630\C2;``)
  7
CONVERTER_11
 11
0.9999999999970619
 21
2.424068405545306E-6
 31
0.0
 73
     1
 44
0.60024009603842
  0
ENDBLK
  5
244
330
23B
100
AcDbEntity
  8
0
100
AcDbBlockEnd
  0
BLOCK
  5
24E
330
247
100
AcDbEntity
  8
0
100
AcDbBlockBegin
  2
*D22
 70
     1
 10
0.0
 20
0.0
 30
0.0
  3
*D22
  1

  0
LINE
  5
248
330
247
100
AcDbEntity
  8
1
  6
Continuous
 62
     2
100
AcDbLine
 10
-179.2599468197222
 20
-242.1676622744755
 30
0.0
 11
-179.2599468197222
 21
-282.1676622744755
 31
0.0
  0
LINE
  5
249
330
247
100
AcDbEntity
  8
1
  6
Continuous
 62
     2
100
AcDbLine
 10
-204.48527513002
 20
-242.1676622744755
 30
0.0
 11
-177.2599468197222
 21
-242.1676622744755
 31
0.0
  0
LINE
  5
24A
330
247
100
AcDbEntity
  8
1
  6
Continuous
 62
     2
100
AcDbLine
 10
-204.48527513002
 20
-282.1676622744755
 30
0.0
 11
-177.2599468197222
 21
-282.1676622744755
 31
0.0
  0
SOLID
  5
24B
330
247
100
AcDbEntity
  8
1
 62
     2
100
AcDbTrace
 10
-178.7991630781663
 20
-245.6676622744755
 30
0.0
 11
-179.7207305612781
 21
-245.6676622744755
 31
0.0
 12
-179.2599468197222
 22
-242.1676622744755
 32
0.0
 13
-179.2599468197222
 23
-242.1676622744755
 33
0.0
  0
SOLID
  5
24C
330
247
100
AcDbEntity
  8
1
 62
     2
100
AcDbTrace
 10
-179.7207305612781
 20
-278.6676622744755
 30
0.0
 11
-178.7991630781663
 21
-278.6676622744755
 31
0.0
 12
-179.2599468197222
 22
-282.1676622744755
 32
0.0
 13
-179.2599468197222
 23
-282.1676622744755
 33
0.0
  0
MTEXT
  5
24D
330
247
100
AcDbEntity
  8
1
 62
     2
100
AcDbMText
 10
-181.2599468197222
 20
-278.3814122744755
 30
0.0
 40
3.5
 41
0.0
 71
     7
 72
     1
  1
\C2;40mm (\C2;1.575\C2;``)
  7
CONVERTER_11
 11
0.0
 21
1.0
 31
0.0
 73
     1
 44
0.60024009603842
  0
ENDBLK
  5
24F
330
247
100
AcDbEntity
  8
0
100
AcDbBlockEnd
  0
BLOCK
  5
25A
330
252
100
AcDbEntity
  8
0
100
AcDbBlockBegin
  2
*D23
 70
     1
 10
0.0
 20
0.0
 30
0.0
  3
*D23
  1

  0
LINE
  5
253
330
252
100
AcDbEntity
  8
1
  6
Continuous
 62
     2
100
AcDbLine
 10
-1.48918314591939
 20
-370.9640484103076
 30
0.0
 11
-25.48918314591939
 21
-370.9640484103076
 31
0.0
  0
LINE
  5
254
330
252
100
AcDbEntity
  8
1
  6
Continuous
 62
     2
100
AcDbLine
 10
-25.48918314591939
 20
-370.9640484103076
 30
0.0
 11
-63.90872313285243
 21
-370.9640484103076
 31
0.0
  0
LINE
  5
255
330
252
100
AcDbEntity
  8
1
  6
Continuous
 62
     2
100
AcDbLine
 10
-1.48918314591939
 20
-334.2422023370501
 30
0.0
 11
-1.48918314591939
 21
-372.9640484103076
 31
0.0
  0
LINE
  5
256
330
252
100
AcDbEntity
  8
1
  6
Continuous
 62
     2
100
AcDbLine
 10
-25.48918314591939
 20
-329.2422023370502
 30
0.0
 11
-25.48918314591939
 21
-372.9640484103076
 31
0.0
  0
SOLID
  5
257
330
252
100
AcDbEntity
  8
1
 62
     2
100
AcDbTrace
 10
-4.98918314591939
 20
-371.4248321518635
 30
0.0
 11
-4.98918314591939
 21
-370.5032646687517
 31
0.0
 12
-1.48918314591939
 22
-370.9640484103076
 32
0.0
 13
-1.48918314591939
 23
-370.9640484103076
 33
0.0
  0
SOLID
  5
258
330
252
100
AcDbEntity
  8
1
 62
     2
100
AcDbTrace
 10
-21.98918314591939
 20
-370.5032646687517
 30
0.0
 11
-21.98918314591939
 21
-371.4248321518635
 31
0.0
 12
-25.48918314591939
 22
-370.9640484103076
 32
0.0
 13
-25.48918314591939
 23
-370.9640484103076
 33
0.0
  0
MTEXT
  5
259
330
252
100
AcDbEntity
  8
1
 62
     2
100
AcDbMText
 10
-62.75372313280184
 20
-368.9640901527656
 30
0.0
 40
3.5
 41
0.0
 71
     7
 72
     1
  1
\C2;24mm (\C2;0.945\C2;``)
  7
CONVERTER_11
 11
0.9999999999970619
 21
2.424068405545306E-6
 31
0.0
 73
     1
 44
0.60024009603842
  0
ENDBLK
  5
25B
330
252
100
AcDbEntity
  8
0
100
AcDbBlockEnd
  0
BLOCK
  5
267
330
25E
100
AcDbEntity
  8
0
100
AcDbBlockBegin
  2
*D24
 70
     1
 10
0.0
 20
0.0
 30
0.0
  3
*D24
  1

  0
LINE
  5
25F
330
25E
100
AcDbEntity
  8
1
  6
Continuous
 62
     2
100
AcDbLine
 10
18.78932759520497
 20
-382.9640484103076
 30
0.0
 11
-25.48918314591939
 21
-382.9640484103076
 31
0.0
  0
LINE
  5
260
330
25E
100
AcDbEntity
  8
1
  6
Continuous
 62
     2
100
AcDbLine
 10
-25.48918314591939
 20
-382.9640484103076
 30
0.0
 11
-55.48918314591938
 21
-382.9640484103076
 31
0.0
  0
LINE
  5
261
330
25E
100
AcDbEntity
  8
1
  6
Continuous
 62
     2
100
AcDbLine
 10
-25.48918314591939
 20
-329.2422023370502
 30
0.0
 11
-25.48918314591939
 21
-384.9640484103076
 31
0.0
  0
LINE
  5
262
330
25E
100
AcDbEntity
  8
1
  6
Continuous
 62
     2
100
AcDbLine
 10
-55.48918314591938
 20
-374.5148246349229
 30
0.0
 11
-55.48918314591938
 21
-384.9640484103076
 31
0.0
  0
LINE
  5
263
330
25E
100
AcDbEntity
  8
1
  6
Continuous
 62
     2
100
AcDbLine
 10
-55.48918314591938
 20
-329.2422023370502
 30
0.0
 11
-55.48918314591938
 21
-361.7987161600371
 31
0.0
  0
SOLID
  5
264
330
25E
100
AcDbEntity
  8
1
 62
     2
100
AcDbTrace
 10
-28.98918314591939
 20
-383.4248321518635
 30
0.0
 11
-28.98918314591939
 21
-382.5032646687517
 31
0.0
 12
-25.48918314591939
 22
-382.9640484103076
 32
0.0
 13
-25.48918314591939
 23
-382.9640484103076
 33
0.0
  0
SOLID
  5
265
330
25E
100
AcDbEntity
  8
1
 62
     2
100
AcDbTrace
 10
-51.98918314591938
 20
-382.5032646687517
 30
0.0
 11
-51.98918314591938
 21
-383.4248321518635
 31
0.0
 12
-55.48918314591938
 22
-382.9640484103076
 32
0.0
 13
-55.48918314591938
 23
-382.9640484103076
 33
0.0
  0
MTEXT
  5
266
330
25E
100
AcDbEntity
  8
1
 62
     2
100
AcDbMText
 10
-24.08567240479503
 20
-380.9640484103076
 30
0.0
 40
3.5
 41
0.0
 71
     7
 72
     1
  1
min. 30mm (1.181``)
  7
CONVERTER_11
 11
0.9999999999970619
 21
2.424068405545306E-6
 31
0.0
 73
     1
 44
0.60024009603842
  0
ENDBLK
  5
268
330
25E
100
AcDbEntity
  8
0
100
AcDbBlockEnd
  0
BLOCK
  5
272
330
26B
100
AcDbEntity
  8
0
100
AcDbBlockBegin
  2
*D25
 70
     1
 10
0.0
 20
0.0
 30
0.0
  3
*D25
  1

  0
LINE
  5
26C
330
26B
100
AcDbEntity
  8
1
  6
Continuous
 62
     2
100
AcDbLine
 10
-68.89451179644533
 20
-334.2422023370502
 30
0.0
 11
-68.89451179644533
 21
-319.2422023370501
 31
0.0
  0
LINE
  5
26D
330
26B
100
AcDbEntity
  8
1
  6
Continuous
 62
     2
100
AcDbLine
 10
-66.48918314591951
 20
-334.2422023370502
 30
0.0
 11
-70.89451179644533
 21
-334.2422023370502
 31
0.0
  0
LINE
  5
26E
330
26B
100
AcDbEntity
  8
1
  6
Continuous
 62
     2
100
AcDbLine
 10
-66.4891831459195
 20
-319.2422023370501
 30
0.0
 11
-70.89451179644533
 21
-319.2422023370501
 31
0.0
  0
SOLID
  5
26F
330
26B
100
AcDbEntity
  8
1
 62
     2
100
AcDbTrace
 10
-69.35529553800122
 20
-330.7422023370502
 30
0.0
 11
-68.43372805488944
 21
-330.7422023370502
 31
0.0
 12
-68.89451179644533
 22
-334.2422023370502
 32
0.0
 13
-68.89451179644533
 23
-334.2422023370502
 33
0.0
  0
SOLID
  5
270
330
26B
100
AcDbEntity
  8
1
 62
     2
100
AcDbTrace
 10
-68.43372805488944
 20
-322.7422023370501
 30
0.0
 11
-69.35529553800122
 21
-322.7422023370501
 31
0.0
 12
-68.89451179644533
 22
-319.2422023370501
 32
0.0
 13
-68.89451179644533
 23
-319.2422023370501
 33
0.0
  0
MTEXT
  5
271
330
26B
100
AcDbEntity
  8
1
 62
     2
100
AcDbMText
 10
-70.89451179644533
 20
-350.355253871758
 30
0.0
 40
3.5
 41
0.0
 71
     7
 72
     1
  1
max. 21mm (0.827``)
  7
CONVERTER_11
 11
0.0
 21
1.0
 31
0.0
 73
     1
 44
0.60024009603842
  0
ENDBLK
  5
273
330
26B
100
AcDbEntity
  8
0
100
AcDbBlockEnd
  0
BLOCK
  5
27A
330
276
100
AcDbEntity
  8
0
100
AcDbBlockBegin
  2
*D26
 70
     1
 10
0.0
 20
0.0
 30
0.0
  3
*D26
  1

  0
LINE
  5
277
330
276
100
AcDbEntity
  8
1
  6
Continuous
 62
     2
100
AcDbLine
 10
-211.5353885495504
 20
-201.1432773608898
 30
0.0
 11
-253.0213600653408
 21
-180.4037536805717
 31
0.0
  0
SOLID
  5
278
330
276
100
AcDbEntity
  8
1
 62
     2
100
AcDbTrace
 10
-214.8720294502504
 20
-199.9903900479843
 30
0.0
 11
-214.4599469751519
 21
-199.1660875187842
 31
0.0
 12
-211.5353885495504
 22
-201.1432773608898
 32
0.0
 13
-211.5353885495504
 23
-201.1432773608898
 33
0.0
  0
MTEXT
  5
279
330
276
100
AcDbEntity
  8
1
 62
     2
100
AcDbMText
 10
-250.7182824583484
 20
-179.3191069472202
 30
0.0
 40
3.5
 41
0.0
 71
     7
 72
     1
  1
\C2;R9mm(\C2;0.354\C2;``)
  7
CONVERTER_11
 11
0.8944570466144867
 21
-0.4471538792873099
 31
0.0
 73
     1
 44
0.60024009603842
  0
ENDBLK
  5
27B
330
276
100
AcDbEntity
  8
0
100
AcDbBlockEnd
  0
BLOCK
  5
283
330
27D
100
AcDbEntity
  8
0
100
AcDbBlockBegin
  2
*D27
 70
     1
 10
0.0
 20
0.0
 30
0.0
  3
*D27
  1

  0
LINE
  5
27E
330
27D
100
AcDbEntity
  8
1
  6
Continuous
 62
     2
100
AcDbLine
 10
164.7238404471348
 20
-191.8594506249133
 30
0.0
 11
160.0655141642373
 21
-194.2807098514454
 31
0.0
  0
LINE
  5
27F
330
27D
100
AcDbEntity
  8
1
  6
Continuous
 62
     2
100
AcDbLine
 10
213.3439311319553
 20
-166.5881759188775
 30
0.0
 11
167.385741180219
 21
-190.4758739240378
 31
0.0
  0
SOLID
  5
280
330
27D
100
AcDbEntity
  8
1
 62
     2
100
AcDbTrace
 10
170.2787821524977
 20
-188.4528475798695
 30
0.0
 11
170.7038019184703
 21
-189.2705546328301
 31
0.0
 12
167.385741180219
 22
-190.4758739240378
 32
0.0
 13
167.385741180219
 23
-190.4758739240378
 33
0.0
  0
SOLID
  5
281
330
27D
100
AcDbEntity
  8
1
 62
     2
100
AcDbTrace
 10
161.8307994748561
 20
-193.8824769690816
 30
0.0
 11
161.4057797088835
 21
-193.064769916121
 31
0.0
 12
164.7238404471348
 22
-191.8594506249133
 32
0.0
 13
164.7238404471348
 23
-191.8594506249133
 33
0.0
  0
MTEXT
  5
282
330
27D
100
AcDbEntity
  8
1
 62
     2
100
AcDbMText
 10
183.555451465017
 20
-179.8173117705652
 30
0.0
 40
3.5
 41
0.0
 71
     7
 72
     1
  1
\C2;\U+00f83mm (\C2;0.118\C2;``)
  7
CONVERTER_11
 11
0.8873002443614205
 21
0.4611922336251592
 31
0.0
 73
     1
 44
0.60024009603842
  0
ENDBLK
  5
284
330
27D
100
AcDbEntity
  8
0
100
AcDbBlockEnd
  0
BLOCK
  5
28C
330
286
100
AcDbEntity
  8
0
100
AcDbBlockBegin
  2
*D28
 70
     1
 10
0.0
 20
0.0
 30
0.0
  3
*D28
  1

  0
LINE
  5
287
330
286
100
AcDbEntity
  8
1
  6
Continuous
 62
     2
100
AcDbLine
 10
-157.0972118209928
 20
-364.1319944853544
 30
0.0
 11
-195.8659098426991
 21
-333.1152878537676
 31
0.0
  0
LINE
  5
288
330
286
100
AcDbEntity
  8
1
  6
Continuous
 62
     2
100
AcDbLine
 10
-205.7046404173409
 20
-325.2438597317805
 30
0.0
 11
-209.8041114901083
 21
-321.9640980142859
 31
0.0
  0
SOLID
  5
289
330
286
100
AcDbEntity
  8
1
 62
     2
100
AcDbTrace
 10
-192.8450699131211
 20
-334.9419919284193
 30
0.0
 11
-193.4207883419207
 21
-335.6615994024421
 31
0.0
 12
-195.8659098426991
 22
-333.1152878537676
 32
0.0
 13
-195.8659098426991
 23
-333.1152878537676
 33
0.0
  0
SOLID
  5
28A
330
286
100
AcDbEntity
  8
1
 62
     2
100
AcDbTrace
 10
-208.725480346919
 20
-323.4171556571288
 30
0.0
 11
-208.1497619181194
 21
-322.697548183106
 31
0.0
 12
-205.7046404173409
 22
-325.2438597317805
 32
0.0
 13
-205.7046404173409
 23
-325.2438597317805
 33
0.0
  0
MTEXT
  5
28B
330
286
100
AcDbEntity
  8
1
 62
     2
100
AcDbMText
 10
-180.8818821367896
 20
-342.5418796647043
 30
0.0
 40
3.5
 41
0.0
 71
     7
 72
     1
  1
\C2;cutter \U+00f8\C2;1/2``
  7
CONVERTER_11
 11
0.7808516329080749
 21
-0.6247165176180257
 31
0.0
 73
     1
 44
0.60024009603842
  0
ENDBLK
  5
28D
330
286
100
AcDbEntity
  8
0
100
AcDbBlockEnd
  0
BLOCK
  5
295
330
28F
100
AcDbEntity
  8
0
100
AcDbBlockBegin
  2
*D29
 70
     1
 10
0.0
 20
0.0
 30
0.0
  3
*D29
  1

  0
LINE
  5
290
330
28F
100
AcDbEntity
  8
1
  6
Continuous
 62
     2
100
AcDbLine
 10
123.2855548638448
 20
-355.7172323058406
 30
0.0
 11
163.2367581112883
 21
-333.7076154148001
 31
0.0
  0
LINE
  5
291
330
28F
100
AcDbEntity
  8
1
  6
Continuous
 62
     2
100
AcDbLine
 10
174.2728235160656
 20
-327.627709134151
 30
0.0
 11
178.8711841013896
 21
-325.0944148505473
 31
0.0
  0
SOLID
  5
292
330
28F
100
AcDbEntity
  8
1
 62
     2
100
AcDbTrace
 10
160.3935274007791
 20
-335.8000687077794
 30
0.0
 11
159.9488413746987
 21
-334.9928878332923
 31
0.0
 12
163.2367581112883
 22
-333.7076154148001
 32
0.0
 13
163.2367581112883
 23
-333.7076154148001
 33
0.0
  0
SOLID
  5
293
330
28F
100
AcDbEntity
  8
1
 62
     2
100
AcDbTrace
 10
177.1160542265748
 20
-325.5352558411717
 30
0.0
 11
177.5607402526552
 21
-326.3424367156588
 31
0.0
 12
174.2728235160656
 22
-327.627709134151
 32
0.0
 13
174.2728235160656
 23
-327.627709134151
 33
0.0
  0
MTEXT
  5
294
330
28F
100
AcDbEntity
  8
1
 62
     2
100
AcDbMText
 10
121.6000805498188
 20
-354.3623586634818
 30
0.0
 40
3.5
 41
0.0
 71
     7
 72
     1
  1
\C2;cutter \U+00f8\C2;1/2``
  7
CONVERTER_11
 11
0.8758782067283654
 21
0.482532244495954
 31
0.0
 73
     1
 44
0.60024009603842
  0
ENDBLK
  5
296
330
28F
100
AcDbEntity
  8
0
100
AcDbBlockEnd
  0
ENDSEC
  0
SECTION
  2
ENTITIES
  0
POINT
  5
47
330
1F
100
AcDbEntity
  8
1
 62
     3
 60
     1
100
AcDbPoint
 10
-200.78527513002
 20
-337.179573792774
 30
0.0
  0
POINT
  5
48
330
1F
100
AcDbEntity
  8
1
 62
     3
 60
     1
100
AcDbPoint
 10
-200.78527513002
 20
-322.179573792774
 30
0.0
  0
POINT
  5
49
330
1F
100
AcDbEntity
  8
1
 62
     3
 60
     1
100
AcDbPoint
 10
168.7547908136769
 20
-338.6676622744756
 30
0.0
  0
POINT
  5
4A
330
1F
100
AcDbEntity
  8
1
 62
     3
 60
     1
100
AcDbPoint
 10
-204.48527513002
 20
-240.735883707337
 30
0.0
  0
POINT
  5
4B
330
1F
100
AcDbEntity
  8
1
 62
     3
 60
     1
100
AcDbPoint
 10
-204.48527513002
 20
-283.735883707337
 30
0.0
  0
POINT
  5
4C
330
1F
100
AcDbEntity
  8
1
 62
     3
 60
     1
100
AcDbPoint
 10
-146.1794988440101
 20
-282.1676622744756
 30
0.0
  0
POINT
  5
4D
330
1F
100
AcDbEntity
  8
1
 62
     3
 60
     1
100
AcDbPoint
 10
29.01081685408047
 20
-328.2422023370501
 30
0.0
  0
POINT
  5
4E
330
1F
100
AcDbEntity
  8
1
 62
     3
 60
     1
100
AcDbPoint
 10
15.01081685408072
 20
-294.2422023370501
 30
0.0
  0
POINT
  5
4F
330
1F
100
AcDbEntity
  8
1
 62
     3
 60
     1
100
AcDbPoint
 10
15.01081685408072
 20
-310.2422023370501
 30
0.0
  0
POINT
  5
50
330
1F
100
AcDbEntity
  8
1
 62
     3
 60
     1
100
AcDbPoint
 10
47.01081685408061
 20
-328.2422023370501
 30
0.0
  0
POINT
  5
51
330
1F
100
AcDbEntity
  8
1
 62
     3
 60
     1
100
AcDbPoint
 10
47.01081685408061
 20
-312.2422023370501
 30
0.0
  0
POINT
  5
52
330
1F
100
AcDbEntity
  8
1
 62
     3
 60
     1
100
AcDbPoint
 10
12.01081685408042
 20
-328.2422023370501
 30
0.0
  0
POINT
  5
53
330
1F
100
AcDbEntity
  8
1
 62
     3
 60
     1
100
AcDbPoint
 10
-55.48918314591939
 20
-319.2422023370501
 30
0.0
  0
POINT
  5
54
330
1F
100
AcDbEntity
  8
1
 62
     3
 60
     1
100
AcDbPoint
 10
-142.1788376098902
 20
-282.1676622744756
 30
0.0
  0
POINT
  5
55
330
1F
100
AcDbEntity
  8
1
 62
     3
 60
     1
100
AcDbPoint
 10
168.7547908136769
 20
-330.6676622744756
 30
0.0
  0
POINT
  5
56
330
1F
100
AcDbEntity
  8
1
 62
     3
 60
     1
100
AcDbPoint
 10
-200.78527513002
 20
-329.179573792774
 30
0.0
  0
LINE
  5
57
330
1F
100
AcDbEntity
  8
1
  6
Continuous
 62
     7
100
AcDbLine
 10
139.0547908136769
 20
-167.1676622744755
 30
0.0
 11
139.0547908136769
 21
-225.8298720119055
 31
0.0
  0
LINE
  5
58
330
1F
100
AcDbEntity
  8
1
  6
DOT_CENTER
 62
     2
100
AcDbLine
 10
139.0547908136769
 20
-167.1676622744755
 30
0.0
 11
155.0547908136769
 21
-167.1676622744755
 31
0.0
  0
LINE
  5
59
330
1F
100
AcDbEntity
  8
1
  6
Continuous
 62
     7
100
AcDbLine
 10
139.0547908136769
 20
-240.1773334235277
 30
0.0
 11
139.0547908136769
 21
-252.5288628312051
 31
0.0
  0
LINE
  5
5A
330
1F
100
AcDbEntity
  8
1
  6
Continuous
 62
     7
100
AcDbLine
 10
-142.1788376098902
 20
-242.1676622744755
 30
0.0
 11
-127.1788376057396
 21
-242.1676622744755
 31
0.0
  0
LINE
  5
5B
330
1F
100
AcDbEntity
  8
1
  6
Continuous
 62
     7
100
AcDbLine
 10
-142.1788376098902
 20
-242.1676622744755
 30
0.0
 11
-142.1788376098902
 21
-282.1676622744756
 31
0.0
  0
LINE
  5
5C
330
1F
100
AcDbEntity
  8
1
  6
DOT_CENTER
 62
     2
100
AcDbLine
 10
67.24775476637089
 20
-262.1676622744755
 30
0.0
 11
82.62402318141378
 21
-262.1676622744755
 31
0.0
  0
LINE
  5
5D
330
1F
100
AcDbEntity
  8
1
  6
Continuous
 62
     2
100
AcDbLine
 10
-22.02288009965458
 20
-227.8444352827696
 30
0.0
 11
-14.13828167115473
 21
-264.5826697101021
 31
0.0
  0
LINE
  5
5E
330
1F
100
AcDbEntity
  8
1
  6
Continuous
 62
     2
100
AcDbLine
 10
-22.02288009965458
 20
-227.8444352827696
 30
0.0
 11
11.39374609699946
 21
-227.8444352827696
 31
0.0
  0
LINE
  5
5F
330
1F
100
AcDbEntity
  8
1
  6
Continuous
 62
     7
100
AcDbLine
 10
2.01081685408061
 20
-310.2422023370501
 30
0.0
 11
9.77876604651166
 21
-310.2422023370501
 31
0.0
  0
LINE
  5
60
330
1F
100
AcDbEntity
  8
1
  6
Continuous
 62
     7
100
AcDbLine
 10
-118.1777554704674
 20
-196.1676622744755
 30
0.0
 11
-118.1777554704674
 21
-206.1676622744755
 31
0.0
  0
LINE
  5
61
330
1F
100
AcDbEntity
  8
1
  6
Continuous
 62
     7
100
AcDbLine
 10
-118.1777554704674
 20
-328.1676622744756
 30
0.0
 11
-118.1777554704674
 21
-339.6676622744756
 31
0.0
  0
LINE
  5
62
330
1F
100
AcDbEntity
  8
1
  6
Continuous
 62
     7
100
AcDbLine
 10
-118.1777554704674
 20
-318.1676622744756
 30
0.0
 11
-118.1777554704674
 21
-328.1676622744756
 31
0.0
  0
LINE
  5
63
330
1F
100
AcDbEntity
  8
1
  6
Continuous
 62
     7
100
AcDbLine
 10
-118.1777554704674
 20
-339.6676622744756
 30
0.0
 11
-113.1777554704675
 21
-339.6676622744756
 31
0.0
  0
LINE
  5
64
330
1F
100
AcDbEntity
  8
1
  6
Continuous
 62
     7
100
AcDbLine
 10
-118.1777554704674
 20
-184.6676622744755
 30
0.0
 11
-113.1777554704675
 21
-184.6676622744755
 31
0.0
  0
LINE
  5
65
330
1F
100
AcDbEntity
  8
1
  6
Continuous
 62
     7
100
AcDbLine
 10
-118.1777554704674
 20
-184.6676622744755
 30
0.0
 11
-118.1777554704674
 21
-196.1676622744755
 31
0.0
  0
LINE
  5
66
330
1F
100
AcDbEntity
  8
1
  6
Continuous
 62
     7
100
AcDbLine
 10
-25.48918314591939
 20
-319.2422023370501
 30
0.0
 11
-11.4891831459195
 21
-319.2422023370501
 31
0.0
  0
LINE
  5
67
330
1F
100
AcDbEntity
  8
1
  6
PHANTOM
 62
     2
100
AcDbLine
 10
-11.4891831459195
 20
-319.2422023370501
 30
0.0
 11
-11.48918314591939
 21
-331.2422023370501
 31
0.0
  0
LINE
  5
68
330
1F
100
AcDbEntity
  8
1
  6
Continuous
 62
     7
100
AcDbLine
 10
-66.4891831459195
 20
-319.2422023370501
 30
0.0
 11
-66.48918314591951
 21
-334.2422023370501
 31
0.0
  0
LINE
  5
69
330
1F
100
AcDbEntity
  8
1
  6
Continuous
 62
     7
100
AcDbLine
 10
-66.4891831459195
 20
-319.2422023370501
 30
0.0
 11
-55.48918314591939
 21
-319.2422023370501
 31
0.0
  0
LINE
  5
6A
330
1F
100
AcDbEntity
  8
1
  6
Continuous
 62
     7
100
AcDbLine
 10
-16.48918314591939
 20
-329.2422023370501
 30
0.0
 11
-16.48918314591939
 21
-319.2422023370501
 31
0.0
  0
LINE
  5
6B
330
1F
100
AcDbEntity
  8
1
  6
Continuous
 62
     7
100
AcDbLine
 10
-1.48918314591939
 20
-331.2422023370501
 30
0.0
 11
-1.48918314591939
 21
-334.2422023370501
 31
0.0
  0
LINE
  5
6C
330
1F
100
AcDbEntity
  8
1
  6
Continuous
 62
     7
100
AcDbLine
 10
-11.4891831459195
 20
-310.2422023370501
 30
0.0
 11
-11.4891831459195
 21
-319.2422023370501
 31
0.0
  0
LINE
  5
6D
330
1F
100
AcDbEntity
  8
1
  6
DOT_CENTER
 62
     2
100
AcDbLine
 10
-11.4891831459195
 20
-243.4569155679179
 30
0.0
 11
-15.72105327995238
 21
-243.4569155679179
 31
0.0
  0
LINE
  5
6E
330
1F
100
AcDbEntity
  8
1
  6
Continuous
 62
     7
100
AcDbLine
 10
-11.48918314591939
 20
-331.2422023370501
 30
0.0
 11
-15.48918314591939
 21
-331.2422023370501
 31
0.0
  0
LINE
  5
6F
330
1F
100
AcDbEntity
  8
1
  6
Continuous
 62
     7
100
AcDbLine
 10
-1.48918314591939
 20
-334.2422023370501
 30
0.0
 11
-66.48918314591951
 21
-334.2422023370501
 31
0.0
  0
LINE
  5
70
330
1F
100
AcDbEntity
  8
1
  6
DOT_CENTER
 62
     2
100
AcDbLine
 10
11.51081685408061
 20
-243.4569155679179
 30
0.0
 11
-11.4891831459195
 21
-243.4569155679179
 31
0.0
  0
LINE
  5
71
330
1F
100
AcDbEntity
  8
1
  6
Continuous
 62
     7
100
AcDbLine
 10
11.51081685408061
 20
-305.2422023370501
 30
0.0
 11
11.51081685408061
 21
-243.4569155679179
 31
0.0
  0
LINE
  5
72
330
1F
100
AcDbEntity
  8
1
  6
Continuous
 62
     7
100
AcDbLine
 10
-1.4891831459195
 20
-305.2422023370501
 30
0.0
 11
11.51081685408061
 21
-305.2422023370501
 31
0.0
  0
LINE
  5
73
330
1F
100
AcDbEntity
  8
1
  6
Continuous
 62
     7
100
AcDbLine
 10
-25.48918314591939
 20
-329.2422023370501
 30
0.0
 11
-25.48918314591939
 21
-319.2422023370501
 31
0.0
  0
LINE
  5
74
330
1F
100
AcDbEntity
  8
1
  6
Continuous
 62
     7
100
AcDbLine
 10
-1.48918314591939
 20
-331.2422023370501
 30
0.0
 11
-11.48918314591939
 21
-331.2422023370501
 31
0.0
  0
LINE
  5
75
330
1F
100
AcDbEntity
  8
1
  6
Continuous
 62
     7
100
AcDbLine
 10
-0.48918314591939
 20
-306.9742531446191
 30
0.0
 11
-0.48918314591939
 21
-306.2422023370501
 31
0.0
  0
LINE
  5
76
330
1F
100
AcDbEntity
  8
1
  6
Continuous
 62
     7
100
AcDbLine
 10
0.82021793083899
 20
-309.2422023370501
 30
0.0
 11
-0.48918314591939
 21
-306.9742531446191
 31
0.0
  0
LINE
  5
77
330
1F
100
AcDbEntity
  8
1
  6
Continuous
 62
     7
100
AcDbLine
 10
9.20141577732201
 20
-309.2422023370501
 30
0.0
 11
0.82021793083899
 21
-309.2422023370501
 31
0.0
  0
LINE
  5
78
330
1F
100
AcDbEntity
  8
1
  6
Continuous
 62
     7
100
AcDbLine
 10
10.51081685408061
 20
-306.9742531446191
 30
0.0
 11
9.20141577732201
 21
-309.2422023370501
 31
0.0
  0
LINE
  5
79
330
1F
100
AcDbEntity
  8
1
  6
Continuous
 62
     7
100
AcDbLine
 10
10.51081685408061
 20
-306.2422023370501
 30
0.0
 11
10.51081685408061
 21
-306.9742531446191
 31
0.0
  0
LINE
  5
7A
330
1F
100
AcDbEntity
  8
1
  6
Continuous
 62
     7
100
AcDbLine
 10
-0.48918314591939
 20
-306.2422023370501
 30
0.0
 11
10.51081685408061
 21
-306.2422023370501
 31
0.0
  0
LINE
  5
7B
330
1F
100
AcDbEntity
  8
1
  6
Continuous
 62
     7
100
AcDbLine
 10
11.51081685408061
 20
-307.2422023370501
 30
0.0
 11
11.51081685408061
 21
-305.2422023370501
 31
0.0
  0
LINE
  5
7C
330
1F
100
AcDbEntity
  8
1
  6
Continuous
 62
     7
100
AcDbLine
 10
9.77876604651166
 20
-310.2422023370501
 30
0.0
 11
11.51081685408061
 21
-307.2422023370501
 31
0.0
  0
LINE
  5
7D
330
1F
100
AcDbEntity
  8
1
  6
Continuous
 62
     7
100
AcDbLine
 10
0.24286766164934
 20
-310.2422023370501
 30
0.0
 11
2.01081685408061
 21
-310.2422023370501
 31
0.0
  0
LINE
  5
7E
330
1F
100
AcDbEntity
  8
1
  6
Continuous
 62
     7
100
AcDbLine
 10
-1.48918314591939
 20
-307.2422023370501
 30
0.0
 11
0.24286766164934
 21
-310.2422023370501
 31
0.0
  0
LINE
  5
7F
330
1F
100
AcDbEntity
  8
1
  6
DOT_CENTER
 62
     2
100
AcDbLine
 10
11.51081685408061
 20
-243.4569155679179
 30
0.0
 11
18.52529007121151
 21
-243.4569155679179
 31
0.0
  0
LINE
  5
80
330
1F
100
AcDbEntity
  8
1
  6
PHANTOM
 62
     2
100
AcDbLine
 10
-15.4891831459195
 20
-261.2422023370501
 30
0.0
 11
-15.48918314591939
 21
-331.2422023370501
 31
0.0
  0
LINE
  5
81
330
1F
100
AcDbEntity
  8
1
  6
PHANTOM
 62
     2
100
AcDbLine
 10
-11.4891831459195
 20
-261.2422023370501
 30
0.0
 11
-15.4891831459195
 21
-261.2422023370501
 31
0.0
  0
LINE
  5
82
330
1F
100
AcDbEntity
  8
1
  6
PHANTOM
 62
     2
100
AcDbLine
 10
5.0108168540805
 20
-271.2422023370501
 30
0.0
 11
-16.9891831459195
 21
-271.2422023370501
 31
0.0
  0
LINE
  5
83
330
1F
100
AcDbEntity
  8
1
  6
PHANTOM
 62
     2
100
AcDbLine
 10
-11.48918314591962
 20
-273.9922023370501
 30
0.0
 11
-13.23918314591962
 21
-273.9922023370501
 31
0.0
  0
LINE
  5
84
330
1F
100
AcDbEntity
  8
1
  6
PHANTOM
 62
     2
100
AcDbLine
 10
-13.23918314591962
 20
-273.9922023370501
 30
0.0
 11
-15.48918314591962
 21
-276.2422023370501
 31
0.0
  0
LINE
  5
85
330
1F
100
AcDbEntity
  8
1
  6
PHANTOM
 62
     2
100
AcDbLine
 10
-11.48918314591962
 20
-268.4922023370501
 30
0.0
 11
-13.23918314591962
 21
-268.4922023370501
 31
0.0
  0
LINE
  5
86
330
1F
100
AcDbEntity
  8
1
  6
PHANTOM
 62
     2
100
AcDbLine
 10
-13.23918314591962
 20
-268.4922023370501
 30
0.0
 11
-15.48918314591962
 21
-266.2422023370501
 31
0.0
  0
LINE
  5
87
330
1F
100
AcDbEntity
  8
1
  6
PHANTOM
 62
     2
100
AcDbLine
 10
-13.23918314591962
 20
-273.9922023370501
 30
0.0
 11
-13.23918314591962
 21
-268.4922023370501
 31
0.0
  0
LINE
  5
88
330
1F
100
AcDbEntity
  8
1
  6
PHANTOM
 62
     2
100
AcDbLine
 10
5.0108168540805
 20
-288.2422023370501
 30
0.0
 11
-16.9891831459195
 21
-288.2422023370501
 31
0.0
  0
LINE
  5
89
330
1F
100
AcDbEntity
  8
1
  6
PHANTOM
 62
     2
100
AcDbLine
 10
-11.48918314591962
 20
-290.9922023370501
 30
0.0
 11
-13.23918314591962
 21
-290.9922023370501
 31
0.0
  0
LINE
  5
8A
330
1F
100
AcDbEntity
  8
1
  6
PHANTOM
 62
     2
100
AcDbLine
 10
-13.23918314591962
 20
-290.9922023370501
 30
0.0
 11
-15.48918314591962
 21
-293.2422023370501
 31
0.0
  0
LINE
  5
8B
330
1F
100
AcDbEntity
  8
1
  6
PHANTOM
 62
     2
100
AcDbLine
 10
-11.48918314591962
 20
-285.4922023370501
 30
0.0
 11
-13.23918314591962
 21
-285.4922023370501
 31
0.0
  0
LINE
  5
8C
330
1F
100
AcDbEntity
  8
1
  6
PHANTOM
 62
     2
100
AcDbLine
 10
-13.23918314591962
 20
-285.4922023370501
 30
0.0
 11
-15.48918314591962
 21
-283.2422023370501
 31
0.0
  0
LINE
  5
8D
330
1F
100
AcDbEntity
  8
1
  6
PHANTOM
 62
     2
100
AcDbLine
 10
-13.23918314591962
 20
-290.9922023370501
 30
0.0
 11
-13.23918314591962
 21
-285.4922023370501
 31
0.0
  0
LINE
  5
8E
330
1F
100
AcDbEntity
  8
1
  6
Continuous
 62
     7
100
AcDbLine
 10
-16.48918314591939
 20
-331.2422023370501
 30
0.0
 11
-16.48918314591939
 21
-329.2422023370501
 31
0.0
  0
LINE
  5
8F
330
1F
100
AcDbEntity
  8
1
  6
Continuous
 62
     7
100
AcDbLine
 10
-16.48918314591939
 20
-329.2422023370501
 30
0.0
 11
-25.48918314591939
 21
-329.2422023370501
 31
0.0
  0
LINE
  5
90
330
1F
100
AcDbEntity
  8
1
  6
Continuous
 62
     7
100
AcDbLine
 10
-15.48918314591939
 20
-331.2422023370501
 30
0.0
 11
-16.48918314591939
 21
-331.2422023370501
 31
0.0
  0
LINE
  5
91
330
1F
100
AcDbEntity
  8
1
  6
Continuous
 62
     7
100
AcDbLine
 10
-11.4891831459195
 20
-310.2422023370501
 30
0.0
 11
-1.48918314591939
 21
-310.2422023370501
 31
0.0
  0
LINE
  5
92
330
1F
100
AcDbEntity
  8
1
  6
Continuous
 62
     7
100
AcDbLine
 10
-1.48918314591939
 20
-310.2422023370501
 30
0.0
 11
-1.48918314591939
 21
-331.2422023370501
 31
0.0
  0
LINE
  5
93
330
1F
100
AcDbEntity
  8
1
  6
Continuous
 62
     7
100
AcDbLine
 10
-1.4891831459195
 20
-305.2422023370501
 30
0.0
 11
-1.48918314591939
 21
-310.2422023370501
 31
0.0
  0
LINE
  5
94
330
1F
100
AcDbEntity
  8
1
  6
Continuous
 62
     7
100
AcDbLine
 10
-11.4891831459195
 20
-310.2422023370501
 30
0.0
 11
-11.4891831459195
 21
-243.4569155679179
 31
0.0
  0
LINE
  5
95
330
1F
100
AcDbEntity
  8
1
  6
DOT_CENTER
 62
     2
100
AcDbLine
 10
-17.49015013733041
 20
-321.2422023370501
 30
0.0
 11
-0.2705481133335
 21
-321.2422023370501
 31
0.0
  0
LINE
  5
96
330
1F
100
AcDbEntity
  8
1
  6
Continuous
 62
     7
100
AcDbLine
 10
2.01081685408041
 20
-330.2422023370501
 30
0.0
 11
2.01081685408058
 21
-312.2422023370501
 31
0.0
  0
LINE
  5
97
330
1F
100
AcDbEntity
  8
1
  6
DOT_CENTER
 62
     2
100
AcDbLine
 10
30.61746021702033
 20
-320.2422023370501
 30
0.0
 11
9.86826567056607
 21
-320.2422023370501
 31
0.0
  0
LINE
  5
98
330
1F
100
AcDbEntity
  8
1
  6
Continuous
 62
     7
100
AcDbLine
 10
12.01081685408059
 20
-312.2422023370501
 30
0.0
 11
2.01081685408058
 21
-312.2422023370501
 31
0.0
  0
LINE
  5
99
330
1F
100
AcDbEntity
  8
1
  6
Continuous
 62
     7
100
AcDbLine
 10
12.01081685408059
 20
-312.2422023370501
 30
0.0
 11
12.01081685408042
 21
-328.2422023370501
 31
0.0
  0
LINE
  5
9A
330
1F
100
AcDbEntity
  8
1
  6
Continuous
 62
     7
100
AcDbLine
 10
47.01081685408061
 20
-334.2422023370501
 30
0.0
 11
2.01081685408041
 21
-334.2422023370501
 31
0.0
  0
LINE
  5
9B
330
1F
100
AcDbEntity
  8
1
  6
Continuous
 62
     7
100
AcDbLine
 10
2.01081685408041
 20
-334.2422023370501
 30
0.0
 11
2.01081685408041
 21
-330.2422023370501
 31
0.0
  0
LINE
  5
9C
330
1F
100
AcDbEntity
  8
1
  6
Continuous
 62
     7
100
AcDbLine
 10
2.01081685408041
 20
-330.2422023370501
 30
0.0
 11
12.0108168540804
 21
-330.2422023370501
 31
0.0
  0
LINE
  5
9D
330
1F
100
AcDbEntity
  8
1
  6
Continuous
 62
     7
100
AcDbLine
 10
29.01081685408047
 20
-312.2422023370501
 30
0.0
 11
12.01081685408059
 21
-312.2422023370501
 31
0.0
  0
LINE
  5
9E
330
1F
100
AcDbEntity
  8
1
  6
Continuous
 62
     7
100
AcDbLine
 10
2.01081685408058
 20
-312.2422023370501
 30
0.0
 11
2.01081685408061
 21
-310.2422023370501
 31
0.0
  0
LINE
  5
9F
330
1F
100
AcDbEntity
  8
1
  6
PHANTOM
 62
     2
100
AcDbLine
 10
47.01081685408061
 20
-334.2422023370501
 30
0.0
 11
47.01081685408061
 21
-328.2422023370501
 31
0.0
  0
LINE
  5
A0
330
1F
100
AcDbEntity
  8
1
  6
PHANTOM
 62
     2
100
AcDbLine
 10
47.01081685408061
 20
-336.0179329441536
 30
0.0
 11
47.01081685408061
 21
-334.2422023370501
 31
0.0
  0
LINE
  5
A1
330
1F
100
AcDbEntity
  8
1
  6
Continuous
 62
     7
100
AcDbLine
 10
9.77876604651166
 20
-310.2422023370501
 30
0.0
 11
15.01081685408072
 21
-310.2422023370501
 31
0.0
  0
LINE
  5
A2
330
1F
100
AcDbEntity
  8
1
  6
Continuous
 62
     7
100
AcDbLine
 10
15.01081685408072
 20
-310.2422023370501
 30
0.0
 11
15.01081685408072
 21
-294.2422023370501
 31
0.0
  0
LINE
  5
A3
330
1F
100
AcDbEntity
  8
1
  6
Continuous
 62
     7
100
AcDbLine
 10
15.01081685408072
 20
-294.2422023370501
 30
0.0
 11
47.01081685408061
 21
-294.2422023370501
 31
0.0
  0
LINE
  5
A4
330
1F
100
AcDbEntity
  8
1
  6
PHANTOM
 62
     2
100
AcDbLine
 10
47.01081685408061
 20
-294.2422023370501
 30
0.0
 11
47.01081685408063
 21
-291.1994140329488
 31
0.0
  0
LINE
  5
A5
330
1F
100
AcDbEntity
  8
1
  6
Continuous
 62
     7
100
AcDbLine
 10
12.01081685408042
 20
-328.2422023370501
 30
0.0
 11
29.01081685408047
 21
-328.2422023370501
 31
0.0
  0
LINE
  5
A6
330
1F
100
AcDbEntity
  8
1
  6
Continuous
 62
     7
100
AcDbLine
 10
12.01081685408042
 20
-328.2422023370501
 30
0.0
 11
12.0108168540804
 21
-330.2422023370501
 31
0.0
  0
LINE
  5
A7
330
1F
100
AcDbEntity
  8
1
  6
Continuous
 62
     7
100
AcDbLine
 10
29.01081685408047
 20
-328.2422023370501
 30
0.0
 11
29.01081685408047
 21
-312.2422023370501
 31
0.0
  0
LINE
  5
A8
330
1F
100
AcDbEntity
  8
1
  6
DOT_CENTER
 62
     2
100
AcDbLine
 10
14.20490685203877
 20
-321.2422023370501
 30
0.0
 11
0.48790615904859
 21
-321.2422023370501
 31
0.0
  0
LINE
  5
A9
330
1F
100
AcDbEntity
  8
1
  6
DOT_CENTER
 62
     2
100
AcDbLine
 10
-220.9760574545289
 20
-162.1676622744756
 30
0.0
 11
-218.48527513002
 21
-162.1676622744756
 31
0.0
  0
LINE
  5
AA
330
1F
100
AcDbEntity
  8
1
  6
DOT_CENTER
 62
     2
100
AcDbLine
 10
-222.9760574545289
 20
-362.1676622744756
 30
0.0
 11
-218.48527513002
 21
-362.1676622744756
 31
0.0
  0
LINE
  5
AB
330
1F
100
AcDbEntity
  8
1
  6
DOT_CENTER
 62
     2
100
AcDbLine
 10
-165.865747757346
 20
-162.1676622744756
 30
0.0
 11
-165.865747757346
 21
-344.3459925678928
 31
0.0
  0
LINE
  5
AC
330
1F
100
AcDbEntity
  8
1
  6
DOT_CENTER
 62
     2
100
AcDbLine
 10
-165.865747757346
 20
-162.1676622744756
 30
0.0
 11
-160.9102991336988
 21
-162.1676622744756
 31
0.0
  0
LINE
  5
AD
330
1F
100
AcDbEntity
  8
1
  6
DOT_CENTER
 62
     2
100
AcDbLine
 10
-165.865747757346
 20
-362.1676622744756
 30
0.0
 11
-160.9102991336988
 21
-362.1676622744756
 31
0.0
  0
LINE
  5
AE
330
1F
100
AcDbEntity
  8
1
  6
DOT_CENTER
 62
     2
100
AcDbLine
 10
-165.865747757346
 20
-362.1676622744756
 30
0.0
 11
-165.865747757346
 21
-367.4478603837335
 31
0.0
  0
LINE
  5
AF
330
1F
100
AcDbEntity
  8
1
  6
DOT_CENTER
 62
     2
100
AcDbLine
 10
-165.865747757346
 20
-162.1676622744756
 30
0.0
 11
-165.865747757346
 21
-157.7823806458009
 31
0.0
  0
LINE
  5
B0
330
1F
100
AcDbEntity
  8
1
  6
Continuous
 62
     7
100
AcDbLine
 10
-218.48527513002
 20
-162.1676622744756
 30
0.0
 11
-218.48527513002
 21
-362.1676622744756
 31
0.0
  0
LINE
  5
B1
330
1F
100
AcDbEntity
  8
1
  6
DOT_CENTER
 62
     2
100
AcDbLine
 10
-218.48527513002
 20
-162.1676622744756
 30
0.0
 11
-189.48527513002
 21
-162.1676622744756
 31
0.0
  0
LINE
  5
B2
330
1F
100
AcDbEntity
  8
1
  6
DOT_CENTER
 62
     2
100
AcDbLine
 10
-218.48527513002
 20
-362.1676622744756
 30
0.0
 11
-189.48527513002
 21
-362.1676622744756
 31
0.0
  0
LINE
  5
B3
330
1F
100
AcDbEntity
  8
1
  6
Continuous
 62
     7
100
AcDbLine
 10
-189.48527513002
 20
-162.1676622744756
 30
0.0
 11
-189.48527513002
 21
-362.1676622744756
 31
0.0
  0
LINE
  5
B4
330
1F
100
AcDbEntity
  8
1
  6
DOT_CENTER
 62
     2
100
AcDbLine
 10
-189.48527513002
 20
-162.1676622744756
 30
0.0
 11
-165.865747757346
 21
-162.1676622744756
 31
0.0
  0
LINE
  5
B5
330
1F
100
AcDbEntity
  8
1
  6
DOT_CENTER
 62
     2
100
AcDbLine
 10
-189.48527513002
 20
-362.1676622744756
 30
0.0
 11
-165.865747757346
 21
-362.1676622744756
 31
0.0
  0
LINE
  5
B6
330
1F
100
AcDbEntity
  8
1
  6
DOT_CENTER
 62
     2
100
AcDbLine
 10
-151.9412511892806
 20
-162.1676622744756
 30
0.0
 11
-146.1794988440101
 21
-162.1676622744756
 31
0.0
  0
LINE
  5
B7
330
1F
100
AcDbEntity
  8
1
  6
DOT_CENTER
 62
     2
100
AcDbLine
 10
-148.939507815738
 20
-262.1676622744755
 30
0.0
 11
-85.6678715445693
 21
-262.1676622744755
 31
0.0
  0
LINE
  5
B8
330
1F
100
AcDbEntity
  8
1
  6
DOT_CENTER
 62
     2
100
AcDbLine
 10
-151.9412511892806
 20
-362.1676622744756
 30
0.0
 11
-146.1794988440101
 21
-362.1676622744756
 31
0.0
  0
LINE
  5
B9
330
1F
100
AcDbEntity
  8
1
  6
Continuous
 62
     7
100
AcDbLine
 10
-146.1794988440101
 20
-162.1676622744756
 30
0.0
 11
-146.1794988440101
 21
-282.1676622744756
 31
0.0
  0
LINE
  5
BA
330
1F
100
AcDbEntity
  8
1
  6
DOT_CENTER
 62
     2
100
AcDbLine
 10
-146.1794988440101
 20
-162.1676622744756
 30
0.0
 11
-103.1777554704675
 21
-162.1676622744756
 31
0.0
  0
LINE
  5
BB
330
1F
100
AcDbEntity
  8
1
  6
DOT_CENTER
 62
     2
100
AcDbLine
 10
-146.1794988440101
 20
-362.1676622744756
 30
0.0
 11
-103.1777554704675
 21
-362.1676622744756
 31
0.0
  0
LINE
  5
BC
330
1F
100
AcDbEntity
  8
1
  6
Continuous
 62
     7
100
AcDbLine
 10
-90.17775547046742
 20
-362.1676622744756
 30
0.0
 11
-90.17775547046742
 21
-162.1676622744756
 31
0.0
  0
LINE
  5
BD
330
1F
100
AcDbEntity
  8
1
  6
DOT_CENTER
 62
     2
100
AcDbLine
 10
-90.17775547046742
 20
-162.1676622744756
 30
0.0
 11
-85.6678715445693
 21
-162.1676622744756
 31
0.0
  0
LINE
  5
BE
330
1F
100
AcDbEntity
  8
1
  6
DOT_CENTER
 62
     2
100
AcDbLine
 10
-90.17775547046742
 20
-362.1676622744756
 30
0.0
 11
-85.6678715445693
 21
-362.1676622744756
 31
0.0
  0
LINE
  5
BF
330
1F
100
AcDbEntity
  8
1
  6
Continuous
 62
     7
100
AcDbLine
 10
-103.1777554704675
 20
-162.1676622744756
 30
0.0
 11
-103.1777554704675
 21
-184.6676622744755
 31
0.0
  0
LINE
  5
C0
330
1F
100
AcDbEntity
  8
1
  6
DOT_CENTER
 62
     2
100
AcDbLine
 10
-103.1777554704675
 20
-162.1676622744756
 30
0.0
 11
-90.17775547046742
 21
-162.1676622744756
 31
0.0
  0
LINE
  5
C1
330
1F
100
AcDbEntity
  8
1
  6
DOT_CENTER
 62
     2
100
AcDbLine
 10
-103.1777554704675
 20
-362.1676622744756
 30
0.0
 11
-90.17775547046742
 21
-362.1676622744756
 31
0.0
  0
LINE
  5
C2
330
1F
100
AcDbEntity
  8
1
  6
Continuous
 62
     7
100
AcDbLine
 10
-103.1777554704675
 20
-184.6676622744755
 30
0.0
 11
-113.1777554704675
 21
-184.6676622744755
 31
0.0
  0
LINE
  5
C3
330
1F
100
AcDbEntity
  8
1
  6
Continuous
 62
     7
100
AcDbLine
 10
-103.1777554704675
 20
-184.6676622744755
 30
0.0
 11
-103.1777554704675
 21
-339.6676622744756
 31
0.0
  0
LINE
  5
C4
330
1F
100
AcDbEntity
  8
1
  6
Continuous
 62
     7
100
AcDbLine
 10
-113.1777554704675
 20
-184.6676622744755
 30
0.0
 11
-113.1777554704675
 21
-196.1676622744755
 31
0.0
  0
LINE
  5
C5
330
1F
100
AcDbEntity
  8
1
  6
Continuous
 62
     7
100
AcDbLine
 10
-118.1777554704674
 20
-196.1676622744755
 30
0.0
 11
-127.1777554704675
 21
-196.1676622744755
 31
0.0
  0
LINE
  5
C6
330
1F
100
AcDbEntity
  8
1
  6
Continuous
 62
     7
100
AcDbLine
 10
-127.1777554704675
 20
-196.1676622744755
 30
0.0
 11
-127.1788376057396
 21
-242.1676622744755
 31
0.0
  0
LINE
  5
C7
330
1F
100
AcDbEntity
  8
1
  6
Continuous
 62
     7
100
AcDbLine
 10
-127.1808607282048
 20
-328.1676622744755
 30
0.0
 11
-118.1777554704674
 21
-328.1676622744756
 31
0.0
  0
LINE
  5
C8
330
1F
100
AcDbEntity
  8
1
  6
Continuous
 62
     7
100
AcDbLine
 10
-113.1777554704675
 20
-328.1676622744756
 30
0.0
 11
-113.1777554704675
 21
-339.6676622744756
 31
0.0
  0
LINE
  5
C9
330
1F
100
AcDbEntity
  8
1
  6
Continuous
 62
     7
100
AcDbLine
 10
-113.1777554704675
 20
-339.6676622744756
 30
0.0
 11
-103.1777554704675
 21
-339.6676622744756
 31
0.0
  0
LINE
  5
CA
330
1F
100
AcDbEntity
  8
1
  6
Continuous
 62
     7
100
AcDbLine
 10
-103.1777554704675
 20
-339.6676622744756
 30
0.0
 11
-103.1777554704675
 21
-362.1676622744756
 31
0.0
  0
LINE
  5
CB
330
1F
100
AcDbEntity
  8
1
  6
Continuous
 62
     7
100
AcDbLine
 10
-113.1777554704675
 20
-328.1676622744756
 30
0.0
 11
-113.1777554704675
 21
-318.1676622744756
 31
0.0
  0
LINE
  5
CC
330
1F
100
AcDbEntity
  8
1
  6
Continuous
 62
     7
100
AcDbLine
 10
-113.1777554704675
 20
-196.1676622744755
 30
0.0
 11
-113.1777554704675
 21
-318.1676622744756
 31
0.0
  0
LINE
  5
CD
330
1F
100
AcDbEntity
  8
1
  6
Continuous
 62
     7
100
AcDbLine
 10
-212.48527513002
 20
-319.1676622744756
 30
0.0
 11
-212.48527513002
 21
-205.1676622744755
 31
0.0
  0
LINE
  5
CE
330
1F
100
AcDbEntity
  8
1
  6
Continuous
 62
     7
100
AcDbLine
 10
-194.48527513002
 20
-329.1676622744756
 30
0.0
 11
-194.48527513002
 21
-319.1676622744756
 31
0.0
  0
LINE
  5
CF
330
1F
100
AcDbEntity
  8
1
  6
Continuous
 62
     7
100
AcDbLine
 10
-215.48527513002
 20
-329.1676622744756
 30
0.0
 11
-215.48527513002
 21
-195.1676622744755
 31
0.0
  0
LINE
  5
D0
330
1F
100
AcDbEntity
  8
1
  6
DOT_CENTER
 62
     2
100
AcDbLine
 10
-216.9969396839142
 20
-195.1676622744755
 30
0.0
 11
-193.2323067232412
 21
-195.1676622744755
 31
0.0
  0
LINE
  5
D1
330
1F
100
AcDbEntity
  8
1
  6
DOT_CENTER
 62
     2
100
AcDbLine
 10
-205.48527513002
 20
-343.124684663939
 30
0.0
 11
-205.48527513002
 21
-181.2106398850121
 31
0.0
  0
LINE
  5
D2
330
1F
100
AcDbEntity
  8
1
  6
DOT_CENTER
 62
     2
100
AcDbLine
 10
-216.9969396839142
 20
-329.179573792774
 30
0.0
 11
-200.78527513002
 21
-329.179573792774
 31
0.0
  0
LINE
  5
D3
330
1F
100
AcDbEntity
  8
1
  6
DOT_CENTER
 62
     2
100
AcDbLine
 10
-223.9760574545289
 20
-262.1676622744755
 30
0.0
 11
-186.2424274446892
 21
-262.1676622744755
 31
0.0
  0
LINE
  5
D4
330
1F
100
AcDbEntity
  8
1
  6
DOT_CENTER
 62
     2
100
AcDbLine
 10
-203.48527513002
 20
-193.3528943823472
 30
0.0
 11
-203.48527513002
 21
-330.4660235067105
 31
0.0
  0
LINE
  5
D5
330
1F
100
AcDbEntity
  8
1
  6
DOT_CENTER
 62
     2
100
AcDbLine
 10
-213.3150541343012
 20
-319.6676622744756
 30
0.0
 11
-192.3857621021282
 21
-319.6676622744756
 31
0.0
  0
LINE
  5
D6
330
1F
100
AcDbEntity
  8
1
  6
DOT_CENTER
 62
     2
100
AcDbLine
 10
-214.9306215470122
 20
-204.6676622744755
 30
0.0
 11
-192.5088755846702
 21
-204.6676622744755
 31
0.0
  0
LINE
  5
D7
330
1F
100
AcDbEntity
  8
1
  6
DOT_CENTER
 62
     2
100
AcDbLine
 10
-167.3759768185862
 20
-262.1676622744755
 30
0.0
 11
-162.2143097420498
 21
-262.1676622744755
 31
0.0
  0
LINE
  5
D8
330
1F
100
AcDbEntity
  8
1
  6
Continuous
 62
     7
100
AcDbLine
 10
-194.48527513002
 20
-196.1676622744755
 30
0.0
 11
-194.48527513002
 21
-195.1676622744755
 31
0.0
  0
LINE
  5
D9
330
1F
100
AcDbEntity
  8
1
  6
Continuous
 62
     7
100
AcDbLine
 10
-194.48527513002
 20
-319.1676622744756
 30
0.0
 11
-194.48527513002
 21
-195.1676622744755
 31
0.0
  0
LINE
  5
DA
330
1F
100
AcDbEntity
  8
1
  6
DOT_CENTER
 62
     2
100
AcDbLine
 10
-165.865747757346
 20
-358.047628711693
 30
0.0
 11
-165.865747757346
 21
-362.1676622744756
 31
0.0
  0
LINE
  5
DB
330
1F
100
AcDbEntity
  8
1
  6
DOT_CENTER
 62
     2
100
AcDbLine
 10
114.4799220554228
 20
-357.1676622744756
 30
0.0
 11
114.4799220554228
 21
-282.1676622744756
 31
0.0
  0
LINE
  5
DC
330
1F
100
AcDbEntity
  8
1
  6
Continuous
 62
     7
100
AcDbLine
 10
96.47992205542275
 20
-322.1676622744756
 30
0.0
 11
96.47992205542275
 21
-282.1676622744756
 31
0.0
  0
LINE
  5
DD
330
1F
100
AcDbEntity
  8
1
  6
Continuous
 62
     7
100
AcDbLine
 10
114.4799220554228
 20
-282.1676622744756
 30
0.0
 11
96.47992205542275
 21
-282.1676622744756
 31
0.0
  0
LINE
  5
DE
330
1F
100
AcDbEntity
  8
1
  6
DOT_CENTER
 62
     2
100
AcDbLine
 10
114.4799220554228
 20
-282.1676622744756
 30
0.0
 11
114.4799220554228
 21
-242.1676622744755
 31
0.0
  0
LINE
  5
DF
330
1F
100
AcDbEntity
  8
1
  6
Continuous
 62
     7
100
AcDbLine
 10
96.47992205542275
 20
-282.1676622744756
 30
0.0
 11
96.47992205542275
 21
-242.1676622744755
 31
0.0
  0
LINE
  5
E0
330
1F
100
AcDbEntity
  8
1
  6
Continuous
 62
     7
100
AcDbLine
 10
96.47992205542275
 20
-242.1676622744755
 30
0.0
 11
114.4799220554228
 21
-242.1676622744755
 31
0.0
  0
LINE
  5
E1
330
1F
100
AcDbEntity
  8
1
  6
DOT_CENTER
 62
     2
100
AcDbLine
 10
166.0547908136769
 20
-239.8112820012471
 30
0.0
 11
166.0547908136769
 21
-262.1676622744755
 31
0.0
  0
LINE
  5
E2
330
1F
100
AcDbEntity
  8
1
  6
DOT_CENTER
 62
     2
100
AcDbLine
 10
166.0547908136769
 20
-179.1108443061848
 30
0.0
 11
166.0547908136769
 21
-233.7488998450768
 31
0.0
  0
LINE
  5
E3
330
1F
100
AcDbEntity
  8
1
  6
DOT_CENTER
 62
     2
100
AcDbLine
 10
165.0547908136769
 20
-233.6377841752895
 30
0.0
 11
165.0547908136769
 21
-197.6570180082861
 31
0.0
  0
LINE
  5
E4
330
1F
100
AcDbEntity
  8
1
  6
DOT_CENTER
 62
     2
100
AcDbLine
 10
163.8047908136769
 20
-333.1676622744756
 30
0.0
 11
168.3047908136769
 21
-333.1676622744756
 31
0.0
  0
LINE
  5
E5
330
1F
100
AcDbEntity
  8
1
  6
DOT_CENTER
 62
     2
100
AcDbLine
 10
163.8047908136769
 20
-191.1676622744755
 30
0.0
 11
168.3047908136769
 21
-191.1676622744755
 31
0.0
  0
LINE
  5
E6
330
1F
100
AcDbEntity
  8
1
  6
Continuous
 62
     7
100
AcDbLine
 10
175.0547908136769
 20
-193.6676622744755
 30
0.0
 11
175.0547908136769
 21
-262.1676622744755
 31
0.0
  0
LINE
  5
E7
330
1F
100
AcDbEntity
  8
1
  6
Continuous
 62
     7
100
AcDbLine
 10
79.47992205542275
 20
-202.1676622744755
 30
0.0
 11
79.47992205542275
 21
-322.1676622744756
 31
0.0
  0
LINE
  5
E8
330
1F
100
AcDbEntity
  8
1
  6
DOT_CENTER
 62
     2
100
AcDbLine
 10
92.62402318141378
 20
-262.1676622744755
 30
0.0
 11
118.5843817181721
 21
-262.1676622744755
 31
0.0
  0
LINE
  5
E9
330
1F
100
AcDbEntity
  8
1
  6
DOT_CENTER
 62
     2
100
AcDbLine
 10
114.4799220554228
 20
-163.1248624046546
 30
0.0
 11
114.4799220554228
 21
-167.1676622744755
 31
0.0
  0
LINE
  5
EA
330
1F
100
AcDbEntity
  8
1
  6
DOT_CENTER
 62
     2
100
AcDbLine
 10
114.4799220554228
 20
-366.6555518933656
 30
0.0
 11
114.4799220554228
 21
-357.1676622744756
 31
0.0
  0
LINE
  5
EB
330
1F
100
AcDbEntity
  8
1
  6
DOT_CENTER
 62
     2
100
AcDbLine
 10
114.4799220554228
 20
-242.1676622744755
 30
0.0
 11
114.4799220554228
 21
-167.1676622744755
 31
0.0
  0
LINE
  5
EC
330
1F
100
AcDbEntity
  8
1
  6
Continuous
 62
     7
100
AcDbLine
 10
69.47992205542275
 20
-357.1676622744756
 30
0.0
 11
69.47992205542275
 21
-339.6676622744756
 31
0.0
  0
LINE
  5
ED
330
1F
100
AcDbEntity
  8
1
  6
Continuous
 62
     7
100
AcDbLine
 10
69.47992205542275
 20
-339.6676622744756
 30
0.0
 11
79.47992205542275
 21
-339.6676622744756
 31
0.0
  0
LINE
  5
EE
330
1F
100
AcDbEntity
  8
1
  6
Continuous
 62
     7
100
AcDbLine
 10
79.47992205542275
 20
-339.6676622744756
 30
0.0
 11
79.47992205542275
 21
-322.1676622744756
 31
0.0
  0
LINE
  5
EF
330
1F
100
AcDbEntity
  8
1
  6
Continuous
 62
     7
100
AcDbLine
 10
79.47992205542275
 20
-322.1676622744756
 30
0.0
 11
96.47992205542275
 21
-322.1676622744756
 31
0.0
  0
LINE
  5
F0
330
1F
100
AcDbEntity
  8
1
  6
Continuous
 62
     7
100
AcDbLine
 10
96.47992205542275
 20
-242.1676622744755
 30
0.0
 11
96.47992205542275
 21
-202.1676622744755
 31
0.0
  0
LINE
  5
F1
330
1F
100
AcDbEntity
  8
1
  6
Continuous
 62
     7
100
AcDbLine
 10
96.47992205542275
 20
-202.1676622744755
 30
0.0
 11
79.47992205542275
 21
-202.1676622744755
 31
0.0
  0
LINE
  5
F2
330
1F
100
AcDbEntity
  8
1
  6
Continuous
 62
     7
100
AcDbLine
 10
79.47992205542275
 20
-202.1676622744755
 30
0.0
 11
79.47992205542275
 21
-184.6676622744756
 31
0.0
  0
LINE
  5
F3
330
1F
100
AcDbEntity
  8
1
  6
Continuous
 62
     7
100
AcDbLine
 10
69.47992205542275
 20
-339.6676622744756
 30
0.0
 11
69.47992205542275
 21
-184.6676622744756
 31
0.0
  0
LINE
  5
F4
330
1F
100
AcDbEntity
  8
1
  6
Continuous
 62
     7
100
AcDbLine
 10
79.47992205542275
 20
-184.6676622744756
 30
0.0
 11
69.47992205542275
 21
-184.6676622744756
 31
0.0
  0
LINE
  5
F5
330
1F
100
AcDbEntity
  8
1
  6
Continuous
 62
     7
100
AcDbLine
 10
69.47992205542275
 20
-184.6676622744756
 30
0.0
 11
69.47992205542275
 21
-167.1676622744755
 31
0.0
  0
LINE
  5
F6
330
1F
100
AcDbEntity
  8
1
  6
DOT_CENTER
 62
     2
100
AcDbLine
 10
67.41500009535989
 20
-357.1676622744756
 30
0.0
 11
69.47992205542275
 21
-357.1676622744756
 31
0.0
  0
LINE
  5
F7
330
1F
100
AcDbEntity
  8
1
  6
DOT_CENTER
 62
     2
100
AcDbLine
 10
69.47992205542275
 20
-357.1676622744756
 30
0.0
 11
114.4799220554228
 21
-357.1676622744756
 31
0.0
  0
LINE
  5
F8
330
1F
100
AcDbEntity
  8
1
  6
DOT_CENTER
 62
     2
100
AcDbLine
 10
109.4799220554228
 20
-357.1676622744756
 30
0.0
 11
115.6190844674885
 21
-357.1676622744756
 31
0.0
  0
LINE
  5
F9
330
1F
100
AcDbEntity
  8
1
  6
DOT_CENTER
 62
     2
100
AcDbLine
 10
67.41500009535989
 20
-167.1676622744755
 30
0.0
 11
69.47992205542275
 21
-167.1676622744755
 31
0.0
  0
LINE
  5
FA
330
1F
100
AcDbEntity
  8
1
  6
DOT_CENTER
 62
     2
100
AcDbLine
 10
69.47992205542275
 20
-167.1676622744755
 30
0.0
 11
114.4799220554228
 21
-167.1676622744755
 31
0.0
  0
LINE
  5
FB
330
1F
100
AcDbEntity
  8
1
  6
DOT_CENTER
 62
     2
100
AcDbLine
 10
109.4799220554228
 20
-167.1676622744755
 30
0.0
 11
115.6190844674885
 21
-167.1676622744755
 31
0.0
  0
LINE
  5
FC
330
1F
100
AcDbEntity
  8
1
  6
DOT_CENTER
 62
     2
100
AcDbLine
 10
179.0547908136769
 20
-357.1676622744756
 30
0.0
 11
185.7374997562303
 21
-357.1676622744756
 31
0.0
  0
LINE
  5
FD
330
1F
100
AcDbEntity
  8
1
  6
DOT_CENTER
 62
     2
100
AcDbLine
 10
179.0547908136769
 20
-167.1676622744755
 30
0.0
 11
185.7374997562303
 21
-167.1676622744755
 31
0.0
  0
LINE
  5
FE
330
1F
100
AcDbEntity
  8
1
  6
Continuous
 62
     7
100
AcDbLine
 10
179.0547908136769
 20
-357.1676622744756
 30
0.0
 11
179.0547908136769
 21
-193.6676622744755
 31
0.0
  0
LINE
  5
FF
330
1F
100
AcDbEntity
  8
1
  6
DOT_CENTER
 62
     2
100
AcDbLine
 10
155.0547908136769
 20
-357.1676622744756
 30
0.0
 11
179.0547908136769
 21
-357.1676622744756
 31
0.0
  0
LINE
  5
100
330
1F
100
AcDbEntity
  8
1
  6
DOT_CENTER
 62
     2
100
AcDbLine
 10
155.0547908136769
 20
-167.1676622744755
 30
0.0
 11
179.0547908136769
 21
-167.1676622744755
 31
0.0
  0
LINE
  5
101
330
1F
100
AcDbEntity
  8
1
  6
Continuous
 62
     7
100
AcDbLine
 10
155.0547908136769
 20
-357.1676622744756
 30
0.0
 11
155.0547908136769
 21
-167.1676622744755
 31
0.0
  0
LINE
  5
102
330
1F
100
AcDbEntity
  8
1
  6
DOT_CENTER
 62
     2
100
AcDbLine
 10
136.5463063100993
 20
-357.1676622744756
 30
0.0
 11
139.0547908136769
 21
-357.1676622744756
 31
0.0
  0
LINE
  5
103
330
1F
100
AcDbEntity
  8
1
  6
DOT_CENTER
 62
     2
100
AcDbLine
 10
136.5463063100993
 20
-167.1676622744755
 30
0.0
 11
139.0547908136769
 21
-167.1676622744755
 31
0.0
  0
LINE
  5
104
330
1F
100
AcDbEntity
  8
1
  6
Continuous
 62
     7
100
AcDbLine
 10
157.0547908136769
 20
-193.6676622744755
 30
0.0
 11
157.0547908136769
 21
-262.1676622744755
 31
0.0
  0
LINE
  5
105
330
1F
100
AcDbEntity
  8
1
  6
DOT_CENTER
 62
     2
100
AcDbLine
 10
150.3911366562253
 20
-193.6676622744755
 30
0.0
 11
179.0547908136769
 21
-193.6676622744755
 31
0.0
  0
LINE
  5
106
330
1F
100
AcDbEntity
  8
1
  6
Continuous
 62
     7
100
AcDbLine
 10
179.0547908136769
 20
-193.6676622744755
 30
0.0
 11
179.0547908136769
 21
-167.1676622744755
 31
0.0
  0
LINE
  5
107
330
1F
100
AcDbEntity
  8
1
  6
DOT_CENTER
 62
     2
100
AcDbLine
 10
166.0547908136769
 20
-262.1676622744755
 30
0.0
 11
173.0547908136769
 21
-262.1676622744755
 31
0.0
  0
LINE
  5
108
330
1F
100
AcDbEntity
  8
1
  6
Continuous
 62
     7
100
AcDbLine
 10
173.0547908136769
 20
-210.1676622744755
 30
0.0
 11
173.0547908136769
 21
-262.1676622744755
 31
0.0
  0
LINE
  5
109
330
1F
100
AcDbEntity
  8
1
  6
DOT_CENTER
 62
     2
100
AcDbLine
 10
173.0547908136769
 20
-262.1676622744755
 30
0.0
 11
181.7374997562303
 21
-262.1676622744755
 31
0.0
  0
LINE
  5
10A
330
1F
100
AcDbEntity
  8
1
  6
Continuous
 62
     7
100
AcDbLine
 10
179.0547908136769
 20
-330.6676622744756
 30
0.0
 11
179.0547908136769
 21
-167.1676622744755
 31
0.0
  0
LINE
  5
10B
330
1F
100
AcDbEntity
  8
1
  6
Continuous
 62
     7
100
AcDbLine
 10
173.0547908136769
 20
-262.1676622744755
 30
0.0
 11
173.0547908136769
 21
-314.1676622744756
 31
0.0
  0
LINE
  5
10C
330
1F
100
AcDbEntity
  8
1
  6
Continuous
 62
     7
100
AcDbLine
 10
157.0547908136769
 20
-262.1676622744755
 30
0.0
 11
157.0547908136769
 21
-330.6676622744756
 31
0.0
  0
LINE
  5
10D
330
1F
100
AcDbEntity
  8
1
  6
Continuous
 62
     7
100
AcDbLine
 10
175.0547908136769
 20
-262.1676622744755
 30
0.0
 11
175.0547908136769
 21
-330.6676622744756
 31
0.0
  0
LINE
  5
10E
330
1F
100
AcDbEntity
  8
1
  6
DOT_CENTER
 62
     2
100
AcDbLine
 10
166.0547908136769
 20
-262.1676622744755
 30
0.0
 11
166.0547908136769
 21
-344.6676622744756
 31
0.0
  0
LINE
  5
10F
330
1F
100
AcDbEntity
  8
1
  6
DOT_CENTER
 62
     2
100
AcDbLine
 10
179.0547908136769
 20
-330.6676622744756
 30
0.0
 11
172.3547908136769
 21
-330.6676622744756
 31
0.0
  0
LINE
  5
110
330
1F
100
AcDbEntity
  8
1
  6
DOT_CENTER
 62
     2
100
AcDbLine
 10
139.0547908136769
 20
-357.1676622744756
 30
0.0
 11
155.0547908136769
 21
-357.1676622744756
 31
0.0
  0
LINE
  5
111
330
1F
100
AcDbEntity
  8
1
  6
DOT_CENTER
 62
     2
100
AcDbLine
 10
165.0547908136769
 20
-325.722048273202
 30
0.0
 11
165.0547908136769
 21
-239.5561835393318
 31
0.0
  0
LINE
  5
112
330
1F
100
AcDbEntity
  8
1
  6
DOT_CENTER
 62
     2
100
AcDbLine
 10
155.7864268025303
 20
-210.1676622744755
 30
0.0
 11
174.4654132390625
 21
-210.1676622744755
 31
0.0
  0
LINE
  5
113
330
1F
100
AcDbEntity
  8
1
  6
DOT_CENTER
 62
     2
100
AcDbLine
 10
155.8302185795327
 20
-314.1676622744756
 30
0.0
 11
174.1098833884838
 21
-314.1676622744756
 31
0.0
  0
LINE
  5
114
330
1F
100
AcDbEntity
  8
1
  6
Continuous
 62
     7
100
AcDbLine
 10
-196.48527513002
 20
-274.1676622744756
 30
0.0
 11
-196.48527513002
 21
-250.1676622744755
 31
0.0
  0
LINE
  5
115
330
1F
100
AcDbEntity
  8
1
  6
DOT_CENTER
 62
     2
100
AcDbLine
 10
-204.48527513002
 20
-240.735883707337
 30
0.0
 11
-204.48527513002
 21
-283.735883707337
 31
0.0
  0
LINE
  5
116
330
1F
100
AcDbEntity
  8
1
  6
Continuous
 62
     7
100
AcDbLine
 10
-25.48918314591939
 20
-329.2422023370501
 30
0.0
 11
-55.48918314591939
 21
-329.2422023370501
 31
0.0
  0
LINE
  5
117
330
1F
100
AcDbEntity
  8
1
  6
Continuous
 62
     7
100
AcDbLine
 10
-55.48918314591939
 20
-329.2422023370501
 30
0.0
 11
-55.48918314591939
 21
-319.2422023370501
 31
0.0
  0
LINE
  5
118
330
1F
100
AcDbEntity
  8
1
  6
Continuous
 62
     7
100
AcDbLine
 10
-55.48918314591939
 20
-319.2422023370501
 30
0.0
 11
-25.48918314591939
 21
-319.2422023370501
 31
0.0
  0
LINE
  5
119
330
1F
100
AcDbEntity
  8
1
  6
Continuous
 62
     7
100
AcDbLine
 10
-25.48918314591939
 20
-319.2422023370501
 30
0.0
 11
-25.48918314591939
 21
-329.2422023370501
 31
0.0
  0
LINE
  5
11A
330
1F
100
AcDbEntity
  8
1
  6
Continuous
 62
     7
100
AcDbLine
 10
-55.48918314591939
 20
-319.2422023370501
 30
0.0
 11
-25.48918314591939
 21
-319.2422023370501
 31
0.0
  0
LINE
  5
11B
330
1F
100
AcDbEntity
  8
1
  6
Continuous
 62
     7
100
AcDbLine
 10
-127.1788376057396
 20
-242.1676622744755
 30
0.0
 11
-127.1797785929327
 21
-282.1676622744756
 31
0.0
  0
LINE
  5
11C
330
1F
100
AcDbEntity
  8
1
  6
Continuous
 62
     7
100
AcDbLine
 10
-127.1797785929327
 20
-282.1676622744756
 30
0.0
 11
-142.1788376098902
 21
-282.1676622744756
 31
0.0
  0
LINE
  5
11D
330
1F
100
AcDbEntity
  8
1
  6
Continuous
 62
     7
100
AcDbLine
 10
-146.1794988440101
 20
-282.1676622744756
 30
0.0
 11
-146.1794988440101
 21
-362.1676622744756
 31
0.0
  0
LINE
  5
11E
330
1F
100
AcDbEntity
  8
1
  6
Continuous
 62
     7
100
AcDbLine
 10
-127.1797785929327
 20
-282.1676622744756
 30
0.0
 11
-127.1808607282048
 21
-328.1676622744755
 31
0.0
  0
LINE
  5
11F
330
1F
100
AcDbEntity
  8
1
  6
Continuous
 62
     7
100
AcDbLine
 10
29.01081685408047
 20
-312.2422023370501
 30
0.0
 11
47.01081685408061
 21
-312.2422023370501
 31
0.0
  0
LINE
  5
120
330
1F
100
AcDbEntity
  8
1
  6
PHANTOM
 62
     2
100
AcDbLine
 10
47.01081685408061
 20
-312.2422023370501
 30
0.0
 11
47.01081685408061
 21
-294.2422023370501
 31
0.0
  0
LINE
  5
121
330
1F
100
AcDbEntity
  8
1
  6
Continuous
 62
     7
100
AcDbLine
 10
47.01081685408061
 20
-328.2422023370501
 30
0.0
 11
29.01081685408047
 21
-328.2422023370501
 31
0.0
  0
LINE
  5
122
330
1F
100
AcDbEntity
  8
1
  6
PHANTOM
 62
     2
100
AcDbLine
 10
47.01081685408061
 20
-328.2422023370501
 30
0.0
 11
47.01081685408061
 21
-312.2422023370501
 31
0.0
  0
LINE
  5
123
330
1F
100
AcDbEntity
  8
1
  6
Continuous
 62
     7
100
AcDbLine
 10
139.0547908136769
 20
-252.5288628312051
 30
0.0
 11
139.0547908136769
 21
-339.3966316017699
 31
0.0
  0
LINE
  5
124
330
1F
100
AcDbEntity
  8
1
  6
DOT_CENTER
 62
     2
100
AcDbLine
 10
-197.18527513002
 20
-329.179573792774
 30
0.0
 11
-192.5642830670562
 21
-329.179573792774
 31
0.0
  0
LINE
  5
125
330
1F
100
AcDbEntity
  8
1
  6
DOT_CENTER
 62
     2
100
AcDbLine
 10
172.3547908136769
 20
-330.6676622744756
 30
0.0
 11
168.7547908136769
 21
-330.6676622744756
 31
0.0
  0
LINE
  5
126
330
1F
100
AcDbEntity
  8
1
  6
Continuous
 62
     7
100
AcDbLine
 10
139.0547908136769
 20
-350.2689671152735
 30
0.0
 11
139.0547908136769
 21
-357.1676622744756
 31
0.0
  0
LINE
  5
127
330
1F
100
AcDbEntity
  8
1
  6
DOT_CENTER
 62
     2
100
AcDbLine
 10
168.7547908136769
 20
-330.6676622744756
 30
0.0
 11
168.7547908136769
 21
-322.9917615951507
 31
0.0
  0
LINE
  5
128
330
1F
100
AcDbEntity
  8
1
  6
DOT_CENTER
 62
     2
100
AcDbLine
 10
168.7547908136769
 20
-330.6676622744756
 30
0.0
 11
150.3911366562253
 21
-330.6676622744756
 31
0.0
  0
LINE
  5
129
330
1F
100
AcDbEntity
  8
1
  6
DOT_CENTER
 62
     2
100
AcDbLine
 10
168.7547908136769
 20
-330.6676622744756
 30
0.0
 11
168.7547908136769
 21
-338.6676622744756
 31
0.0
  0
LINE
  5
12A
330
1F
100
AcDbEntity
  8
1
  6
DOT_CENTER
 62
     2
100
AcDbLine
 10
-200.78527513002
 20
-329.179573792774
 30
0.0
 11
-200.78527513002
 21
-322.179573792774
 31
0.0
  0
LINE
  5
12B
330
1F
100
AcDbEntity
  8
1
  6
DOT_CENTER
 62
     2
100
AcDbLine
 10
-200.78527513002
 20
-329.179573792774
 30
0.0
 11
-197.18527513002
 21
-329.179573792774
 31
0.0
  0
LINE
  5
12C
330
1F
100
AcDbEntity
  8
1
  6
DOT_CENTER
 62
     2
100
AcDbLine
 10
-200.78527513002
 20
-329.179573792774
 30
0.0
 11
-200.78527513002
 21
-337.179573792774
 31
0.0
  0
ARC
  5
12D
330
1F
100
AcDbEntity
  8
1
  6
Continuous
 62
     7
100
AcDbCircle
 10
165.0547908136769
 20
-274.1676622744756
 30
0.0
 40
8.0
100
AcDbArc
 50
180.0
 51
0.0
  0
ARC
  5
12E
330
1F
100
AcDbEntity
  8
1
  6
Continuous
 62
     7
100
AcDbCircle
 10
165.0547908136769
 20
-250.1676622744755
 30
0.0
 40
8.0
100
AcDbArc
 50
0.0
 51
180.0
  0
ARC
  5
12F
330
1F
100
AcDbEntity
  8
1
  6
Continuous
 62
     7
100
AcDbCircle
 10
166.0547908136769
 20
-193.6676622744755
 30
0.0
 40
9.0
100
AcDbArc
 50
90.0
 51
180.0
  0
ARC
  5
130
330
1F
100
AcDbEntity
  8
1
  6
Continuous
 62
     7
100
AcDbCircle
 10
165.0547908136769
 20
-210.1676622744755
 30
0.0
 40
8.0
100
AcDbArc
 50
90.0
 51
180.0
  0
ARC
  5
131
330
1F
100
AcDbEntity
  8
1
  6
Continuous
 62
     7
100
AcDbCircle
 10
165.0547908136769
 20
-314.1676622744756
 30
0.0
 40
8.0
100
AcDbArc
 50
270.0
 51
0.0
  0
ARC
  5
132
330
1F
100
AcDbEntity
  8
1
  6
Continuous
 62
     7
100
AcDbCircle
 10
166.0547908136769
 20
-330.6676622744756
 30
0.0
 40
9.0
100
AcDbArc
 50
270.0
 51
0.0
  0
ARC
  5
133
330
1F
100
AcDbEntity
  8
1
  6
Continuous
 62
     7
100
AcDbCircle
 10
166.0547908136769
 20
-193.6676622744755
 30
0.0
 40
9.0
100
AcDbArc
 50
0.0
 51
90.0
  0
ARC
  5
134
330
1F
100
AcDbEntity
  8
1
  6
Continuous
 62
     7
100
AcDbCircle
 10
166.0547908136769
 20
-330.6676622744756
 30
0.0
 40
9.0
100
AcDbArc
 50
180.0
 51
270.0
  0
ARC
  5
135
330
1F
100
AcDbEntity
  8
1
  6
Continuous
 62
     7
100
AcDbCircle
 10
165.0547908136769
 20
-210.1676622744755
 30
0.0
 40
8.0
100
AcDbArc
 50
0.0
 51
90.0
  0
ARC
  5
136
330
1F
100
AcDbEntity
  8
1
  6
Continuous
 62
     7
100
AcDbCircle
 10
165.0547908136769
 20
-314.1676622744756
 30
0.0
 40
8.0
100
AcDbArc
 50
180.0
 51
270.0
  0
ARC
  5
137
330
1F
100
AcDbEntity
  8
1
  6
Continuous
 62
     7
100
AcDbCircle
 10
-204.48527513002
 20
-250.1676622744755
 30
0.0
 40
8.0
100
AcDbArc
 50
90.0
 51
180.0
  0
ARC
  5
138
330
1F
100
AcDbEntity
  8
1
  6
Continuous
 62
     7
100
AcDbCircle
 10
-204.48527513002
 20
-274.1676622744756
 30
0.0
 40
8.0
100
AcDbArc
 50
270.0
 51
0.0
  0
ARC
  5
139
330
1F
100
AcDbEntity
  8
1
  6
Continuous
 62
     7
100
AcDbCircle
 10
-204.48527513002
 20
-250.1676622744755
 30
0.0
 40
8.0
100
AcDbArc
 50
0.0
 51
90.0
  0
ARC
  5
13A
330
1F
100
AcDbEntity
  8
1
  6
Continuous
 62
     7
100
AcDbCircle
 10
-204.48527513002
 20
-274.1676622744756
 30
0.0
 40
8.0
100
AcDbArc
 50
180.0
 51
270.0
  0
CIRCLE
  5
13B
330
1F
100
AcDbEntity
  8
1
  6
Continuous
 62
     7
100
AcDbCircle
 10
166.0547908136769
 20
-333.1676622744756
 30
0.0
 40
1.5
  0
CIRCLE
  5
13C
330
1F
100
AcDbEntity
  8
1
  6
Continuous
 62
     7
100
AcDbCircle
 10
166.0547908136769
 20
-191.1676622744755
 30
0.0
 40
1.5
  0
CIRCLE
  5
13D
330
1F
100
AcDbEntity
  8
1
  6
DOT_CENTER
 62
     2
100
AcDbCircle
 10
-200.78527513002
 20
-329.179573792774
 30
0.0
 40
6.300000000000011
  0
CIRCLE
  5
13E
330
1F
100
AcDbEntity
  8
1
  6
DOT_CENTER
 62
     2
100
AcDbCircle
 10
168.7547908136769
 20
-330.6676622744756
 30
0.0
 40
6.300000000000011
  0
XLINE
  5
13F
330
1F
100
AcDbEntity
  8
1
  6
DOT_CENTER
 62
     3
 60
     1
100
AcDbXline
 10
-223.9760574545289
 20
-262.1676622744755
 30
0.0
 11
1.0
 21
0.0
 31
0.0
  0
ARC
  5
140
330
1F
100
AcDbEntity
  8
1
  6
Continuous
 62
     7
100
AcDbCircle
 10
-204.98527513002
 20
-195.1676622744755
 30
0.0
 40
10.5
100
AcDbArc
 50
0.0
 51
90.0
  0
ARC
  5
141
330
1F
100
AcDbEntity
  8
1
  6
Continuous
 62
     7
100
AcDbCircle
 10
-204.98527513002
 20
-195.1676622744755
 30
0.0
 40
10.5
100
AcDbArc
 50
90.0
 51
180.0
  0
ARC
  5
142
330
1F
100
AcDbEntity
  8
1
  6
Continuous
 62
     7
100
AcDbCircle
 10
-204.98527513002
 20
-329.1676622744756
 30
0.0
 40
10.5
100
AcDbArc
 50
180.0
 51
270.0
  0
ARC
  5
143
330
1F
100
AcDbEntity
  8
1
  6
Continuous
 62
     7
100
AcDbCircle
 10
-204.98527513002
 20
-329.1676622744756
 30
0.0
 40
10.5
100
AcDbArc
 50
270.0
 51
0.0
  0
ARC
  5
144
330
1F
100
AcDbEntity
  8
1
  6
Continuous
 62
     7
100
AcDbCircle
 10
-203.48527513002
 20
-205.1676622744755
 30
0.0
 40
9.0
100
AcDbArc
 50
90.0
 51
180.0
  0
ARC
  5
145
330
1F
100
AcDbEntity
  8
1
  6
Continuous
 62
     7
100
AcDbCircle
 10
-203.48527513002
 20
-205.1676622744755
 30
0.0
 40
9.0
100
AcDbArc
 50
0.0
 51
90.0
  0
ARC
  5
146
330
1F
100
AcDbEntity
  8
1
  6
Continuous
 62
     7
100
AcDbCircle
 10
-203.48527513002
 20
-319.1676622744756
 30
0.0
 40
9.0
100
AcDbArc
 50
180.0
 51
270.0
  0
ARC
  5
147
330
1F
100
AcDbEntity
  8
1
  6
Continuous
 62
     7
100
AcDbCircle
 10
-203.48527513002
 20
-319.1676622744756
 30
0.0
 40
9.0
100
AcDbArc
 50
270.0
 51
0.0
  0
MTEXT
  5
149
330
1F
100
AcDbEntity
  8
1
 62
     2
100
AcDbMText
 10
-5.51877705182836
 20
-227.8444352827696
 30
0.0
 40
2.5
 41
0.0
 71
     5
 72
     1
  1
fixing plate\PTE240-3D FZ/1
  7
CONVERTER_11
 73
     1
 44
1.32052821128451
  0
MTEXT
  5
14A
330
1F
100
AcDbEntity
  8
1
 62
     3
100
AcDbMText
 10
-45.22416400921754
 20
-300.3017618654679
 30
0.0
 40
3.5
 41
0.0
 71
     5
 72
     1
  1
template\Pcasing frame
  7
CONVERTER_11
 73
     1
 44
1.32052821128451
  0
MTEXT
  5
14B
330
1F
100
AcDbEntity
  8
1
 62
     3
100
AcDbMText
 10
35.02957306277306
 20
-255.1676622744755
 30
0.0
 40
3.5
 41
0.0
 71
     5
 72
     1
  1
template\Pdoor panel
  7
CONVERTER_11
 73
     1
 44
1.32052821128451
  0
MTEXT
  5
14C
330
1F
100
AcDbEntity
  8
1
 62
     3
100
AcDbMText
 10
146.7316061808318
 20
-406.4209932167699
 30
0.0
 40
3.5
 41
0.0
 71
     5
 72
     1
  1
TECTUS TE240-3D Energy
  7
CONVERTER_11
 73
     1
 44
1.32052821128451
  0
DIMENSION
  5
157
330
1F
100
AcDbEntity
  8
1
100
AcDbDimension
  2
*D1
 10
29.01081685408047
 20
-270.5302751537187
 30
0.0
 11
36.53270760443007
 21
-266.7802751537187
 31
0.0
 70
    32
  1
min. 35mm (1.378``)
 71
     5
 42
-1.0
 53
0.00013888888889
  3
ME10_DIM_10
100
AcDbAlignedDimension
 13
47.01081685408061
 23
-294.2422023370501
 33
0.0
 14
29.01081685408047
 24
-312.2422023370501
 34
0.0
100
AcDbRotatedDimension
  0
DIMENSION
  5
162
330
1F
100
AcDbEntity
  8
1
100
AcDbDimension
  2
*D2
 10
89.67222342742375
 20
-282.1676622744755
 30
0.0
 11
85.92222342742375
 21
-262.1676622744755
 31
0.0
 70
    32
  1
<>``)
 71
     5
 42
-1.0
 53
90.0
  3
ME10_DIM_11
100
AcDbAlignedDimension
 13
96.47992205542275
 23
-242.1676622744755
 33
0.0
 14
96.47992205542275
 24
-282.1676622744756
 34
0.0
 50
90.0
100
AcDbRotatedDimension
  0
DIMENSION
  5
16E
330
1F
100
AcDbEntity
  8
1
100
AcDbDimension
  2
*D3
 10
-103.1777554704674
 20
-374.7551404409649
 30
0.0
 11
-148.1429111236976
 21
-371.0051404409649
 31
0.0
 70
    32
  1
15mm (0.591``)
 71
     5
 42
-1.0
 53
0.00013888888889
  3
ME10_DIM_12
100
AcDbAlignedDimension
 13
-118.1777554704674
 23
-339.6676622744756
 33
0.0
 14
-103.1777554704675
 24
-339.6676622744756
 34
0.0
100
AcDbRotatedDimension
  0
DIMENSION
  5
17B
330
1F
100
AcDbEntity
  8
1
100
AcDbDimension
  2
*D4
 10
-4.13944020120679
 20
-334.2422023370501
 30
0.0
 11
-7.88944020120679
 21
-351.2329078156322
 31
0.0
 70
    32
  1
3mm (0.118``)
 71
     5
 42
-1.0
 53
90.0
  3
ME10_DIM_13
100
AcDbAlignedDimension
 13
-11.48918314591939
 23
-331.2422023370501
 33
0.0
 14
-1.48918314591939
 24
-334.2422023370501
 34
0.0
 50
90.0
100
AcDbRotatedDimension
  0
DIMENSION
  5
187
330
1F
100
AcDbEntity
  8
1
100
AcDbDimension
  2
*D5
 10
58.13985735123487
 20
-310.2422023370501
 30
0.0
 11
54.38985735123487
 21
-290.2669403170897
 31
0.0
 70
    32
  1
24mm (0.945``)
 71
     5
 42
-1.0
 53
90.0
  3
ME10_DIM_14
100
AcDbAlignedDimension
 13
47.01081685408061
 23
-334.2422023370501
 33
0.0
 14
15.01081685408072
 24
-310.2422023370501
 34
0.0
 50
90.0
100
AcDbRotatedDimension
  0
DIMENSION
  5
194
330
1F
100
AcDbEntity
  8
1
100
AcDbDimension
  2
*D6
 10
15.26355409497651
 20
-330.2422023370501
 30
0.0
 11
11.51355409497651
 21
-353.2329078156322
 31
0.0
 70
    32
  1
4mm (0.157``)
 71
     5
 42
-1.0
 53
90.0
  3
ME10_DIM_15
100
AcDbAlignedDimension
 13
2.01081685408041
 23
-334.2422023370501
 33
0.0
 14
12.0108168540804
 24
-330.2422023370501
 34
0.0
 50
90.0
100
AcDbRotatedDimension
  0
DIMENSION
  5
1A1
330
1F
100
AcDbEntity
  8
1
100
AcDbDimension
  2
*D7
 10
-103.1777554704675
 20
-384.8276584771145
 30
0.0
 11
-149.3519710166618
 21
-381.0776584771145
 31
0.0
 70
    32
  1
24mm (0.945``)
 71
     5
 42
-1.0
 53
0.00013888888889
  3
ME10_DIM_16
100
AcDbAlignedDimension
 13
-127.1808607282048
 23
-328.1676622744755
 33
0.0
 14
-103.1777554704675
 24
-339.6676622744756
 34
0.0
100
AcDbRotatedDimension
  0
DIMENSION
  5
1AD
330
1F
100
AcDbEntity
  8
1
100
AcDbDimension
  2
*D8
 10
-194.48527513002
 20
-385.1202471270244
 30
0.0
 11
-234.2212110363949
 21
-381.3702471270244
 31
0.0
 70
    32
  1
21mm (0.827``)
 71
     5
 42
-1.0
 53
0.00013888888889
  3
ME10_DIM_17
100
AcDbAlignedDimension
 13
-215.48527513002
 23
-329.1676622744756
 33
0.0
 14
-194.48527513002
 24
-329.1676622744756
 34
0.0
100
AcDbRotatedDimension
  0
DIMENSION
  5
1B9
330
1F
100
AcDbEntity
  8
1
100
AcDbDimension
  2
*D9
 10
-212.48527513002
 20
-239.1253875596915
 30
0.0
 11
-236.9275241219834
 21
-235.3753875596915
 31
0.0
 70
    32
  1
18mm(0.709``)
 71
     5
 42
-1.0
 53
0.00013888888889
  3
ME10_DIM_18
100
AcDbAlignedDimension
 13
-194.48527513002
 23
-195.1676622744755
 33
0.0
 14
-212.48527513002
 24
-205.1676622744755
 34
0.0
100
AcDbRotatedDimension
  0
DIMENSION
  5
1C4
330
1F
100
AcDbEntity
  8
1
100
AcDbDimension
  2
*D10
 10
-153.2636943847242
 20
-184.6676622744755
 30
0.0
 11
-157.0136943847242
 21
-260.7244000601448
 31
0.0
 70
    32
  1
<>``)
 71
     5
 42
-1.0
 53
90.0
  3
ME10_DIM_19
100
AcDbAlignedDimension
 13
-204.98527513002
 23
-339.6676622744756
 33
0.0
 14
-204.98527513002
 24
-184.6676622744755
 34
0.0
 50
90.0
100
AcDbRotatedDimension
  0
DIMENSION
  5
1CF
330
1F
100
AcDbEntity
  8
1
100
AcDbDimension
  2
*D11
 10
-170.6384259326852
 20
-196.1676622744755
 30
0.0
 11
-174.3884259326852
 21
-262.9192549305681
 31
0.0
 70
    32
  1
<>``)
 71
     5
 42
-1.0
 53
90.0
  3
ME10_DIM_20
100
AcDbAlignedDimension
 13
-203.48527513002
 23
-328.1676622744756
 33
0.0
 14
-203.48527513002
 24
-196.1676622744755
 34
0.0
 50
90.0
100
AcDbRotatedDimension
  0
DIMENSION
  5
1DC
330
1F
100
AcDbEntity
  8
1
100
AcDbDimension
  2
*D12
 10
-218.48527513002
 20
-375.1794876428899
 30
0.0
 11
-234.9952338305492
 21
-371.4294876428899
 31
0.0
 70
    32
  1
3mm (0.118``)
 71
     5
 42
-1.0
 53
0.00013888888889
  3
ME10_DIM_21
100
AcDbAlignedDimension
 13
-215.48527513002
 23
-329.1676622744756
 33
0.0
 14
-218.48527513002
 24
-362.1676622744756
 34
0.0
100
AcDbRotatedDimension
  0
DIMENSION
  5
1E7
330
1F
100
AcDbEntity
  8
1
100
AcDbDimension
  2
*D13
 10
197.2449417384247
 20
-191.1676622744756
 30
0.0
 11
193.4949417384247
 21
-264.1703758177889
 31
0.0
 70
    32
  1
<>``)
 71
     5
 42
-1.0
 53
90.0
  3
ME10_DIM_22
100
AcDbAlignedDimension
 13
163.8047908136769
 23
-333.1676622744756
 33
0.0
 14
163.8047908136769
 24
-191.1676622744755
 34
0.0
 50
90.0
100
AcDbRotatedDimension
  0
DIMENSION
  5
1F3
330
1F
100
AcDbEntity
  8
1
100
AcDbDimension
  2
*D14
 10
69.47992205542273
 20
-378.1672227943489
 30
0.0
 11
44.02243405597434
 21
-374.4172227943489
 31
0.0
 70
    32
  1
<>``)
 71
     5
 42
-1.0
 53
0.00013888888889
  3
ME10_DIM_23
100
AcDbAlignedDimension
 13
96.47992205542275
 23
-322.1676622744756
 33
0.0
 14
69.47992205542275
 24
-339.6676622744756
 34
0.0
100
AcDbRotatedDimension
  0
DIMENSION
  5
1FF
330
1F
100
AcDbEntity
  8
1
100
AcDbDimension
  2
*D15
 10
79.47992205542275
 20
-366.3299323814319
 30
0.0
 11
47.96143371941295
 21
-362.5799323814319
 31
0.0
 70
    32
  1
10mm (0.394``)
 71
     5
 42
-1.0
 53
0.00013888888889
  3
ME10_DIM_24
100
AcDbAlignedDimension
 13
69.47992205542275
 23
-357.1676622744756
 33
0.0
 14
79.47992205542275
 24
-339.6676622744756
 34
0.0
100
AcDbRotatedDimension
  0
DIMENSION
  5
20A
330
1F
100
AcDbEntity
  8
1
100
AcDbDimension
  2
*D16
 10
188.6261072014397
 20
-202.1676622744756
 30
0.0
 11
184.8761072014397
 21
-263.9403920040404
 31
0.0
 70
    32
  1
<>``)
 71
     5
 42
-1.0
 53
90.0
  3
ME10_DIM_25
100
AcDbAlignedDimension
 13
165.0547908136769
 23
-322.1676622744756
 33
0.0
 14
165.0547908136769
 24
-202.1676622744755
 34
0.0
 50
90.0
100
AcDbRotatedDimension
  0
DIMENSION
  5
215
330
1F
100
AcDbEntity
  8
1
100
AcDbDimension
  2
*D17
 10
207.0206858816766
 20
-339.6676622744756
 30
0.0
 11
203.2706858816766
 21
-261.2918739598139
 31
0.0
 70
    32
  1
<>``)
 71
     5
 42
-1.0
 53
90.0
  3
ME10_DIM_26
100
AcDbAlignedDimension
 13
166.0547908136769
 23
-184.6676622744755
 33
0.0
 14
166.0547908136769
 24
-339.6676622744756
 34
0.0
 50
90.0
100
AcDbRotatedDimension
  0
DIMENSION
  5
221
330
1F
100
AcDbEntity
  8
1
100
AcDbDimension
  2
*D18
 10
173.0547908136769
 20
-235.2394441186645
 30
0.0
 11
136.5582715769994
 21
-231.4894441186645
 31
0.0
 70
    32
  1
16mm (0.630``)
 71
     5
 42
-1.0
 53
0.00013888888889
  3
ME10_DIM_27
100
AcDbAlignedDimension
 13
157.0547908136769
 23
-262.1676622744755
 33
0.0
 14
173.0547908136769
 24
-314.1676622744756
 34
0.0
100
AcDbRotatedDimension
  0
DIMENSION
  5
22D
330
1F
100
AcDbEntity
  8
1
100
AcDbDimension
  2
*D19
 10
175.0547908136769
 20
-383.3258467106529
 30
0.0
 11
197.7470587712946
 21
-379.5758467106529
 31
0.0
 70
    32
  1
18mm (0.709``)
 71
     5
 42
-1.0
 53
0.00013888888889
  3
ME10_DIM_28
100
AcDbAlignedDimension
 13
157.0547908136769
 23
-330.6676622744756
 33
0.0
 14
175.0547908136769
 24
-330.6676622744756
 34
0.0
100
AcDbRotatedDimension
  0
DIMENSION
  5
23A
330
1F
100
AcDbEntity
  8
1
100
AcDbDimension
  2
*D20
 10
179.0547908136769
 20
-368.3258467106529
 30
0.0
 11
198.4467295056777
 21
-364.5758467106529
 31
0.0
 70
    32
  1
4mm (0.157``)
 71
     5
 42
-1.0
 53
0.00013888888889
  3
ME10_DIM_29
100
AcDbAlignedDimension
 13
175.0547908136769
 23
-330.6676622744756
 33
0.0
 14
179.0547908136769
 24
-357.1676622744756
 34
0.0
100
AcDbRotatedDimension
  0
DIMENSION
  5
246
330
1F
100
AcDbEntity
  8
1
100
AcDbDimension
  2
*D21
 10
-212.48527513002
 20
-291.2595644480209
 30
0.0
 11
-241.7961218607152
 21
-287.5095644480209
 31
0.0
 70
    32
  1
16mm (0.630``)
 71
     5
 42
-1.0
 53
0.00013888888889
  3
ME10_DIM_30
100
AcDbAlignedDimension
 13
-196.48527513002
 23
-274.1676622744756
 33
0.0
 14
-212.48527513002
 24
-319.1676622744756
 34
0.0
100
AcDbRotatedDimension
  0
DIMENSION
  5
251
330
1F
100
AcDbEntity
  8
1
100
AcDbDimension
  2
*D22
 10
-179.2599468197222
 20
-242.1676622744755
 30
0.0
 11
-183.0099468197222
 21
-262.1676622744755
 31
0.0
 70
    32
  1
<>``)
 71
     5
 42
-1.0
 53
90.0
  3
ME10_DIM_31
100
AcDbAlignedDimension
 13
-204.48527513002
 23
-282.1676622744756
 33
0.0
 14
-204.48527513002
 24
-242.1676622744755
 34
0.0
 50
90.0
100
AcDbRotatedDimension
  0
DIMENSION
  5
25D
330
1F
100
AcDbEntity
  8
1
100
AcDbDimension
  2
*D23
 10
-1.48918314591939
 20
-370.9640484103076
 30
0.0
 11
-46.01497313285243
 21
-367.2140484103076
 31
0.0
 70
    32
  1
24mm (0.945``)
 71
     5
 42
-1.0
 53
0.00013888888889
  3
ME10_DIM_32
100
AcDbAlignedDimension
 13
-25.48918314591939
 23
-329.2422023370501
 33
0.0
 14
-1.48918314591939
 24
-334.2422023370501
 34
0.0
100
AcDbRotatedDimension
  0
DIMENSION
  5
26A
330
1F
100
AcDbEntity
  8
1
100
AcDbDimension
  2
*D24
 10
-25.48918314591939
 20
-382.9640484103076
 30
0.0
 11
-2.64817240479503
 21
-379.2140484103076
 31
0.0
 70
    32
  1
min. 30mm (1.181``)
 71
     5
 42
-1.0
 53
0.00013888888889
  3
ME10_DIM_33
100
AcDbAlignedDimension
 13
-55.48918314591939
 23
-329.2422023370501
 33
0.0
 14
-25.48918314591939
 24
-329.2422023370501
 34
0.0
100
AcDbRotatedDimension
  0
DIMENSION
  5
275
330
1F
100
AcDbEntity
  8
1
100
AcDbDimension
  2
*D25
 10
-68.89451179644533
 20
-334.2422023370502
 30
0.0
 11
-72.64451179644533
 21
-326.730253871758
 31
0.0
 70
    32
  1
max. 21mm (0.827``)
 71
     5
 42
-1.0
 53
90.0
  3
ME10_DIM_34
100
AcDbAlignedDimension
 13
-66.4891831459195
 23
-319.2422023370501
 33
0.0
 14
-66.48918314591951
 24
-334.2422023370501
 34
0.0
 50
90.0
100
AcDbRotatedDimension
  0
INSERT
  5
27C
330
1F
100
AcDbEntity
  8
1
100
AcDbBlockReference
  2
*D26
 10
0.0
 20
0.0
 30
0.0
  0
INSERT
  5
285
330
1F
100
AcDbEntity
  8
1
100
AcDbBlockReference
  2
*D27
 10
0.0
 20
0.0
 30
0.0
  0
INSERT
  5
28E
330
1F
100
AcDbEntity
  8
1
100
AcDbBlockReference
  2
*D28
 10
0.0
 20
0.0
 30
0.0
  0
INSERT
  5
297
330
1F
100
AcDbEntity
  8
1
100
AcDbBlockReference
  2
*D29
 10
0.0
 20
0.0
 30
0.0
  0
ENDSEC
  0
SECTION
  2
OBJECTS
  0
DICTIONARY
  5
C
330
0
100
AcDbDictionary
281
     1
  3
ACAD_GROUP
350
D
  3
ACAD_LAYOUT
350
1A
  3
ACAD_MATERIAL
350
3B
  3
ACAD_MLEADERSTYLE
350
2BF
  3
ACAD_MLINESTYLE
350
17
  3
ACAD_PLOTSETTINGS
350
19
  3
ACAD_PLOTSTYLENAME
350
E
  3
ACAD_TABLESTYLE
350
2BE
  3
ACAD_VISUALSTYLE
350
2A
  0
DICTIONARY
  5
D
102
{ACAD_REACTORS
330
C
102
}
330
C
100
AcDbDictionary
281
     1
  0
DICTIONARY
  5
1A
102
{ACAD_REACTORS
330
C
102
}
330
C
100
AcDbDictionary
281
     1
  3
Layout1
350
1E
  3
Layout2
350
26
  3
Model
350
22
  0
DICTIONARY
  5
3B
102
{ACAD_REACTORS
330
C
102
}
330
C
100
AcDbDictionary
281
     1
  3
ByBlock
350
3D
  3
ByLayer
350
3C
  3
Global
350
3E
  0
DICTIONARY
  5
2BF
102
{ACAD_REACTORS
330
C
102
}
330
C
100
AcDbDictionary
281
     1
  0
DICTIONARY
  5
17
102
{ACAD_REACTORS
330
C
102
}
330
C
100
AcDbDictionary
281
     1
  3
Standard
350
18
  0
DICTIONARY
  5
19
102
{ACAD_REACTORS
330
C
102
}
330
C
100
AcDbDictionary
281
     1
  0
ACDBDICTIONARYWDFLT
  5
E
102
{ACAD_REACTORS
330
C
102
}
330
C
100
AcDbDictionary
281
     1
  3
Normal
350
F
100
AcDbDictionaryWithDefault
340
F
  0
DICTIONARY
  5
2BE
102
{ACAD_REACTORS
330
C
102
}
330
C
100
AcDbDictionary
281
     1
  0
DICTIONARY
  5
2A
102
{ACAD_REACTORS
330
C
102
}
330
C
100
AcDbDictionary
281
     1
  3
2dWireframe
350
2F
  3
3D Hidden
350
31
  3
3dWireframe
350
30
  3
Basic
350
32
  3
Brighten
350
36
  3
ColorChange
350
3A
  3
Conceptual
350
34
  3
Dim
350
35
  3
Facepattern
350
39
  3
Flat
350
2B
  3
FlatWithEdges
350
2C
  3
Gouraud
350
2D
  3
GouraudWithEdges
350
2E
  3
Linepattern
350
38
  3
Realistic
350
33
  3
Thicken
350
37
  0
LAYOUT
  5
1E
102
{ACAD_REACTORS
330
1A
102
}
330
1A
100
AcDbPlotSettings
  1

  2
none_device
  4

  6

 40
0.0
 41
0.0
 42
0.0
 43
0.0
 44
0.0
 45
0.0
 46
0.0
 47
0.0
 48
0.0
 49
0.0
140
0.0
141
0.0
142
1.0
143
1.0
 70
   688
 72
     0
 73
     0
 74
     5
  7

 75
    16
 76
     0
 77
     2
 78
   300
147
1.0
148
0.0
149
0.0
100
AcDbLayout
  1
Layout1
 70
     1
 71
     1
 10
0.0
 20
0.0
 11
12.0
 21
9.0
 12
0.0
 22
0.0
 32
0.0
 14
1.00000000000000E+20
 24
1.00000000000000E+20
 34
1.00000000000000E+20
 15
-1.00000000000000E+20
 25
-1.00000000000000E+20
 35
-1.00000000000000E+20
146
0.0
 13
0.0
 23
0.0
 33
0.0
 16
1.0
 26
0.0
 36
0.0
 17
0.0
 27
1.0
 37
0.0
 76
     0
330
1B
  0
LAYOUT
  5
26
102
{ACAD_REACTORS
330
1A
102
}
330
1A
100
AcDbPlotSettings
  1

  2
none_device
  4

  6

 40
0.0
 41
0.0
 42
0.0
 43
0.0
 44
0.0
 45
0.0
 46
0.0
 47
0.0
 48
0.0
 49
0.0
140
0.0
141
0.0
142
1.0
143
1.0
 70
   688
 72
     0
 73
     0
 74
     5
  7

 75
    16
 76
     0
 77
     2
 78
   300
147
1.0
148
0.0
149
0.0
100
AcDbLayout
  1
Layout2
 70
     1
 71
     2
 10
0.0
 20
0.0
 11
0.0
 21
0.0
 12
0.0
 22
0.0
 32
0.0
 14
0.0
 24
0.0
 34
0.0
 15
0.0
 25
0.0
 35
0.0
146
0.0
 13
0.0
 23
0.0
 33
0.0
 16
1.0
 26
0.0
 36
0.0
 17
0.0
 27
1.0
 37
0.0
 76
     0
330
23
  0
LAYOUT
  5
22
102
{ACAD_REACTORS
330
1A
102
}
330
1A
100
AcDbPlotSettings
  1

  2
none_device
  4

  6

 40
0.0
 41
0.0
 42
0.0
 43
0.0
 44
0.0
 45
0.0
 46
0.0
 47
0.0
 48
0.0
 49
0.0
140
0.0
141
0.0
142
1.0
143
1.0
 70
  1712
 72
     0
 73
     0
 74
     0
  7

 75
     0
 76
     0
 77
     2
 78
   300
147
1.0
148
0.0
149
0.0
100
AcDbLayout
  1
Model
 70
     1
 71
     0
 10
0.0
 20
0.0
 11
12.0
 21
9.0
 12
0.0
 22
0.0
 32
0.0
 14
-259.1648718607152
 24
-409.2209932167699
 34
0.0
 15
215.1158087712946
 25
-157.7823806458009
 35
0.0
146
0.0
 13
0.0
 23
0.0
 33
0.0
 16
1.0
 26
0.0
 36
0.0
 17
0.0
 27
1.0
 37
0.0
 76
     0
330
1F
331
29
  0
MATERIAL
  5
3D
102
{ACAD_REACTORS
330
3B
102
}
102
{ACAD_XDICTIONARY
360
2BA
102
}
330
3B
100
AcDbMaterial
  1
ByBlock
  0
MATERIAL
  5
3C
102
{ACAD_REACTORS
330
3B
102
}
102
{ACAD_XDICTIONARY
360
2B8
102
}
330
3B
100
AcDbMaterial
  1
ByLayer
  0
MATERIAL
  5
3E
102
{ACAD_REACTORS
330
3B
102
}
102
{ACAD_XDICTIONARY
360
2BC
102
}
330
3B
100
AcDbMaterial
  1
Global
  0
MLINESTYLE
  5
18
102
{ACAD_REACTORS
330
17
102
}
330
17
100
AcDbMlineStyle
  2
Standard
 70
     0
  3

 62
   256
 51
90.0
 52
90.0
 71
     2
 49
0.5
 62
   256
  6
BYLAYER
 49
-0.5
 62
   256
  6
BYLAYER
  0
ACDBPLACEHOLDER
  5
F
102
{ACAD_REACTORS
330
E
102
}
330
E
  0
VISUALSTYLE
  5
2F
102
{ACAD_REACTORS
330
2A
102
}
102
{ACAD_XDICTIONARY
360
2A0
102
}
330
2A
100
AcDbVisualStyle
  2
2dWireframe
 70
     4
 71
     0
 72
     2
 73
     0
 90
        0
 40
-0.6
 41
-30.0
 62
     5
 63
     7
421
 16777215
 74
     1
 91
        4
 64
     7
 65
   257
 75
     1
175
     1
 42
1.0
 92
        0
 66
   257
 43
1.0
 76
     1
 77
     6
 78
     2
 67
     7
 79
     5
170
     0
171
     0
290
     0
174
     0
 93
        1
 44
0.0
173
     0
291
     0
 45
0.0
1001
ACAD
1000
AcDbSavedByObjectVersion
1070
     0
  0
VISUALSTYLE
  5
31
102
{ACAD_REACTORS
330
2A
102
}
102
{ACAD_XDICTIONARY
360
2A4
102
}
330
2A
100
AcDbVisualStyle
  2
3D Hidden
 70
     6
 71
     1
 72
     2
 73
     2
 90
        0
 40
-0.6
 41
-30.0
 62
     5
 63
     7
421
 16777215
 74
     2
 91
        2
 64
     7
 65
   257
 75
     2
175
     1
 42
40.0
 92
        0
 66
   257
 43
1.0
 76
     1
 77
     6
 78
     2
 67
     7
 79
     3
170
     0
171
     0
290
     0
174
     0
 93
        1
 44
0.0
173
     0
291
     0
 45
0.0
1001
ACAD
1000
AcDbSavedByObjectVersion
1070
     0
  0
VISUALSTYLE
  5
30
102
{ACAD_REACTORS
330
2A
102
}
102
{ACAD_XDICTIONARY
360
2A2
102
}
330
2A
100
AcDbVisualStyle
  2
3dWireframe
 70
     5
 71
     0
 72
     2
 73
     0
 90
        0
 40
-0.6
 41
-30.0
 62
     5
 63
     7
421
 16777215
 74
     1
 91
        4
 64
     7
 65
   257
 75
     1
175
     1
 42
1.0
 92
        0
 66
   257
 43
1.0
 76
     1
 77
     6
 78
     2
 67
     7
 79
     5
170
     0
171
     0
290
     0
174
     0
 93
        1
 44
0.0
173
     0
291
     0
 45
0.0
1001
ACAD
1000
AcDbSavedByObjectVersion
1070
     0
  0
VISUALSTYLE
  5
32
102
{ACAD_REACTORS
330
2A
102
}
102
{ACAD_XDICTIONARY
360
2A6
102
}
330
2A
100
AcDbVisualStyle
  2
Basic
 70
     7
 71
     1
 72
     0
 73
     1
 90
        0
 40
-0.6
 41
-30.0
 62
     5
 63
     7
421
 16777215
 74
     0
 91
        4
 64
     7
 65
   257
 75
     1
175
     1
 42
1.0
 92
        8
 66
     7
 43
1.0
 76
     1
 77
     6
 78
     2
 67
     7
 79
     5
170
     0
171
     0
290
     0
174
     0
 93
        1
 44
0.0
173
     0
291
     1
 45
0.0
1001
ACAD
1000
AcDbSavedByObjectVersion
1070
     0
  0
VISUALSTYLE
  5
36
102
{ACAD_REACTORS
330
2A
102
}
102
{ACAD_XDICTIONARY
360
2AE
102
}
330
2A
100
AcDbVisualStyle
  2
Brighten
 70
    12
 71
     2
 72
     2
 73
     0
 90
        0
 40
-0.6
 41
-30.0
 62
     5
 63
     7
421
 16777215
 74
     1
 91
        4
 64
     7
 65
   257
 75
     1
175
     1
 42
1.0
 92
        8
 66
     7
 43
1.0
 76
     1
 77
     6
 78
     2
 67
     7
 79
     5
170
     0
171
     0
290
     0
174
     0
 93
        1
 44
50.0
173
     0
291
     1
 45
0.0
1001
ACAD
1000
AcDbSavedByObjectVersion
1070
     0
  0
VISUALSTYLE
  5
3A
102
{ACAD_REACTORS
330
2A
102
}
102
{ACAD_XDICTIONARY
360
2B6
102
}
330
2A
100
AcDbVisualStyle
  2
ColorChange
 70
    16
 71
     2
 72
     2
 73
     3
 90
        0
 40
-0.6
 41
-30.0
 62
     5
 63
     8
421
  8421504
 74
     1
 91
        4
 64
     7
 65
   257
 75
     1
175
     1
 42
1.0
 92
        8
 66
     8
424
  8421504
 43
1.0
 76
     1
 77
     6
 78
     2
 67
     7
 79
     5
170
     0
171
     0
290
     0
174
     0
 93
        1
 44
0.0
173
     0
291
     1
 45
0.0
1001
ACAD
1000
AcDbSavedByObjectVersion
1070
     0
  0
VISUALSTYLE
  5
34
102
{ACAD_REACTORS
330
2A
102
}
102
{ACAD_XDICTIONARY
360
2AA
102
}
330
2A
100
AcDbVisualStyle
  2
Conceptual
 70
     9
 71
     3
 72
     2
 73
     0
 90
        0
 40
-0.6
 41
-30.0
 62
     5
 63
     7
421
 16777215
 74
     2
 91
        2
 64
     7
 65
   257
 75
     1
175
     1
 42
40.0
 92
        8
 66
     7
 43
1.0
 76
     1
 77
     6
 78
     2
 67
     7
 79
     3
170
     0
171
     0
290
     0
174
     0
 93
        1
 44
0.0
173
     0
291
     0
 45
0.0
1001
ACAD
1000
AcDbSavedByObjectVersion
1070
     0
  0
VISUALSTYLE
  5
35
102
{ACAD_REACTORS
330
2A
102
}
102
{ACAD_XDICTIONARY
360
2AC
102
}
330
2A
100
AcDbVisualStyle
  2
Dim
 70
    11
 71
     2
 72
     2
 73
     0
 90
        0
 40
-0.6
 41
-30.0
 62
     5
 63
     7
421
 16777215
 74
     1
 91
        4
 64
     7
 65
   257
 75
     1
175
     1
 42
1.0
 92
        8
 66
     7
 43
1.0
 76
     1
 77
     6
 78
     2
 67
     7
 79
     5
170
     0
171
     0
290
     0
174
     0
 93
        1
 44
-50.0
173
     0
291
     1
 45
0.0
1001
ACAD
1000
AcDbSavedByObjectVersion
1070
     0
  0
VISUALSTYLE
  5
39
102
{ACAD_REACTORS
330
2A
102
}
102
{ACAD_XDICTIONARY
360
2B4
102
}
330
2A
100
AcDbVisualStyle
  2
Facepattern
 70
    15
 71
     2
 72
     2
 73
     0
 90
        0
 40
-0.6
 41
-30.0
 62
     5
 63
     7
421
 16777215
 74
     1
 91
        4
 64
     7
 65
   257
 75
     1
175
     1
 42
1.0
 92
        8
 66
     7
 43
1.0
 76
     1
 77
     6
 78
     2
 67
     7
 79
     5
170
     0
171
     0
290
     0
174
     0
 93
        1
 44
0.0
173
     0
291
     1
 45
0.0
1001
ACAD
1000
AcDbSavedByObjectVersion
1070
     0
  0
VISUALSTYLE
  5
2B
102
{ACAD_REACTORS
330
2A
102
}
102
{ACAD_XDICTIONARY
360
298
102
}
330
2A
100
AcDbVisualStyle
  2
Flat
 70
     0
 71
     2
 72
     1
 73
     1
 90
        2
 40
-0.6
 41
30.0
 62
     5
 63
     7
421
 16777215
 74
     0
 91
        4
 64
     7
 65
   257
 75
     1
175
     1
 42
1.0
 92
        8
 66
     7
 43
1.0
 76
     1
 77
     6
 78
     2
 67
     7
 79
     5
170
     0
171
     0
290
     0
174
     0
 93
       13
 44
0.0
173
     0
291
     1
 45
0.0
1001
ACAD
1000
AcDbSavedByObjectVersion
1070
     0
  0
VISUALSTYLE
  5
2C
102
{ACAD_REACTORS
330
2A
102
}
102
{ACAD_XDICTIONARY
360
29A
102
}
330
2A
100
AcDbVisualStyle
  2
FlatWithEdges
 70
     1
 71
     2
 72
     1
 73
     1
 90
        2
 40
-0.6
 41
30.0
 62
     5
 63
     7
421
 16777215
 74
     1
 91
        4
 64
     7
 65
   257
 75
     1
175
     1
 42
1.0
 92
        0
 66
   257
 43
1.0
 76
     1
 77
     6
 78
     2
 67
     7
 79
     5
170
     0
171
     0
290
     0
174
     0
 93
       13
 44
0.0
173
     0
291
     1
 45
0.0
1001
ACAD
1000
AcDbSavedByObjectVersion
1070
     0
  0
VISUALSTYLE
  5
2D
102
{ACAD_REACTORS
330
2A
102
}
102
{ACAD_XDICTIONARY
360
29C
102
}
330
2A
100
AcDbVisualStyle
  2
Gouraud
 70
     2
 71
     2
 72
     2
 73
     1
 90
        2
 40
-0.6
 41
30.0
 62
     5
 63
     7
421
 16777215
 74
     0
 91
        4
 64
     7
 65
   257
 75
     1
175
     1
 42
1.0
 92
        0
 66
     7
 43
1.0
 76
     1
 77
     6
 78
     2
 67
     7
 79
     5
170
     0
171
     0
290
     0
174
     0
 93
       13
 44
0.0
173
     0
291
     1
 45
0.0
1001
ACAD
1000
AcDbSavedByObjectVersion
1070
     0
  0
VISUALSTYLE
  5
2E
102
{ACAD_REACTORS
330
2A
102
}
102
{ACAD_XDICTIONARY
360
29E
102
}
330
2A
100
AcDbVisualStyle
  2
GouraudWithEdges
 70
     3
 71
     2
 72
     2
 73
     1
 90
        2
 40
-0.6
 41
30.0
 62
     5
 63
     7
421
 16777215
 74
     1
 91
        4
 64
     7
 65
   257
 75
     1
175
     1
 42
1.0
 92
        0
 66
   257
 43
1.0
 76
     1
 77
     6
 78
     2
 67
     7
 79
     5
170
     0
171
     0
290
     0
174
     0
 93
       13
 44
0.0
173
     0
291
     1
 45
0.0
1001
ACAD
1000
AcDbSavedByObjectVersion
1070
     0
  0
VISUALSTYLE
  5
38
102
{ACAD_REACTORS
330
2A
102
}
102
{ACAD_XDICTIONARY
360
2B2
102
}
330
2A
100
AcDbVisualStyle
  2
Linepattern
 70
    14
 71
     2
 72
     2
 73
     0
 90
        0
 40
-0.6
 41
-30.0
 62
     5
 63
     7
421
 16777215
 74
     1
 91
        4
 64
     7
 65
   257
 75
     7
175
     7
 42
1.0
 92
        8
 66
     7
 43
1.0
 76
     1
 77
     6
 78
     2
 67
     7
 79
     5
170
     0
171
     0
290
     0
174
     0
 93
        1
 44
0.0
173
     0
291
     1
 45
0.0
1001
ACAD
1000
AcDbSavedByObjectVersion
1070
     0
  0
VISUALSTYLE
  5
33
102
{ACAD_REACTORS
330
2A
102
}
102
{ACAD_XDICTIONARY
360
2A8
102
}
330
2A
100
AcDbVisualStyle
  2
Realistic
 70
     8
 71
     2
 72
     2
 73
     0
 90
        0
 40
-0.6
 41
-30.0
 62
     5
 63
     7
421
 16777215
 74
     1
 91
        0
 64
     7
 65
   257
 75
     1
175
     1
 42
1.0
 92
        8
 66
     8
424
  7895160
 43
1.0
 76
     1
 77
     6
 78
     2
 67
     7
 79
     5
170
     0
171
     0
290
     0
174
     0
 93
       13
 44
0.0
173
     0
291
     0
 45
0.0
1001
ACAD
1000
AcDbSavedByObjectVersion
1070
     0
  0
VISUALSTYLE
  5
37
102
{ACAD_REACTORS
330
2A
102
}
102
{ACAD_XDICTIONARY
360
2B0
102
}
330
2A
100
AcDbVisualStyle
  2
Thicken
 70
    13
 71
     2
 72
     2
 73
     0
 90
        0
 40
-0.6
 41
-30.0
 62
     5
 63
     7
421
 16777215
 74
     1
 91
        4
 64
     7
 65
   257
 75
     1
175
     1
 42
1.0
 92
       12
 66
     7
 43
1.0
 76
     1
 77
     6
 78
     2
 67
     7
 79
     5
170
     0
171
     0
290
     0
174
     0
 93
        1
 44
0.0
173
     0
291
     1
 45
0.0
1001
ACAD
1000
AcDbSavedByObjectVersion
1070
     0
  0
DICTIONARY
  5
2BA
330
3D
100
AcDbDictionary
280
     1
281
     1
  3
ACAD_XREC_ROUNDTRIP
360
2BB
  0
DICTIONARY
  5
2B8
330
3C
100
AcDbDictionary
280
     1
281
     1
  3
ACAD_XREC_ROUNDTRIP
360
2B9
  0
DICTIONARY
  5
2BC
330
3E
100
AcDbDictionary
280
     1
281
     1
  3
ACAD_XREC_ROUNDTRIP
360
2BD
  0
DICTIONARY
  5
2A0
330
2F
100
AcDbDictionary
280
     1
281
     1
  3
ACAD_XREC_ROUNDTRIP
360
2A1
  0
DICTIONARY
  5
2A4
330
31
100
AcDbDictionary
280
     1
281
     1
  3
ACAD_XREC_ROUNDTRIP
360
2A5
  0
DICTIONARY
  5
2A2
330
30
100
AcDbDictionary
280
     1
281
     1
  3
ACAD_XREC_ROUNDTRIP
360
2A3
  0
DICTIONARY
  5
2A6
330
32
100
AcDbDictionary
280
     1
281
     1
  3
ACAD_XREC_ROUNDTRIP
360
2A7
  0
DICTIONARY
  5
2AE
330
36
100
AcDbDictionary
280
     1
281
     1
  3
ACAD_XREC_ROUNDTRIP
360
2AF
  0
DICTIONARY
  5
2B6
330
3A
100
AcDbDictionary
280
     1
281
     1
  3
ACAD_XREC_ROUNDTRIP
360
2B7
  0
DICTIONARY
  5
2AA
330
34
100
AcDbDictionary
280
     1
281
     1
  3
ACAD_XREC_ROUNDTRIP
360
2AB
  0
DICTIONARY
  5
2AC
330
35
100
AcDbDictionary
280
     1
281
     1
  3
ACAD_XREC_ROUNDTRIP
360
2AD
  0
DICTIONARY
  5
2B4
330
39
100
AcDbDictionary
280
     1
281
     1
  3
ACAD_XREC_ROUNDTRIP
360
2B5
  0
DICTIONARY
  5
298
330
2B
100
AcDbDictionary
280
     1
281
     1
  3
ACAD_XREC_ROUNDTRIP
360
299
  0
DICTIONARY
  5
29A
330
2C
100
AcDbDictionary
280
     1
281
     1
  3
ACAD_XREC_ROUNDTRIP
360
29B
  0
DICTIONARY
  5
29C
330
2D
100
AcDbDictionary
280
     1
281
     1
  3
ACAD_XREC_ROUNDTRIP
360
29D
  0
DICTIONARY
  5
29E
330
2E
100
AcDbDictionary
280
     1
281
     1
  3
ACAD_XREC_ROUNDTRIP
360
29F
  0
DICTIONARY
  5
2B2
330
38
100
AcDbDictionary
280
     1
281
     1
  3
ACAD_XREC_ROUNDTRIP
360
2B3
  0
DICTIONARY
  5
2A8
330
33
100
AcDbDictionary
280
     1
281
     1
  3
ACAD_XREC_ROUNDTRIP
360
2A9
  0
DICTIONARY
  5
2B0
330
37
100
AcDbDictionary
280
     1
281
     1
  3
ACAD_XREC_ROUNDTRIP
360
2B1
  0
XRECORD
  5
2BB
102
{ACAD_REACTORS
330
2BA
102
}
330
2BA
100
AcDbXrecord
280
     1
102
MATERIAL
148
0.0
149
0.0
149
0.0
 93
        0
 94
      127
282
     0
 72
     1
 77
     1
171
     1
175
     1
179
     1
273
     0
  0
XRECORD
  5
2B9
102
{ACAD_REACTORS
330
2B8
102
}
330
2B8
100
AcDbXrecord
280
     1
102
MATERIAL
148
0.0
149
0.0
149
0.0
 93
        0
 94
      127
282
     0
 72
     1
 77
     1
171
     1
175
     1
179
     1
273
     0
  0
XRECORD
  5
2BD
102
{ACAD_REACTORS
330
2BC
102
}
330
2BC
100
AcDbXrecord
280
     1
102
MATERIAL
148
0.0
149
0.0
149
0.0
 93
        0
 94
      127
282
     0
 72
     1
 77
     1
171
     1
175
     1
179
     1
273
     0
  0
XRECORD
  5
2A1
102
{ACAD_REACTORS
330
2A0
102
}
330
2A0
100
AcDbXrecord
280
     1
102
RTVSPropertyOp0
 70
     1
102
RTVSPropertyOp1
 70
     1
102
RTVSPropertyOp2
 70
     1
102
RTVSPropertyOp3
 70
     1
102
RTVSPropertyOp4
 70
     1
102
RTVSPropertyOp5
 70
     1
102
RTVSPropertyOp6
 70
     1
102
RTVSPropertyOp7
 70
     1
102
RTVSPropertyOp8
 70
     1
102
RTVSPropertyOp9
 70
     1
102
RTVSPropertyOp10
 70
     1
102
RTVSPropertyOp11
 70
     1
102
RTVSPropertyOp12
 70
     1
102
RTVSPropertyOp13
 70
     1
102
RTVSPropertyOp14
 70
     1
102
RTVSPropertyOp15
 70
     1
102
RTVSPropertyOp16
 70
     1
102
RTVSPropertyOp17
 70
     1
102
RTVSPropertyOp18
 70
     1
102
RTVSPropertyOp19
 70
     1
102
RTVSPropertyOp20
 70
     1
102
RTVSPropertyOp21
 70
     1
102
RTVSPropertyOp22
 70
     1
102
RTVSPropertyOp23
 70
     1
102
RTVSPropertyOp24
 70
     1
102
RTVSPropertyOp25
 70
     1
102
RTVSPropertyOp26
 70
     1
102
RTVSPropertyOp27
 70
     1
102
RTVSPropertyOp28
 70
     1
102
RTVSPropertyOp29
 70
     1
102
RTVSPropertyOp30
 70
     1
102
RTVSPropertyOp31
 70
     1
102
RTVSPropertyOp32
 70
     1
  0
XRECORD
  5
2A5
102
{ACAD_REACTORS
330
2A4
102
}
330
2A4
100
AcDbXrecord
280
     1
102
RTVSPropertyOp0
 70
     1
102
RTVSPropertyOp1
 70
     1
102
RTVSPropertyOp2
 70
     1
102
RTVSPropertyOp3
 70
     1
102
RTVSPropertyOp4
 70
     1
102
RTVSPropertyOp5
 70
     1
102
RTVSPropertyOp6
 70
     1
102
RTVSPropertyOp7
 70
     1
102
RTVSPropertyOp8
 70
     1
102
RTVSPropertyOp9
 70
     1
102
RTVSPropertyOp10
 70
     1
102
RTVSPropertyOp11
 70
     1
102
RTVSPropertyOp12
 70
     1
102
RTVSPropertyOp13
 70
     1
102
RTVSPropertyOp14
 70
     1
102
RTVSPropertyOp15
 70
     1
102
RTVSPropertyOp16
 70
     1
102
RTVSPropertyOp17
 70
     1
102
RTVSPropertyOp18
 70
     1
102
RTVSPropertyOp19
 70
     1
102
RTVSPropertyOp20
 70
     1
102
RTVSPropertyOp21
 70
     1
102
RTVSPropertyOp22
 70
     1
102
RTVSPropertyOp23
 70
     1
102
RTVSPropertyOp24
 70
     1
102
RTVSPropertyOp25
 70
     1
102
RTVSPropertyOp26
 70
     1
102
RTVSPropertyOp27
 70
     1
102
RTVSPropertyOp28
 70
     1
102
RTVSPropertyOp29
 70
     1
102
RTVSPropertyOp30
 70
     1
102
RTVSPropertyOp31
 70
     1
102
RTVSPropertyOp32
 70
     1
  0
XRECORD
  5
2A3
102
{ACAD_REACTORS
330
2A2
102
}
330
2A2
100
AcDbXrecord
280
     1
102
RTVSPropertyOp0
 70
     1
102
RTVSPropertyOp1
 70
     1
102
RTVSPropertyOp2
 70
     1
102
RTVSPropertyOp3
 70
     1
102
RTVSPropertyOp4
 70
     1
102
RTVSPropertyOp5
 70
     1
102
RTVSPropertyOp6
 70
     1
102
RTVSPropertyOp7
 70
     1
102
RTVSPropertyOp8
 70
     1
102
RTVSPropertyOp9
 70
     1
102
RTVSPropertyOp10
 70
     1
102
RTVSPropertyOp11
 70
     1
102
RTVSPropertyOp12
 70
     1
102
RTVSPropertyOp13
 70
     1
102
RTVSPropertyOp14
 70
     1
102
RTVSPropertyOp15
 70
     1
102
RTVSPropertyOp16
 70
     1
102
RTVSPropertyOp17
 70
     1
102
RTVSPropertyOp18
 70
     1
102
RTVSPropertyOp19
 70
     1
102
RTVSPropertyOp20
 70
     1
102
RTVSPropertyOp21
 70
     1
102
RTVSPropertyOp22
 70
     1
102
RTVSPropertyOp23
 70
     1
102
RTVSPropertyOp24
 70
     1
102
RTVSPropertyOp25
 70
     1
102
RTVSPropertyOp26
 70
     1
102
RTVSPropertyOp27
 70
     1
102
RTVSPropertyOp28
 70
     1
102
RTVSPropertyOp29
 70
     1
102
RTVSPropertyOp30
 70
     1
102
RTVSPropertyOp31
 70
     1
102
RTVSPropertyOp32
 70
     1
  0
XRECORD
  5
2A7
102
{ACAD_REACTORS
330
2A6
102
}
330
2A6
100
AcDbXrecord
280
     1
102
RTVSPropertyOp0
 70
     1
102
RTVSPropertyOp1
 70
     1
102
RTVSPropertyOp2
 70
     1
102
RTVSPropertyOp3
 70
     1
102
RTVSPropertyOp4
 70
     1
102
RTVSPropertyOp5
 70
     1
102
RTVSPropertyOp6
 70
     1
102
RTVSPropertyOp7
 70
     1
102
RTVSPropertyOp8
 70
     1
102
RTVSPropertyOp9
 70
     1
102
RTVSPropertyOp10
 70
     1
102
RTVSPropertyOp11
 70
     1
102
RTVSPropertyOp12
 70
     1
102
RTVSPropertyOp13
 70
     1
102
RTVSPropertyOp14
 70
     1
102
RTVSPropertyOp15
 70
     1
102
RTVSPropertyOp16
 70
     1
102
RTVSPropertyOp17
 70
     1
102
RTVSPropertyOp18
 70
     1
102
RTVSPropertyOp19
 70
     1
102
RTVSPropertyOp20
 70
     1
102
RTVSPropertyOp21
 70
     1
102
RTVSPropertyOp22
 70
     1
102
RTVSPropertyOp23
 70
     1
102
RTVSPropertyOp24
 70
     1
102
RTVSPropertyOp25
 70
     1
102
RTVSPropertyOp26
 70
     1
102
RTVSPropertyOp27
 70
     1
102
RTVSPropertyOp28
 70
     1
102
RTVSPropertyOp29
 70
     1
102
RTVSPropertyOp30
 70
     1
102
RTVSPropertyOp31
 70
     1
102
RTVSPropertyOp32
 70
     1
  0
XRECORD
  5
2AF
102
{ACAD_REACTORS
330
2AE
102
}
330
2AE
100
AcDbXrecord
280
     1
102
RTVSPropertyOp0
 70
     1
102
RTVSPropertyOp1
 70
     1
102
RTVSPropertyOp2
 70
     1
102
RTVSPropertyOp3
 70
     1
102
RTVSPropertyOp4
 70
     1
102
RTVSPropertyOp5
 70
     1
102
RTVSPropertyOp6
 70
     1
102
RTVSPropertyOp7
 70
     1
102
RTVSPropertyOp8
 70
     1
102
RTVSPropertyOp9
 70
     1
102
RTVSPropertyOp10
 70
     1
102
RTVSPropertyOp11
 70
     1
102
RTVSPropertyOp12
 70
     1
102
RTVSPropertyOp13
 70
     1
102
RTVSPropertyOp14
 70
     1
102
RTVSPropertyOp15
 70
     1
102
RTVSPropertyOp16
 70
     1
102
RTVSPropertyOp17
 70
     1
102
RTVSPropertyOp18
 70
     1
102
RTVSPropertyOp19
 70
     1
102
RTVSPropertyOp20
 70
     1
102
RTVSPropertyOp21
 70
     1
102
RTVSPropertyOp22
 70
     1
102
RTVSPropertyOp23
 70
     1
102
RTVSPropertyOp24
 70
     1
102
RTVSPropertyOp25
 70
     1
102
RTVSPropertyOp26
 70
     1
102
RTVSPropertyOp27
 70
     1
102
RTVSPropertyOp28
 70
     1
102
RTVSPropertyOp29
 70
     1
102
RTVSPropertyOp30
 70
     1
102
RTVSPropertyOp31
 70
     1
102
RTVSPropertyOp32
 70
     1
  0
XRECORD
  5
2B7
102
{ACAD_REACTORS
330
2B6
102
}
330
2B6
100
AcDbXrecord
280
     1
102
RTVSPropertyOp0
 70
     1
102
RTVSPropertyOp1
 70
     1
102
RTVSPropertyOp2
 70
     1
102
RTVSPropertyOp3
 70
     1
102
RTVSPropertyOp4
 70
     1
102
RTVSPropertyOp5
 70
     1
102
RTVSPropertyOp6
 70
     1
102
RTVSPropertyOp7
 70
     1
102
RTVSPropertyOp8
 70
     1
102
RTVSPropertyOp9
 70
     1
102
RTVSPropertyOp10
 70
     1
102
RTVSPropertyOp11
 70
     1
102
RTVSPropertyOp12
 70
     1
102
RTVSPropertyOp13
 70
     1
102
RTVSPropertyOp14
 70
     1
102
RTVSPropertyOp15
 70
     1
102
RTVSPropertyOp16
 70
     1
102
RTVSPropertyOp17
 70
     1
102
RTVSPropertyOp18
 70
     1
102
RTVSPropertyOp19
 70
     1
102
RTVSPropertyOp20
 70
     1
102
RTVSPropertyOp21
 70
     1
102
RTVSPropertyOp22
 70
     1
102
RTVSPropertyOp23
 70
     1
102
RTVSPropertyOp24
 70
     1
102
RTVSPropertyOp25
 70
     1
102
RTVSPropertyOp26
 70
     1
102
RTVSPropertyOp27
 70
     1
102
RTVSPropertyOp28
 70
     1
102
RTVSPropertyOp29
 70
     1
102
RTVSPropertyOp30
 70
     1
102
RTVSPropertyOp31
 70
     1
102
RTVSPropertyOp32
 70
     1
  0
XRECORD
  5
2AB
102
{ACAD_REACTORS
330
2AA
102
}
330
2AA
100
AcDbXrecord
280
     1
102
RTVSPropertyOp0
 70
     1
102
RTVSPropertyOp1
 70
     1
102
RTVSPropertyOp2
 70
     1
102
RTVSPropertyOp3
 70
     1
102
RTVSPropertyOp4
 70
     1
102
RTVSPropertyOp5
 70
     1
102
RTVSPropertyOp6
 70
     1
102
RTVSPropertyOp7
 70
     1
102
RTVSPropertyOp8
 70
     1
102
RTVSPropertyOp9
 70
     1
102
RTVSPropertyOp10
 70
     1
102
RTVSPropertyOp11
 70
     1
102
RTVSPropertyOp12
 70
     1
102
RTVSPropertyOp13
 70
     1
102
RTVSPropertyOp14
 70
     1
102
RTVSPropertyOp15
 70
     1
102
RTVSPropertyOp16
 70
     1
102
RTVSPropertyOp17
 70
     1
102
RTVSPropertyOp18
 70
     1
102
RTVSPropertyOp19
 70
     1
102
RTVSPropertyOp20
 70
     1
102
RTVSPropertyOp21
 70
     1
102
RTVSPropertyOp22
 70
     1
102
RTVSPropertyOp23
 70
     1
102
RTVSPropertyOp24
 70
     1
102
RTVSPropertyOp25
 70
     1
102
RTVSPropertyOp26
 70
     1
102
RTVSPropertyOp27
 70
     1
102
RTVSPropertyOp28
 70
     1
102
RTVSPropertyOp29
 70
     1
102
RTVSPropertyOp30
 70
     1
102
RTVSPropertyOp31
 70
     1
102
RTVSPropertyOp32
 70
     1
  0
XRECORD
  5
2AD
102
{ACAD_REACTORS
330
2AC
102
}
330
2AC
100
AcDbXrecord
280
     1
102
RTVSPropertyOp0
 70
     1
102
RTVSPropertyOp1
 70
     1
102
RTVSPropertyOp2
 70
     1
102
RTVSPropertyOp3
 70
     1
102
RTVSPropertyOp4
 70
     1
102
RTVSPropertyOp5
 70
     1
102
RTVSPropertyOp6
 70
     1
102
RTVSPropertyOp7
 70
     1
102
RTVSPropertyOp8
 70
     1
102
RTVSPropertyOp9
 70
     1
102
RTVSPropertyOp10
 70
     1
102
RTVSPropertyOp11
 70
     1
102
RTVSPropertyOp12
 70
     1
102
RTVSPropertyOp13
 70
     1
102
RTVSPropertyOp14
 70
     1
102
RTVSPropertyOp15
 70
     1
102
RTVSPropertyOp16
 70
     1
102
RTVSPropertyOp17
 70
     1
102
RTVSPropertyOp18
 70
     1
102
RTVSPropertyOp19
 70
     1
102
RTVSPropertyOp20
 70
     1
102
RTVSPropertyOp21
 70
     1
102
RTVSPropertyOp22
 70
     1
102
RTVSPropertyOp23
 70
     1
102
RTVSPropertyOp24
 70
     1
102
RTVSPropertyOp25
 70
     1
102
RTVSPropertyOp26
 70
     1
102
RTVSPropertyOp27
 70
     1
102
RTVSPropertyOp28
 70
     1
102
RTVSPropertyOp29
 70
     1
102
RTVSPropertyOp30
 70
     1
102
RTVSPropertyOp31
 70
     1
102
RTVSPropertyOp32
 70
     1
  0
XRECORD
  5
2B5
102
{ACAD_REACTORS
330
2B4
102
}
330
2B4
100
AcDbXrecord
280
     1
102
RTVSPropertyOp0
 70
     1
102
RTVSPropertyOp1
 70
     1
102
RTVSPropertyOp2
 70
     1
102
RTVSPropertyOp3
 70
     1
102
RTVSPropertyOp4
 70
     1
102
RTVSPropertyOp5
 70
     1
102
RTVSPropertyOp6
 70
     1
102
RTVSPropertyOp7
 70
     1
102
RTVSPropertyOp8
 70
     1
102
RTVSPropertyOp9
 70
     1
102
RTVSPropertyOp10
 70
     1
102
RTVSPropertyOp11
 70
     1
102
RTVSPropertyOp12
 70
     1
102
RTVSPropertyOp13
 70
     1
102
RTVSPropertyOp14
 70
     1
102
RTVSPropertyOp15
 70
     1
102
RTVSPropertyOp16
 70
     1
102
RTVSPropertyOp17
 70
     1
102
RTVSPropertyOp18
 70
     1
102
RTVSPropertyOp19
 70
     1
102
RTVSPropertyOp20
 70
     1
102
RTVSPropertyOp21
 70
     1
102
RTVSPropertyOp22
 70
     1
102
RTVSPropertyOp23
 70
     1
102
RTVSPropertyOp24
 70
     1
102
RTVSPropertyOp25
 70
     1
102
RTVSPropertyOp26
 70
     1
102
RTVSPropertyOp27
 70
     1
102
RTVSPropertyOp28
 70
     1
102
RTVSPropertyOp29
 70
     1
102
RTVSPropertyOp30
 70
     1
102
RTVSPropertyOp31
 70
     1
102
RTVSPropertyOp32
 70
     1
  0
XRECORD
  5
299
102
{ACAD_REACTORS
330
298
102
}
330
298
100
AcDbXrecord
280
     1
102
RTVSPropertyOp0
 70
     1
102
RTVSPropertyOp1
 70
     1
102
RTVSPropertyOp2
 70
     1
102
RTVSPropertyOp3
 70
     1
102
RTVSPropertyOp4
 70
     1
102
RTVSPropertyOp5
 70
     1
102
RTVSPropertyOp6
 70
     1
102
RTVSPropertyOp7
 70
     1
102
RTVSPropertyOp8
 70
     1
102
RTVSPropertyOp9
 70
     1
102
RTVSPropertyOp10
 70
     1
102
RTVSPropertyOp11
 70
     1
102
RTVSPropertyOp12
 70
     1
102
RTVSPropertyOp13
 70
     1
102
RTVSPropertyOp14
 70
     1
102
RTVSPropertyOp15
 70
     1
102
RTVSPropertyOp16
 70
     1
102
RTVSPropertyOp17
 70
     1
102
RTVSPropertyOp18
 70
     1
102
RTVSPropertyOp19
 70
     1
102
RTVSPropertyOp20
 70
     1
102
RTVSPropertyOp21
 70
     1
102
RTVSPropertyOp22
 70
     1
102
RTVSPropertyOp23
 70
     1
102
RTVSPropertyOp24
 70
     1
102
RTVSPropertyOp25
 70
     1
102
RTVSPropertyOp26
 70
     1
102
RTVSPropertyOp27
 70
     1
102
RTVSPropertyOp28
 70
     1
102
RTVSPropertyOp29
 70
     1
102
RTVSPropertyOp30
 70
     1
102
RTVSPropertyOp31
 70
     1
102
RTVSPropertyOp32
 70
     1
  0
XRECORD
  5
29B
102
{ACAD_REACTORS
330
29A
102
}
330
29A
100
AcDbXrecord
280
     1
102
RTVSPropertyOp0
 70
     1
102
RTVSPropertyOp1
 70
     1
102
RTVSPropertyOp2
 70
     1
102
RTVSPropertyOp3
 70
     1
102
RTVSPropertyOp4
 70
     1
102
RTVSPropertyOp5
 70
     1
102
RTVSPropertyOp6
 70
     1
102
RTVSPropertyOp7
 70
     1
102
RTVSPropertyOp8
 70
     1
102
RTVSPropertyOp9
 70
     1
102
RTVSPropertyOp10
 70
     1
102
RTVSPropertyOp11
 70
     1
102
RTVSPropertyOp12
 70
     1
102
RTVSPropertyOp13
 70
     1
102
RTVSPropertyOp14
 70
     1
102
RTVSPropertyOp15
 70
     1
102
RTVSPropertyOp16
 70
     1
102
RTVSPropertyOp17
 70
     1
102
RTVSPropertyOp18
 70
     1
102
RTVSPropertyOp19
 70
     1
102
RTVSPropertyOp20
 70
     1
102
RTVSPropertyOp21
 70
     1
102
RTVSPropertyOp22
 70
     1
102
RTVSPropertyOp23
 70
     1
102
RTVSPropertyOp24
 70
     1
102
RTVSPropertyOp25
 70
     1
102
RTVSPropertyOp26
 70
     1
102
RTVSPropertyOp27
 70
     1
102
RTVSPropertyOp28
 70
     1
102
RTVSPropertyOp29
 70
     1
102
RTVSPropertyOp30
 70
     1
102
RTVSPropertyOp31
 70
     1
102
RTVSPropertyOp32
 70
     1
  0
XRECORD
  5
29D
102
{ACAD_REACTORS
330
29C
102
}
330
29C
100
AcDbXrecord
280
     1
102
RTVSPropertyOp0
 70
     1
102
RTVSPropertyOp1
 70
     1
102
RTVSPropertyOp2
 70
     1
102
RTVSPropertyOp3
 70
     1
102
RTVSPropertyOp4
 70
     1
102
RTVSPropertyOp5
 70
     1
102
RTVSPropertyOp6
 70
     1
102
RTVSPropertyOp7
 70
     1
102
RTVSPropertyOp8
 70
     1
102
RTVSPropertyOp9
 70
     1
102
RTVSPropertyOp10
 70
     1
102
RTVSPropertyOp11
 70
     1
102
RTVSPropertyOp12
 70
     1
102
RTVSPropertyOp13
 70
     1
102
RTVSPropertyOp14
 70
     1
102
RTVSPropertyOp15
 70
     1
102
RTVSPropertyOp16
 70
     1
102
RTVSPropertyOp17
 70
     1
102
RTVSPropertyOp18
 70
     1
102
RTVSPropertyOp19
 70
     1
102
RTVSPropertyOp20
 70
     1
102
RTVSPropertyOp21
 70
     1
102
RTVSPropertyOp22
 70
     1
102
RTVSPropertyOp23
 70
     1
102
RTVSPropertyOp24
 70
     1
102
RTVSPropertyOp25
 70
     1
102
RTVSPropertyOp26
 70
     1
102
RTVSPropertyOp27
 70
     1
102
RTVSPropertyOp28
 70
     1
102
RTVSPropertyOp29
 70
     1
102
RTVSPropertyOp30
 70
     1
102
RTVSPropertyOp31
 70
     1
102
RTVSPropertyOp32
 70
     1
  0
XRECORD
  5
29F
102
{ACAD_REACTORS
330
29E
102
}
330
29E
100
AcDbXrecord
280
     1
102
RTVSPropertyOp0
 70
     1
102
RTVSPropertyOp1
 70
     1
102
RTVSPropertyOp2
 70
     1
102
RTVSPropertyOp3
 70
     1
102
RTVSPropertyOp4
 70
     1
102
RTVSPropertyOp5
 70
     1
102
RTVSPropertyOp6
 70
     1
102
RTVSPropertyOp7
 70
     1
102
RTVSPropertyOp8
 70
     1
102
RTVSPropertyOp9
 70
     1
102
RTVSPropertyOp10
 70
     1
102
RTVSPropertyOp11
 70
     1
102
RTVSPropertyOp12
 70
     1
102
RTVSPropertyOp13
 70
     1
102
RTVSPropertyOp14
 70
     1
102
RTVSPropertyOp15
 70
     1
102
RTVSPropertyOp16
 70
     1
102
RTVSPropertyOp17
 70
     1
102
RTVSPropertyOp18
 70
     1
102
RTVSPropertyOp19
 70
     1
102
RTVSPropertyOp20
 70
     1
102
RTVSPropertyOp21
 70
     1
102
RTVSPropertyOp22
 70
     1
102
RTVSPropertyOp23
 70
     1
102
RTVSPropertyOp24
 70
     1
102
RTVSPropertyOp25
 70
     1
102
RTVSPropertyOp26
 70
     1
102
RTVSPropertyOp27
 70
     1
102
RTVSPropertyOp28
 70
     1
102
RTVSPropertyOp29
 70
     1
102
RTVSPropertyOp30
 70
     1
102
RTVSPropertyOp31
 70
     1
102
RTVSPropertyOp32
 70
     1
  0
XRECORD
  5
2B3
102
{ACAD_REACTORS
330
2B2
102
}
330
2B2
100
AcDbXrecord
280
     1
102
RTVSPropertyOp0
 70
     1
102
RTVSPropertyOp1
 70
     1
102
RTVSPropertyOp2
 70
     1
102
RTVSPropertyOp3
 70
     1
102
RTVSPropertyOp4
 70
     1
102
RTVSPropertyOp5
 70
     1
102
RTVSPropertyOp6
 70
     1
102
RTVSPropertyOp7
 70
     1
102
RTVSPropertyOp8
 70
     1
102
RTVSPropertyOp9
 70
     1
102
RTVSPropertyOp10
 70
     1
102
RTVSPropertyOp11
 70
     1
102
RTVSPropertyOp12
 70
     1
102
RTVSPropertyOp13
 70
     1
102
RTVSPropertyOp14
 70
     1
102
RTVSPropertyOp15
 70
     1
102
RTVSPropertyOp16
 70
     1
102
RTVSPropertyOp17
 70
     1
102
RTVSPropertyOp18
 70
     1
102
RTVSPropertyOp19
 70
     1
102
RTVSPropertyOp20
 70
     1
102
RTVSPropertyOp21
 70
     1
102
RTVSPropertyOp22
 70
     1
102
RTVSPropertyOp23
 70
     1
102
RTVSPropertyOp24
 70
     1
102
RTVSPropertyOp25
 70
     1
102
RTVSPropertyOp26
 70
     1
102
RTVSPropertyOp27
 70
     1
102
RTVSPropertyOp28
 70
     1
102
RTVSPropertyOp29
 70
     1
102
RTVSPropertyOp30
 70
     1
102
RTVSPropertyOp31
 70
     1
102
RTVSPropertyOp32
 70
     1
  0
XRECORD
  5
2A9
102
{ACAD_REACTORS
330
2A8
102
}
330
2A8
100
AcDbXrecord
280
     1
102
RTVSPropertyOp0
 70
     1
102
RTVSPropertyOp1
 70
     1
102
RTVSPropertyOp2
 70
     1
102
RTVSPropertyOp3
 70
     1
102
RTVSPropertyOp4
 70
     1
102
RTVSPropertyOp5
 70
     1
102
RTVSPropertyOp6
 70
     1
102
RTVSPropertyOp7
 70
     1
102
RTVSPropertyOp8
 70
     1
102
RTVSPropertyOp9
 70
     1
102
RTVSPropertyOp10
 70
     1
102
RTVSPropertyOp11
 70
     1
102
RTVSPropertyOp12
 70
     1
102
RTVSPropertyOp13
 70
     1
102
RTVSPropertyOp14
 70
     1
102
RTVSPropertyOp15
 70
     1
102
RTVSPropertyOp16
 70
     1
102
RTVSPropertyOp17
 70
     1
102
RTVSPropertyOp18
 70
     1
102
RTVSPropertyOp19
 70
     1
102
RTVSPropertyOp20
 70
     1
102
RTVSPropertyOp21
 70
     1
102
RTVSPropertyOp22
 70
     1
102
RTVSPropertyOp23
 70
     1
102
RTVSPropertyOp24
 70
     1
102
RTVSPropertyOp25
 70
     1
102
RTVSPropertyOp26
 70
     1
102
RTVSPropertyOp27
 70
     1
102
RTVSPropertyOp28
 70
     1
102
RTVSPropertyOp29
 70
     1
102
RTVSPropertyOp30
 70
     1
102
RTVSPropertyOp31
 70
     1
102
RTVSPropertyOp32
 70
     1
  0
XRECORD
  5
2B1
102
{ACAD_REACTORS
330
2B0
102
}
330
2B0
100
AcDbXrecord
280
     1
102
RTVSPropertyOp0
 70
     1
102
RTVSPropertyOp1
 70
     1
102
RTVSPropertyOp2
 70
     1
102
RTVSPropertyOp3
 70
     1
102
RTVSPropertyOp4
 70
     1
102
RTVSPropertyOp5
 70
     1
102
RTVSPropertyOp6
 70
     1
102
RTVSPropertyOp7
 70
     1
102
RTVSPropertyOp8
 70
     1
102
RTVSPropertyOp9
 70
     1
102
RTVSPropertyOp10
 70
     1
102
RTVSPropertyOp11
 70
     1
102
RTVSPropertyOp12
 70
     1
102
RTVSPropertyOp13
 70
     1
102
RTVSPropertyOp14
 70
     1
102
RTVSPropertyOp15
 70
     1
102
RTVSPropertyOp16
 70
     1
102
RTVSPropertyOp17
 70
     1
102
RTVSPropertyOp18
 70
     1
102
RTVSPropertyOp19
 70
     1
102
RTVSPropertyOp20
 70
     1
102
RTVSPropertyOp21
 70
     1
102
RTVSPropertyOp22
 70
     1
102
RTVSPropertyOp23
 70
     1
102
RTVSPropertyOp24
 70
     1
102
RTVSPropertyOp25
 70
     1
102
RTVSPropertyOp26
 70
     1
102
RTVSPropertyOp27
 70
     1
102
RTVSPropertyOp28
 70
     1
102
RTVSPropertyOp29
 70
     1
102
RTVSPropertyOp30
 70
     1
102
RTVSPropertyOp31
 70
     1
102
RTVSPropertyOp32
 70
     1
  0
ENDSEC
  0
EOF
