  0
SECTION
  2
HEADER
  9
$ACADVER
  1
AC1018
  9
$ACADMAINTVER
 70
     0
  9
$DWGCODEPAGE
  3
ANSI_1252
  9
$INSBASE
 10
0.0
 20
0.0
 30
0.0
  9
$EXTMIN
 10
-232.2393022460602
 20
-126.491625468493
 30
0.0
  9
$EXTMAX
 10
223.384289035212
 20
110.7942469044056
 30
0.0
  9
$LIMMIN
 10
0.0
 20
0.0
  9
$LIMMAX
 10
12.0
 20
9.0
  9
$ORTHOMODE
 70
     0
  9
$REGENMODE
 70
     1
  9
$FILLMODE
 70
     1
  9
$QTEXTMODE
 70
     0
  9
$MIRRTEXT
 70
     1
  9
$LTSCALE
 40
1.0
  9
$ATTMODE
 70
     1
  9
$TEXTSIZE
 40
0.2
  9
$TRACEWID
 40
0.05
  9
$TEXTSTYLE
  7
Standard
  9
$CLAYER
  8
0
  9
$CELTYPE
  6
ByLayer
  9
$CECOLOR
 62
   256
  9
$CELTSCALE
 40
1.0
  9
$DISPSILH
 70
     0
  9
$DIMSCALE
 40
1.0
  9
$DIMASZ
 40
0.18
  9
$DIMEXO
 40
0.0625
  9
$DIMDLI
 40
0.38
  9
$DIMRND
 40
0.0
  9
$DIMDLE
 40
0.0
  9
$DIMEXE
 40
0.18
  9
$DIMTP
 40
0.0
  9
$DIMTM
 40
0.0
  9
$DIMTXT
 40
0.18
  9
$DIMCEN
 40
0.09
  9
$DIMTSZ
 40
0.0
  9
$DIMTOL
 70
     0
  9
$DIMLIM
 70
     0
  9
$DIMTIH
 70
     1
  9
$DIMTOH
 70
     1
  9
$DIMSE1
 70
     0
  9
$DIMSE2
 70
     0
  9
$DIMTAD
 70
     0
  9
$DIMZIN
 70
     0
  9
$DIMBLK
  1

  9
$DIMASO
 70
     1
  9
$DIMSHO
 70
     1
  9
$DIMPOST
  1

  9
$DIMAPOST
  1

  9
$DIMALT
 70
     0
  9
$DIMALTD
 70
     2
  9
$DIMALTF
 40
25.4
  9
$DIMLFAC
 40
1.0
  9
$DIMTOFL
 70
     0
  9
$DIMTVP
 40
0.0
  9
$DIMTIX
 70
     0
  9
$DIMSOXD
 70
     0
  9
$DIMSAH
 70
     0
  9
$DIMBLK1
  1

  9
$DIMBLK2
  1

  9
$DIMSTYLE
  2
Standard
  9
$DIMCLRD
 70
     0
  9
$DIMCLRE
 70
     0
  9
$DIMCLRT
 70
     0
  9
$DIMTFAC
 40
1.0
  9
$DIMGAP
 40
0.09
  9
$DIMJUST
 70
     0
  9
$DIMSD1
 70
     0
  9
$DIMSD2
 70
     0
  9
$DIMTOLJ
 70
     1
  9
$DIMTZIN
 70
     0
  9
$DIMALTZ
 70
     0
  9
$DIMALTTZ
 70
     0
  9
$DIMUPT
 70
     0
  9
$DIMDEC
 70
     4
  9
$DIMTDEC
 70
     4
  9
$DIMALTU
 70
     2
  9
$DIMALTTD
 70
     2
  9
$DIMTXSTY
  7
Standard
  9
$DIMAUNIT
 70
     0
  9
$DIMADEC
 70
     0
  9
$DIMALTRND
 40
0.0
  9
$DIMAZIN
 70
     0
  9
$DIMDSEP
 70
    46
  9
$DIMATFIT
 70
     3
  9
$DIMFRAC
 70
     0
  9
$DIMLDRBLK
  1

  9
$DIMLUNIT
 70
     2
  9
$DIMLWD
 70
    -2
  9
$DIMLWE
 70
    -2
  9
$DIMTMOVE
 70
     0
  9
$LUNITS
 70
     2
  9
$LUPREC
 70
     4
  9
$SKETCHINC
 40
0.1
  9
$FILLETRAD
 40
0.5
  9
$AUNITS
 70
     0
  9
$AUPREC
 70
     0
  9
$MENU
  1
.
  9
$ELEVATION
 40
0.0
  9
$PELEVATION
 40
0.0
  9
$THICKNESS
 40
0.0
  9
$LIMCHECK
 70
     0
  9
$CHAMFERA
 40
0.5
  9
$CHAMFERB
 40
0.5
  9
$CHAMFERC
 40
1.0
  9
$CHAMFERD
 40
0.0
  9
$SKPOLY
 70
     0
  9
$TDCREATE
 40
2456905.417251979
  9
$TDUCREATE
 40
2456905.333918646
  9
$TDUPDATE
 40
2456905.417252477
  9
$TDUUPDATE
 40
2456905.333919143
  9
$TDINDWG
 40
0.0000000116
  9
$TDUSRTIMER
 40
0.0000000116
  9
$USRTIMER
 70
     1
  9
$ANGBASE
 50
0.0
  9
$ANGDIR
 70
     0
  9
$PDMODE
 70
     0
  9
$PDSIZE
 40
0.0
  9
$PLINEWID
 40
0.0
  9
$SPLFRAME
 70
     0
  9
$SPLINETYPE
 70
     6
  9
$SPLINESEGS
 70
     8
  9
$HANDSEED
  5
2B9
  9
$SURFTAB1
 70
     6
  9
$SURFTAB2
 70
     6
  9
$SURFTYPE
 70
     6
  9
$SURFU
 70
     6
  9
$SURFV
 70
     6
  9
$UCSBASE
  2

  9
$UCSNAME
  2

  9
$UCSORG
 10
0.0
 20
0.0
 30
0.0
  9
$UCSXDIR
 10
1.0
 20
0.0
 30
0.0
  9
$UCSYDIR
 10
0.0
 20
1.0
 30
0.0
  9
$UCSORTHOREF
  2

  9
$UCSORTHOVIEW
 70
     0
  9
$UCSORGTOP
 10
0.0
 20
0.0
 30
0.0
  9
$UCSORGBOTTOM
 10
0.0
 20
0.0
 30
0.0
  9
$UCSORGLEFT
 10
0.0
 20
0.0
 30
0.0
  9
$UCSORGRIGHT
 10
0.0
 20
0.0
 30
0.0
  9
$UCSORGFRONT
 10
0.0
 20
0.0
 30
0.0
  9
$UCSORGBACK
 10
0.0
 20
0.0
 30
0.0
  9
$PUCSBASE
  2

  9
$PUCSNAME
  2

  9
$PUCSORG
 10
0.0
 20
0.0
 30
0.0
  9
$PUCSXDIR
 10
1.0
 20
0.0
 30
0.0
  9
$PUCSYDIR
 10
0.0
 20
1.0
 30
0.0
  9
$PUCSORTHOREF
  2

  9
$PUCSORTHOVIEW
 70
     0
  9
$PUCSORGTOP
 10
0.0
 20
0.0
 30
0.0
  9
$PUCSORGBOTTOM
 10
0.0
 20
0.0
 30
0.0
  9
$PUCSORGLEFT
 10
0.0
 20
0.0
 30
0.0
  9
$PUCSORGRIGHT
 10
0.0
 20
0.0
 30
0.0
  9
$PUCSORGFRONT
 10
0.0
 20
0.0
 30
0.0
  9
$PUCSORGBACK
 10
0.0
 20
0.0
 30
0.0
  9
$USERI1
 70
     0
  9
$USERI2
 70
     0
  9
$USERI3
 70
     0
  9
$USERI4
 70
     0
  9
$USERI5
 70
     0
  9
$USERR1
 40
18.1
  9
$USERR2
 40
0.0
  9
$USERR3
 40
0.0
  9
$USERR4
 40
0.0
  9
$USERR5
 40
0.0
  9
$WORLDVIEW
 70
     1
  9
$SHADEDGE
 70
     3
  9
$SHADEDIF
 70
    70
  9
$TILEMODE
 70
     1
  9
$MAXACTVP
 70
    64
  9
$PINSBASE
 10
0.0
 20
0.0
 30
0.0
  9
$PLIMCHECK
 70
     0
  9
$PEXTMIN
 10
1.00000000000000E+20
 20
1.00000000000000E+20
 30
1.00000000000000E+20
  9
$PEXTMAX
 10
-1.00000000000000E+20
 20
-1.00000000000000E+20
 30
-1.00000000000000E+20
  9
$PLIMMIN
 10
0.0
 20
0.0
  9
$PLIMMAX
 10
12.0
 20
9.0
  9
$UNITMODE
 70
     0
  9
$VISRETAIN
 70
     1
  9
$PLINEGEN
 70
     0
  9
$PSLTSCALE
 70
     1
  9
$TREEDEPTH
 70
  3020
  9
$CMLSTYLE
  2
Standard
  9
$CMLJUST
 70
     0
  9
$CMLSCALE
 40
1.0
  9
$PROXYGRAPHICS
 70
     1
  9
$MEASUREMENT
 70
     1
  9
$CELWEIGHT
370
    -1
  9
$ENDCAPS
280
     0
  9
$JOINSTYLE
280
     0
  9
$LWDISPLAY
290
     0
  9
$INSUNITS
 70
     4
  9
$HYPERLINKBASE
  1

  9
$STYLESHEET
  1

  9
$XEDIT
290
     1
  9
$CEPSNTYPE
380
     0
  9
$PSTYLEMODE
290
     1
  9
$FINGERPRINTGUID
  2
{EF459960-3589-4BAE-9851-6F041AD17EAA}
  9
$VERSIONGUID
  2
{FAEB1C32-E019-11D5-929B-00C0DF256EC4}
  9
$EXTNAMES
290
     1
  9
$PSVPSCALE
 40
0.0
  9
$OLESTARTUP
290
     0
  9
$SORTENTS
280
   127
  9
$INDEXCTL
280
     0
  9
$HIDETEXT
280
     1
  9
$XCLIPFRAME
290
     0
  9
$HALOGAP
280
     0
  9
$OBSCOLOR
 70
   257
  9
$OBSLTYPE
280
     0
  9
$INTERSECTIONDISPLAY
280
     0
  9
$INTERSECTIONCOLOR
 70
   257
  9
$DIMASSOC
280
     2
  9
$PROJECTNAME
  1

  0
ENDSEC
  0
SECTION
  2
CLASSES
  0
CLASS
  1
ACDBDICTIONARYWDFLT
  2
AcDbDictionaryWithDefault
  3
ObjectDBX Classes
 90
        0
 91
        4
280
     0
281
     0
  0
CLASS
  1
VISUALSTYLE
  2
AcDbVisualStyle
  3
ObjectDBX Classes
 90
     4095
 91
        4
280
     0
281
     0
  0
CLASS
  1
MATERIAL
  2
AcDbMaterial
  3
ObjectDBX Classes
 90
     1153
 91
        4
280
     0
281
     0
  0
ENDSEC
  0
SECTION
  2
TABLES
  0
TABLE
  2
VPORT
  5
8
330
0
100
AcDbSymbolTable
 70
     1
  0
VPORT
  5
29
330
8
100
AcDbSymbolTableRecord
100
AcDbViewportTableRecord
  2
*Active
 70
     0
 10
0.0
 20
0.0
 11
1.0
 21
1.0
 12
-4.4275066054241
 22
-7.8486892820437
 13
0.0
 23
0.0
 14
0.5
 24
0.5
 15
0.5
 25
0.5
 16
0.0
 26
0.0
 36
1.0
 17
0.0
 27
0.0
 37
0.0
 40
312.7176960771741
 41
1.60267857142857
 42
50.0
 43
0.0
 44
0.0
 50
0.0
 51
0.0
 71
     0
 72
   100
 73
     1
 74
     3
 75
     0
 76
     0
 77
     0
 78
     0
281
     0
 65
     1
110
0.0
120
0.0
130
0.0
111
1.0
121
0.0
131
0.0
112
0.0
122
1.0
132
0.0
 79
     0
146
0.0
  0
ENDTAB
  0
TABLE
  2
LTYPE
  5
5
330
0
100
AcDbSymbolTable
 70
     8
  0
LTYPE
  5
14
330
5
100
AcDbSymbolTableRecord
100
AcDbLinetypeTableRecord
  2
ByBlock
 70
     0
  3

 72
    65
 73
     0
 40
0.0
  0
LTYPE
  5
15
330
5
100
AcDbSymbolTableRecord
100
AcDbLinetypeTableRecord
  2
ByLayer
 70
     0
  3

 72
    65
 73
     0
 40
0.0
  0
LTYPE
  5
16
330
5
100
AcDbSymbolTableRecord
100
AcDbLinetypeTableRecord
  2
Continuous
 70
     0
  3
Solid line
 72
    65
 73
     0
 40
0.0
  0
LTYPE
  5
3F
330
5
100
AcDbSymbolTableRecord
100
AcDbLinetypeTableRecord
  2
DASHED
 70
     0
  3
Dashed
 72
    65
 73
     2
 40
15.0
 49
7.0
 74
     0
 49
-8.0
 74
     0
  0
LTYPE
  5
40
330
5
100
AcDbSymbolTableRecord
100
AcDbLinetypeTableRecord
  2
DOTTED
 70
     0
  3
Dotted
 72
    65
 73
     2
 40
1.0
 49
0.0
 74
     0
 49
-1.0
 74
     0
  0
LTYPE
  5
41
330
5
100
AcDbSymbolTableRecord
100
AcDbLinetypeTableRecord
  2
DOT_CENTER
 70
     0
  3
Dot_Center
 72
    65
 73
     4
 40
14.0
 49
12.0
 74
     0
 49
-1.0
 74
     0
 49
0.0
 74
     0
 49
-1.0
 74
     0
  0
LTYPE
  5
42
330
5
100
AcDbSymbolTableRecord
100
AcDbLinetypeTableRecord
  2
LONG_DASHED
 70
     0
  3
Long_Dashed
 72
    65
 73
     2
 40
15.0
 49
10.0
 74
     0
 49
-5.0
 74
     0
  0
LTYPE
  5
43
330
5
100
AcDbSymbolTableRecord
100
AcDbLinetypeTableRecord
  2
DASH_CENTER
 70
     0
  3
Dash_Center
 72
    65
 73
     4
 40
14.0
 49
11.0
 74
     0
 49
-1.0
 74
     0
 49
1.0
 74
     0
 49
-1.0
 74
     0
  0
LTYPE
  5
44
330
5
100
AcDbSymbolTableRecord
100
AcDbLinetypeTableRecord
  2
PHANTOM
 70
     0
  3
Phantom
 72
    65
 73
     6
 40
13.0
 49
10.0
 74
     0
 49
-1.0
 74
     0
 49
0.0
 74
     0
 49
-1.0
 74
     0
 49
0.0
 74
     0
 49
-1.0
 74
     0
  0
LTYPE
  5
45
330
5
100
AcDbSymbolTableRecord
100
AcDbLinetypeTableRecord
  2
CENTER_DASH_DASH
 70
     0
  3
Center_Dash_Dash
 72
    65
 73
     6
 40
14.0
 49
9.0
 74
     0
 49
-1.0
 74
     0
 49
1.0
 74
     0
 49
-1.0
 74
     0
 49
1.0
 74
     0
 49
-1.0
 74
     0
  0
ENDTAB
  0
TABLE
  2
LAYER
  5
2
330
0
100
AcDbSymbolTable
 70
     2
  0
LAYER
  5
10
330
2
100
AcDbSymbolTableRecord
100
AcDbLayerTableRecord
  2
0
 70
     0
 62
     7
  6
Continuous
370
    -3
390
F
  0
LAYER
  5
46
330
2
100
AcDbSymbolTableRecord
100
AcDbLayerTableRecord
  2
1
 70
     0
 62
     7
  6
Continuous
370
    -3
390
F
  0
ENDTAB
  0
TABLE
  2
STYLE
  5
3
330
0
100
AcDbSymbolTable
 70
     2
  0
STYLE
  5
11
330
3
100
AcDbSymbolTableRecord
100
AcDbTextStyleTableRecord
  2
Standard
 70
     0
 40
0.0
 41
1.0
 50
0.0
 71
     0
 42
0.2
  3
txt
  4

  0
STYLE
  5
153
330
3
100
AcDbSymbolTableRecord
100
AcDbTextStyleTableRecord
  2
CONVERTER_11
 70
     0
 40
0.0
 41
0.9
 50
0.0
 71
     0
 42
0.2
  3
txt.shx
  4

  0
ENDTAB
  0
TABLE
  2
VIEW
  5
6
330
0
100
AcDbSymbolTable
 70
     0
  0
ENDTAB
  0
TABLE
  2
UCS
  5
7
330
0
100
AcDbSymbolTable
 70
     0
  0
ENDTAB
  0
TABLE
  2
APPID
  5
9
330
0
100
AcDbSymbolTable
 70
     1
  0
APPID
  5
12
330
9
100
AcDbSymbolTableRecord
100
AcDbRegAppTableRecord
  2
ACAD
 70
     0
  0
ENDTAB
  0
TABLE
  2
DIMSTYLE
  5
A
330
0
100
AcDbSymbolTable
 70
    24
100
AcDbDimStyleTable
  0
DIMSTYLE
105
27
330
A
100
AcDbSymbolTableRecord
100
AcDbDimStyleTableRecord
  2
Standard
 70
     0
178
     0
340
11
  0
DIMSTYLE
105
160
102
{ACAD_REACTORS
330
161
102
}
330
A
100
AcDbSymbolTableRecord
100
AcDbDimStyleTableRecord
  2
ME10_DIM_10
 70
     0
  3
min.35mm (<>
 41
3.5
 42
0.0
 44
2.0
 73
     0
 74
     0
 77
     1
 78
     4
140
3.5
144
0.03937007874016
147
2.0
172
     1
173
     1
174
     1
175
     1
176
     2
177
     2
271
     3
178
     2
271
     3
340
153
  0
DIMSTYLE
105
16C
102
{ACAD_REACTORS
330
16D
102
}
330
A
100
AcDbSymbolTableRecord
100
AcDbDimStyleTableRecord
  2
ME10_DIM_11
 70
     0
  3
24mm (<>``)
 41
3.5
 42
0.0
 44
2.0
 73
     0
 74
     0
 77
     1
 78
     4
140
3.5
144
0.03937007874016
147
2.0
172
     1
173
     1
174
     1
175
     1
176
     2
177
     2
271
     3
178
     2
271
     3
340
153
  0
DIMSTYLE
105
177
102
{ACAD_REACTORS
330
178
102
}
330
A
100
AcDbSymbolTableRecord
100
AcDbDimStyleTableRecord
  2
ME10_DIM_12
 70
     0
  3
142mm (<>``)
 41
3.5
 42
0.0
 44
2.0
 73
     0
 74
     0
 77
     1
 78
     4
140
3.5
144
0.03937007874016
147
2.0
172
     1
173
     1
174
     1
175
     1
176
     2
177
     2
271
     3
178
     2
271
     3
340
153
  0
DIMSTYLE
105
184
102
{ACAD_REACTORS
330
185
102
}
330
A
100
AcDbSymbolTableRecord
100
AcDbDimStyleTableRecord
  2
ME10_DIM_13
 70
     0
  3
3mm (<>``)
 41
3.5
 42
0.0
 44
2.0
 73
     0
 74
     0
 77
     1
 78
     4
140
3.5
144
0.03937007874016
147
2.0
172
     1
173
     1
174
     1
175
     1
176
     2
177
     2
271
     3
178
     2
271
     3
340
153
  0
DIMSTYLE
105
191
102
{ACAD_REACTORS
330
192
102
}
330
A
100
AcDbSymbolTableRecord
100
AcDbDimStyleTableRecord
  2
ME10_DIM_14
 70
     0
  3
4mm (<>``)
 41
3.5
 42
0.0
 44
2.0
 73
     0
 74
     0
 77
     1
 78
     4
140
3.5
144
0.03937007874016
147
2.0
172
     1
173
     1
174
     1
175
     1
176
     2
177
     2
271
     3
178
     2
271
     3
340
153
  0
DIMSTYLE
105
19D
102
{ACAD_REACTORS
330
19E
102
}
330
A
100
AcDbSymbolTableRecord
100
AcDbDimStyleTableRecord
  2
ME10_DIM_15
 70
     0
  3
27mm (<>``)
 41
3.5
 42
0.0
 44
2.0
 73
     0
 74
     0
 77
     1
 78
     4
140
3.5
144
0.03937007874016
147
2.0
172
     1
173
     1
174
     1
175
     1
176
     2
177
     2
271
     3
178
     2
271
     3
340
153
  0
DIMSTYLE
105
1A9
102
{ACAD_REACTORS
330
1AA
102
}
330
A
100
AcDbSymbolTableRecord
100
AcDbDimStyleTableRecord
  2
ME10_DIM_16
 70
     0
  3
10mm (<>``)
 41
3.5
 42
0.0
 44
2.0
 73
     0
 74
     0
 77
     1
 78
     4
140
3.5
144
0.03937007874016
147
2.0
172
     1
173
     1
174
     1
175
     1
176
     2
177
     2
271
     3
178
     2
271
     3
340
153
  0
DIMSTYLE
105
1B5
102
{ACAD_REACTORS
330
1B6
102
}
330
A
100
AcDbSymbolTableRecord
100
AcDbDimStyleTableRecord
  2
ME10_DIM_17
 70
     0
  3
10mm (<>``)
 41
3.5
 42
0.0
 44
2.0
 73
     0
 74
     0
 77
     1
 78
     4
140
3.5
144
0.03937007874016
147
2.0
172
     1
173
     1
174
     1
175
     1
176
     2
177
     2
271
     3
178
     2
271
     3
340
153
  0
DIMSTYLE
105
1C1
102
{ACAD_REACTORS
330
1C2
102
}
330
A
100
AcDbSymbolTableRecord
100
AcDbDimStyleTableRecord
  2
ME10_DIM_18
 70
     0
  3
24mm (<>``)
 41
3.5
 42
0.0
 44
2.0
 73
     0
 74
     0
 77
     1
 78
     4
140
3.5
144
0.03937007874016
147
2.0
172
     1
173
     1
174
     1
175
     1
176
     2
177
     2
271
     3
178
     2
271
     3
340
153
  0
DIMSTYLE
105
1CC
102
{ACAD_REACTORS
330
1CD
102
}
330
A
100
AcDbSymbolTableRecord
100
AcDbDimStyleTableRecord
  2
ME10_DIM_19
 70
     0
  3
120mm (<>``)
 41
3.5
 42
0.0
 44
2.0
 73
     0
 74
     0
 77
     1
 78
     4
140
3.5
144
0.03937007874016
147
2.0
172
     1
173
     1
174
     1
175
     1
176
     2
177
     2
271
     3
178
     2
271
     3
340
153
  0
DIMSTYLE
105
1D7
102
{ACAD_REACTORS
330
1D8
102
}
330
A
100
AcDbSymbolTableRecord
100
AcDbDimStyleTableRecord
  2
ME10_DIM_20
 70
     0
  3
155mm (<>``)
 41
3.5
 42
0.0
 44
2.0
 73
     0
 74
     0
 77
     1
 78
     4
140
3.5
144
0.03937007874016
147
2.0
172
     1
173
     1
174
     1
175
     1
176
     2
177
     2
271
     3
178
     2
271
     3
340
153
  0
DIMSTYLE
105
1E3
102
{ACAD_REACTORS
330
1E4
102
}
330
A
100
AcDbSymbolTableRecord
100
AcDbDimStyleTableRecord
  2
ME10_DIM_21
 70
     0
  3
16mm (<>``)
 41
3.5
 42
0.0
 44
2.0
 73
     0
 74
     0
 77
     1
 78
     4
140
3.5
144
0.03937007874016
147
2.0
172
     1
173
     1
174
     1
175
     1
176
     2
177
     2
271
     3
178
     2
271
     3
340
153
  0
DIMSTYLE
105
1EF
102
{ACAD_REACTORS
330
1F0
102
}
330
A
100
AcDbSymbolTableRecord
100
AcDbDimStyleTableRecord
  2
ME10_DIM_22
 70
     0
  3
18mm (<>``)
 41
3.5
 42
0.0
 44
2.0
 73
     0
 74
     0
 77
     1
 78
     4
140
3.5
144
0.03937007874016
147
2.0
172
     1
173
     1
174
     1
175
     1
176
     2
177
     2
271
     3
178
     2
271
     3
340
153
  0
DIMSTYLE
105
1FC
102
{ACAD_REACTORS
330
1FD
102
}
330
A
100
AcDbSymbolTableRecord
100
AcDbDimStyleTableRecord
  2
ME10_DIM_23
 70
     0
  3
4mm (<>``)
 41
3.5
 42
0.0
 44
2.0
 73
     0
 74
     0
 77
     1
 78
     4
140
3.5
144
0.03937007874016
147
2.0
172
     1
173
     1
174
     1
175
     1
176
     2
177
     2
271
     3
178
     2
271
     3
340
153
  0
DIMSTYLE
105
208
102
{ACAD_REACTORS
330
209
102
}
330
A
100
AcDbSymbolTableRecord
100
AcDbDimStyleTableRecord
  2
ME10_DIM_24
 70
     0
  3
21mm (<>``)
 41
3.5
 42
0.0
 44
2.0
 73
     0
 74
     0
 77
     1
 78
     4
140
3.5
144
0.03937007874016
147
2.0
172
     1
173
     1
174
     1
175
     1
176
     2
177
     2
271
     3
178
     2
271
     3
340
153
  0
DIMSTYLE
105
214
102
{ACAD_REACTORS
330
215
102
}
330
A
100
AcDbSymbolTableRecord
100
AcDbDimStyleTableRecord
  2
ME10_DIM_25
 70
     0
  3
18mm (<>``)
 41
3.5
 42
0.0
 44
2.0
 73
     0
 74
     0
 77
     1
 78
     4
140
3.5
144
0.03937007874016
147
2.0
172
     1
173
     1
174
     1
175
     1
176
     2
177
     2
271
     3
178
     2
271
     3
340
153
  0
DIMSTYLE
105
21F
102
{ACAD_REACTORS
330
220
102
}
330
A
100
AcDbSymbolTableRecord
100
AcDbDimStyleTableRecord
  2
ME10_DIM_26
 70
     0
  3
155mm (<>``)
 41
3.5
 42
0.0
 44
2.0
 73
     0
 74
     0
 77
     1
 78
     4
140
3.5
144
0.03937007874016
147
2.0
172
     1
173
     1
174
     1
175
     1
176
     2
177
     2
271
     3
178
     2
271
     3
340
153
  0
DIMSTYLE
105
22A
102
{ACAD_REACTORS
330
22B
102
}
330
A
100
AcDbSymbolTableRecord
100
AcDbDimStyleTableRecord
  2
ME10_DIM_27
 70
     0
  3
132mm (<>``)
 41
3.5
 42
0.0
 44
2.0
 73
     0
 74
     0
 77
     1
 78
     4
140
3.5
144
0.03937007874016
147
2.0
172
     1
173
     1
174
     1
175
     1
176
     2
177
     2
271
     3
178
     2
271
     3
340
153
  0
DIMSTYLE
105
237
102
{ACAD_REACTORS
330
238
102
}
330
A
100
AcDbSymbolTableRecord
100
AcDbDimStyleTableRecord
  2
ME10_DIM_28
 70
     0
  3
3mm (<>``)
 41
3.5
 42
0.0
 44
2.0
 73
     0
 74
     0
 77
     1
 78
     4
140
3.5
144
0.03937007874016
147
2.0
172
     1
173
     1
174
     1
175
     1
176
     2
177
     2
271
     3
178
     2
271
     3
340
153
  0
DIMSTYLE
105
242
102
{ACAD_REACTORS
330
243
102
}
330
A
100
AcDbSymbolTableRecord
100
AcDbDimStyleTableRecord
  2
ME10_DIM_29
 70
     0
  3
40mm (<>``)
 41
3.5
 42
0.0
 44
2.0
 73
     0
 74
     0
 77
     1
 78
     4
140
3.5
144
0.03937007874016
147
2.0
172
     1
173
     1
174
     1
175
     1
176
     2
177
     2
271
     3
178
     2
271
     3
340
153
  0
DIMSTYLE
105
24E
102
{ACAD_REACTORS
330
24F
102
}
330
A
100
AcDbSymbolTableRecord
100
AcDbDimStyleTableRecord
  2
ME10_DIM_30
 70
     0
  3
16mm (<>``)
 41
3.5
 42
0.0
 44
2.0
 73
     0
 74
     0
 77
     1
 78
     4
140
3.5
144
0.03937007874016
147
2.0
172
     1
173
     1
174
     1
175
     1
176
     2
177
     2
271
     3
178
     2
271
     3
340
153
  0
DIMSTYLE
105
259
102
{ACAD_REACTORS
330
25A
102
}
330
A
100
AcDbSymbolTableRecord
100
AcDbDimStyleTableRecord
  2
ME10_DIM_31
 70
     0
  3
40mm (<>``)
 41
3.5
 42
0.0
 44
2.0
 73
     0
 74
     0
 77
     1
 78
     4
140
3.5
144
0.03937007874016
147
2.0
172
     1
173
     1
174
     1
175
     1
176
     2
177
     2
271
     3
178
     2
271
     3
340
153
  0
DIMSTYLE
105
264
102
{ACAD_REACTORS
330
265
102
}
330
A
100
AcDbSymbolTableRecord
100
AcDbDimStyleTableRecord
  2
ME10_DIM_32
 70
     0
  3
142mm (<>``)
 41
3.5
 42
0.0
 44
2.0
 73
     0
 74
     0
 77
     1
 78
     4
140
3.5
144
0.03937007874016
147
2.0
172
     1
173
     1
174
     1
175
     1
176
     2
177
     2
271
     3
178
     2
271
     3
340
153
  0
ENDTAB
  0
TABLE
  2
BLOCK_RECORD
  5
1
330
0
100
AcDbSymbolTable
 70
    29
  0
BLOCK_RECORD
  5
1F
330
1
100
AcDbSymbolTableRecord
100
AcDbBlockTableRecord
  2
*Model_Space
340
22
  0
BLOCK_RECORD
  5
1B
330
1
100
AcDbSymbolTableRecord
100
AcDbBlockTableRecord
  2
*Paper_Space
340
1E
  0
BLOCK_RECORD
  5
23
330
1
100
AcDbSymbolTableRecord
100
AcDbBlockTableRecord
  2
*Paper_Space0
340
26
  0
BLOCK_RECORD
  5
157
330
1
100
AcDbSymbolTableRecord
100
AcDbBlockTableRecord
  2
*D1
340
0
  0
BLOCK_RECORD
  5
162
330
1
100
AcDbSymbolTableRecord
100
AcDbBlockTableRecord
  2
*D2
340
0
  0
BLOCK_RECORD
  5
16E
330
1
100
AcDbSymbolTableRecord
100
AcDbBlockTableRecord
  2
*D3
340
0
  0
BLOCK_RECORD
  5
179
330
1
100
AcDbSymbolTableRecord
100
AcDbBlockTableRecord
  2
*D4
340
0
  0
BLOCK_RECORD
  5
186
330
1
100
AcDbSymbolTableRecord
100
AcDbBlockTableRecord
  2
*D5
340
0
  0
BLOCK_RECORD
  5
193
330
1
100
AcDbSymbolTableRecord
100
AcDbBlockTableRecord
  2
*D6
340
0
  0
BLOCK_RECORD
  5
19F
330
1
100
AcDbSymbolTableRecord
100
AcDbBlockTableRecord
  2
*D7
340
0
  0
BLOCK_RECORD
  5
1AB
330
1
100
AcDbSymbolTableRecord
100
AcDbBlockTableRecord
  2
*D8
340
0
  0
BLOCK_RECORD
  5
1B7
330
1
100
AcDbSymbolTableRecord
100
AcDbBlockTableRecord
  2
*D9
340
0
  0
BLOCK_RECORD
  5
1C3
330
1
100
AcDbSymbolTableRecord
100
AcDbBlockTableRecord
  2
*D10
340
0
  0
BLOCK_RECORD
  5
1CE
330
1
100
AcDbSymbolTableRecord
100
AcDbBlockTableRecord
  2
*D11
340
0
  0
BLOCK_RECORD
  5
1D9
330
1
100
AcDbSymbolTableRecord
100
AcDbBlockTableRecord
  2
*D12
340
0
  0
BLOCK_RECORD
  5
1E5
330
1
100
AcDbSymbolTableRecord
100
AcDbBlockTableRecord
  2
*D13
340
0
  0
BLOCK_RECORD
  5
1F1
330
1
100
AcDbSymbolTableRecord
100
AcDbBlockTableRecord
  2
*D14
340
0
  0
BLOCK_RECORD
  5
1FE
330
1
100
AcDbSymbolTableRecord
100
AcDbBlockTableRecord
  2
*D15
340
0
  0
BLOCK_RECORD
  5
20A
330
1
100
AcDbSymbolTableRecord
100
AcDbBlockTableRecord
  2
*D16
340
0
  0
BLOCK_RECORD
  5
216
330
1
100
AcDbSymbolTableRecord
100
AcDbBlockTableRecord
  2
*D17
340
0
  0
BLOCK_RECORD
  5
221
330
1
100
AcDbSymbolTableRecord
100
AcDbBlockTableRecord
  2
*D18
340
0
  0
BLOCK_RECORD
  5
22C
330
1
100
AcDbSymbolTableRecord
100
AcDbBlockTableRecord
  2
*D19
340
0
  0
BLOCK_RECORD
  5
239
330
1
100
AcDbSymbolTableRecord
100
AcDbBlockTableRecord
  2
*D20
340
0
  0
BLOCK_RECORD
  5
244
330
1
100
AcDbSymbolTableRecord
100
AcDbBlockTableRecord
  2
*D21
340
0
  0
BLOCK_RECORD
  5
250
330
1
100
AcDbSymbolTableRecord
100
AcDbBlockTableRecord
  2
*D22
340
0
  0
BLOCK_RECORD
  5
25B
330
1
100
AcDbSymbolTableRecord
100
AcDbBlockTableRecord
  2
*D23
340
0
  0
BLOCK_RECORD
  5
266
330
1
100
AcDbSymbolTableRecord
100
AcDbBlockTableRecord
  2
*D24
340
0
102
{BLKREFS
331
26C
102
}
  0
BLOCK_RECORD
  5
26D
330
1
100
AcDbSymbolTableRecord
100
AcDbBlockTableRecord
  2
*D25
340
0
102
{BLKREFS
331
275
102
}
  0
BLOCK_RECORD
  5
276
330
1
100
AcDbSymbolTableRecord
100
AcDbBlockTableRecord
  2
*D26
340
0
102
{BLKREFS
331
27E
102
}
  0
BLOCK_RECORD
  5
27F
330
1
100
AcDbSymbolTableRecord
100
AcDbBlockTableRecord
  2
*D27
340
0
102
{BLKREFS
331
287
102
}
  0
BLOCK_RECORD
  5
288
330
1
100
AcDbSymbolTableRecord
100
AcDbBlockTableRecord
  2
*D28
340
0
102
{BLKREFS
331
290
102
}
  0
ENDTAB
  0
ENDSEC
  0
SECTION
  2
BLOCKS
  0
BLOCK
  5
20
330
1F
100
AcDbEntity
  8
0
100
AcDbBlockBegin
  2
*Model_Space
 70
     0
 10
0.0
 20
0.0
 30
0.0
  3
*Model_Space
  1

  0
ENDBLK
  5
21
330
1F
100
AcDbEntity
  8
0
100
AcDbBlockEnd
  0
BLOCK
  5
1C
330
1B
100
AcDbEntity
 67
     1
  8
0
100
AcDbBlockBegin
  2
*Paper_Space
 70
     0
 10
0.0
 20
0.0
 30
0.0
  3
*Paper_Space
  1

  0
ENDBLK
  5
1D
330
1B
100
AcDbEntity
 67
     1
  8
0
100
AcDbBlockEnd
  0
BLOCK
  5
24
330
23
100
AcDbEntity
  8
0
100
AcDbBlockBegin
  2
*Paper_Space0
 70
     0
 10
0.0
 20
0.0
 30
0.0
  3
*Paper_Space0
  1

  0
ENDBLK
  5
25
330
23
100
AcDbEntity
  8
0
100
AcDbBlockEnd
  0
BLOCK
  5
15E
330
157
100
AcDbEntity
  8
0
100
AcDbBlockBegin
  2
*D1
 70
     1
 10
0.0
 20
0.0
 30
0.0
  3
*D1
  1

  0
LINE
  5
158
330
157
100
AcDbEntity
  8
1
  6
Continuous
 62
     2
100
AcDbLine
 10
47.38679367266684
 20
-13.9668547328877
 30
0.0
 11
29.3867936726667
 21
-13.9668547328877
 31
0.0
  0
LINE
  5
159
330
157
100
AcDbEntity
  8
1
  6
Continuous
 62
     2
100
AcDbLine
 10
29.3867936726667
 20
-60.69793997026321
 30
0.0
 11
29.3867936726667
 21
-11.9668547328877
 31
0.0
  0
LINE
  5
15A
330
157
100
AcDbEntity
  8
1
  6
Continuous
 62
     2
100
AcDbLine
 10
47.38679367266684
 20
-26.69793997026321
 30
0.0
 11
47.38679367266684
 21
-11.9668547328877
 31
0.0
  0
SOLID
  5
15B
330
157
100
AcDbEntity
  8
1
 62
     2
100
AcDbTrace
 10
43.88679367266684
 20
-14.42763847444358
 30
0.0
 11
43.88679367266684
 21
-13.50607099133181
 31
0.0
 12
47.38679367266684
 22
-13.9668547328877
 32
0.0
 13
47.38679367266684
 23
-13.9668547328877
 33
0.0
  0
SOLID
  5
15C
330
157
100
AcDbEntity
  8
1
 62
     2
100
AcDbTrace
 10
32.8867936726667
 20
-13.50607099133181
 30
0.0
 11
32.8867936726667
 21
-14.42763847444359
 31
0.0
 12
29.3867936726667
 22
-13.9668547328877
 32
0.0
 13
29.3867936726667
 23
-13.9668547328877
 33
0.0
  0
MTEXT
  5
15D
330
157
100
AcDbEntity
  8
1
 62
     2
100
AcDbMText
 10
14.09840335810152
 20
-11.96692430365094
 30
0.0
 40
3.5
 41
0.0
 71
     7
 72
     1
  1
\C2;min.35mm (\C2;1.378``)
  7
CONVERTER_11
 11
0.9999999999970619
 21
2.424068405545306E-6
 31
0.0
 73
     1
 44
0.60024009603842
  0
ENDBLK
  5
15F
330
157
100
AcDbEntity
  8
0
100
AcDbBlockEnd
  0
BLOCK
  5
16A
330
162
100
AcDbEntity
  8
0
100
AcDbBlockBegin
  2
*D2
 70
     1
 10
0.0
 20
0.0
 30
0.0
  3
*D2
  1

  0
LINE
  5
163
330
162
100
AcDbEntity
  8
1
  6
Continuous
 62
     2
100
AcDbLine
 10
67.4865992579755
 20
-42.69793997026321
 30
0.0
 11
67.4865992579755
 21
-1.156898164731
 31
0.0
  0
LINE
  5
164
330
162
100
AcDbEntity
  8
1
  6
Continuous
 62
     2
100
AcDbLine
 10
67.4865992579755
 20
-66.6979399702632
 30
0.0
 11
67.4865992579755
 21
-42.69793997026321
 31
0.0
  0
LINE
  5
165
330
162
100
AcDbEntity
  8
1
  6
Continuous
 62
     2
100
AcDbLine
 10
15.38679367266695
 20
-42.69793997026321
 30
0.0
 11
69.4865992579755
 21
-42.69793997026321
 31
0.0
  0
LINE
  5
166
330
162
100
AcDbEntity
  8
1
  6
Continuous
 62
     2
100
AcDbLine
 10
47.38679367266684
 20
-66.6979399702632
 30
0.0
 11
69.4865992579755
 21
-66.6979399702632
 31
0.0
  0
SOLID
  5
167
330
162
100
AcDbEntity
  8
1
 62
     2
100
AcDbTrace
 10
67.02581551641961
 20
-63.19793997026321
 30
0.0
 11
67.94738299953138
 21
-63.19793997026321
 31
0.0
 12
67.4865992579755
 22
-66.6979399702632
 32
0.0
 13
67.4865992579755
 23
-66.6979399702632
 33
0.0
  0
SOLID
  5
168
330
162
100
AcDbEntity
  8
1
 62
     2
100
AcDbTrace
 10
67.94738299953138
 20
-46.19793997026321
 30
0.0
 11
67.02581551641961
 21
-46.19793997026321
 31
0.0
 12
67.4865992579755
 22
-42.69793997026321
 32
0.0
 13
67.4865992579755
 23
-42.69793997026321
 33
0.0
  0
MTEXT
  5
169
330
162
100
AcDbEntity
  8
1
 62
     2
100
AcDbMText
 10
65.4865992579755
 20
-35.789398164731
 30
0.0
 40
3.5
 41
0.0
 71
     7
 72
     1
  1
\C2;24mm (\C2;0.945\C2;``)
  7
CONVERTER_11
 11
0.0
 21
1.0
 31
0.0
 73
     1
 44
0.60024009603842
  0
ENDBLK
  5
16B
330
162
100
AcDbEntity
  8
0
100
AcDbBlockEnd
  0
BLOCK
  5
175
330
16E
100
AcDbEntity
  8
0
100
AcDbBlockBegin
  2
*D3
 70
     1
 10
0.0
 20
0.0
 30
0.0
  3
*D3
  1

  0
LINE
  5
16F
330
16E
100
AcDbEntity
  8
1
  6
Continuous
 62
     2
100
AcDbLine
 10
209.3887512679591
 20
76.37660009231135
 30
0.0
 11
209.3887512679591
 21
-65.62339990768865
 31
0.0
  0
LINE
  5
170
330
16E
100
AcDbEntity
  8
1
  6
Continuous
 62
     2
100
AcDbLine
 10
175.9486003432113
 20
76.37660009231135
 30
0.0
 11
211.3887512679591
 21
76.37660009231135
 31
0.0
  0
LINE
  5
171
330
16E
100
AcDbEntity
  8
1
  6
Continuous
 62
     2
100
AcDbLine
 10
175.9486003432113
 20
-65.62339990768865
 30
0.0
 11
211.3887512679591
 21
-65.62339990768865
 31
0.0
  0
SOLID
  5
172
330
16E
100
AcDbEntity
  8
1
 62
     2
100
AcDbTrace
 10
209.849535009515
 20
72.87660009231135
 30
0.0
 11
208.9279675264032
 21
72.87660009231135
 31
0.0
 12
209.3887512679591
 22
76.37660009231135
 32
0.0
 13
209.3887512679591
 23
76.37660009231135
 33
0.0
  0
SOLID
  5
173
330
16E
100
AcDbEntity
  8
1
 62
     2
100
AcDbTrace
 10
208.9279675264032
 20
-62.12339990768865
 30
0.0
 11
209.849535009515
 21
-62.12339990768865
 31
0.0
 12
209.3887512679591
 22
-65.62339990768865
 32
0.0
 13
209.3887512679591
 23
-65.62339990768865
 33
0.0
  0
MTEXT
  5
174
330
16E
100
AcDbEntity
  8
1
 62
     2
100
AcDbMText
 10
207.3887512679591
 20
-14.65986345100198
 30
0.0
 40
3.5
 41
0.0
 71
     7
 72
     1
  1
\C2;142mm (\C2;5.591\C2;``)
  7
CONVERTER_11
 11
0.0
 21
1.0
 31
0.0
 73
     1
 44
0.60024009603842
  0
ENDBLK
  5
176
330
16E
100
AcDbEntity
  8
0
100
AcDbBlockEnd
  0
BLOCK
  5
182
330
179
100
AcDbEntity
  8
0
100
AcDbBlockBegin
  2
*D4
 70
     1
 10
0.0
 20
0.0
 30
0.0
  3
*D4
  1

  0
LINE
  5
17A
330
179
100
AcDbEntity
  8
1
  6
Continuous
 62
     2
100
AcDbLine
 10
-7.155817394035
 20
-66.6979399702632
 30
0.0
 11
-7.155817394035
 21
-100.9171012587725
 31
0.0
  0
LINE
  5
17B
330
179
100
AcDbEntity
  8
1
  6
Continuous
 62
     2
100
AcDbLine
 10
-7.155817394035
 20
-63.69793997026324
 30
0.0
 11
-7.155817394035
 21
-66.6979399702632
 31
0.0
  0
LINE
  5
17C
330
179
100
AcDbEntity
  8
1
  6
Continuous
 62
     2
100
AcDbLine
 10
-7.155817394035
 20
-56.69793997026324
 30
0.0
 11
-7.155817394035
 21
-63.69793997026324
 31
0.0
  0
LINE
  5
17D
330
179
100
AcDbEntity
  8
1
  6
Continuous
 62
     2
100
AcDbLine
 10
-1.11320632733314
 20
-66.6979399702632
 30
0.0
 11
-9.155817394035
 21
-66.6979399702632
 31
0.0
  0
LINE
  5
17E
330
179
100
AcDbEntity
  8
1
  6
Continuous
 62
     2
100
AcDbLine
 10
-11.11320632733307
 20
-63.69793997026324
 30
0.0
 11
-5.155817394035
 21
-63.69793997026324
 31
0.0
  0
SOLID
  5
17F
330
179
100
AcDbEntity
  8
1
 62
     2
100
AcDbTrace
 10
-7.61660113559088
 20
-60.19793997026324
 30
0.0
 11
-6.69503365247911
 21
-60.19793997026324
 31
0.0
 12
-7.155817394035
 22
-63.69793997026324
 32
0.0
 13
-7.155817394035
 23
-63.69793997026324
 33
0.0
  0
SOLID
  5
180
330
179
100
AcDbEntity
  8
1
 62
     2
100
AcDbTrace
 10
-6.69503365247911
 20
-70.1979399702632
 30
0.0
 11
-7.61660113559088
 21
-70.1979399702632
 31
0.0
 12
-7.155817394035
 22
-66.6979399702632
 32
0.0
 13
-7.155817394035
 23
-66.6979399702632
 33
0.0
  0
MTEXT
  5
181
330
179
100
AcDbEntity
  8
1
 62
     2
100
AcDbMText
 10
-9.155817394035
 20
-100.0421012587725
 30
0.0
 40
3.5
 41
0.0
 71
     7
 72
     1
  1
\C2;3mm (\C2;0.118\C2;``)
  7
CONVERTER_11
 11
0.0
 21
1.0
 31
0.0
 73
     1
 44
0.60024009603842
  0
ENDBLK
  5
183
330
179
100
AcDbEntity
  8
0
100
AcDbBlockEnd
  0
BLOCK
  5
18F
330
186
100
AcDbEntity
  8
0
100
AcDbBlockBegin
  2
*D5
 70
     1
 10
0.0
 20
0.0
 30
0.0
  3
*D5
  1

  0
LINE
  5
187
330
186
100
AcDbEntity
  8
1
  6
Continuous
 62
     2
100
AcDbLine
 10
12.63953091356274
 20
-66.6979399702632
 30
0.0
 11
12.63953091356274
 21
-100.4823954488453
 31
0.0
  0
LINE
  5
188
330
186
100
AcDbEntity
  8
1
  6
Continuous
 62
     2
100
AcDbLine
 10
12.63953091356274
 20
-62.69793997026319
 30
0.0
 11
12.63953091356274
 21
-66.6979399702632
 31
0.0
  0
LINE
  5
189
330
186
100
AcDbEntity
  8
1
  6
Continuous
 62
     2
100
AcDbLine
 10
12.63953091356274
 20
-55.69793997026319
 30
0.0
 11
12.63953091356274
 21
-62.69793997026319
 31
0.0
  0
LINE
  5
18A
330
186
100
AcDbEntity
  8
1
  6
Continuous
 62
     2
100
AcDbLine
 10
2.38679367266664
 20
-66.6979399702632
 30
0.0
 11
14.63953091356274
 21
-66.6979399702632
 31
0.0
  0
LINE
  5
18B
330
186
100
AcDbEntity
  8
1
  6
Continuous
 62
     2
100
AcDbLine
 10
12.38679367266663
 20
-62.69793997026319
 30
0.0
 11
14.63953091356274
 21
-62.69793997026319
 31
0.0
  0
SOLID
  5
18C
330
186
100
AcDbEntity
  8
1
 62
     2
100
AcDbTrace
 10
12.17874717200685
 20
-59.19793997026319
 30
0.0
 11
13.10031465511863
 21
-59.19793997026319
 31
0.0
 12
12.63953091356274
 22
-62.69793997026319
 32
0.0
 13
12.63953091356274
 23
-62.69793997026319
 33
0.0
  0
SOLID
  5
18D
330
186
100
AcDbEntity
  8
1
 62
     2
100
AcDbTrace
 10
13.10031465511863
 20
-70.1979399702632
 30
0.0
 11
12.17874717200685
 21
-70.1979399702632
 31
0.0
 12
12.63953091356274
 22
-66.6979399702632
 32
0.0
 13
12.63953091356274
 23
-66.6979399702632
 33
0.0
  0
MTEXT
  5
18E
330
186
100
AcDbEntity
  8
1
 62
     2
100
AcDbMText
 10
10.63953091356274
 20
-99.6073954488453
 30
0.0
 40
3.5
 41
0.0
 71
     7
 72
     1
  1
\C2;4mm (\C2;0.157\C2;``)
  7
CONVERTER_11
 11
0.0
 21
1.0
 31
0.0
 73
     1
 44
0.60024009603842
  0
ENDBLK
  5
190
330
186
100
AcDbEntity
  8
0
100
AcDbBlockEnd
  0
BLOCK
  5
19B
330
193
100
AcDbEntity
  8
0
100
AcDbBlockBegin
  2
*D6
 70
     1
 10
0.0
 20
0.0
 30
0.0
  3
*D6
  1

  0
LINE
  5
194
330
193
100
AcDbEntity
  8
1
  6
Continuous
 62
     2
100
AcDbLine
 10
79.08806616306083
 20
-110.622960427562
 30
0.0
 11
106.0880661630608
 21
-110.622960427562
 31
0.0
  0
LINE
  5
195
330
193
100
AcDbEntity
  8
1
  6
Continuous
 62
     2
100
AcDbLine
 10
39.26182816361242
 20
-110.622960427562
 30
0.0
 11
79.08806616306083
 21
-110.622960427562
 31
0.0
  0
LINE
  5
196
330
193
100
AcDbEntity
  8
1
  6
Continuous
 62
     2
100
AcDbLine
 10
106.0880661630608
 20
-54.62339990768866
 30
0.0
 11
106.0880661630608
 21
-112.622960427562
 31
0.0
  0
LINE
  5
197
330
193
100
AcDbEntity
  8
1
  6
Continuous
 62
     2
100
AcDbLine
 10
79.08806616306083
 20
-72.12339990768865
 30
0.0
 11
79.08806616306083
 21
-112.622960427562
 31
0.0
  0
SOLID
  5
198
330
193
100
AcDbEntity
  8
1
 62
     2
100
AcDbTrace
 10
82.58806616306083
 20
-110.1621766860061
 30
0.0
 11
82.58806616306083
 21
-111.0837441691179
 31
0.0
 12
79.08806616306083
 22
-110.622960427562
 32
0.0
 13
79.08806616306083
 23
-110.622960427562
 33
0.0
  0
SOLID
  5
199
330
193
100
AcDbEntity
  8
1
 62
     2
100
AcDbTrace
 10
102.5880661630608
 20
-111.0837441691179
 30
0.0
 11
102.5880661630608
 21
-110.1621766860061
 31
0.0
 12
106.0880661630608
 22
-110.622960427562
 32
0.0
 13
106.0880661630608
 23
-110.622960427562
 33
0.0
  0
MTEXT
  5
19A
330
193
100
AcDbEntity
  8
1
 62
     2
100
AcDbMText
 10
40.41682816366303
 20
-108.6230021700199
 30
0.0
 40
3.5
 41
0.0
 71
     7
 72
     1
  1
\C2;27mm (\C2;1.063\C2;``)
  7
CONVERTER_11
 11
0.9999999999970619
 21
2.424068405545306E-6
 31
0.0
 73
     1
 44
0.60024009603842
  0
ENDBLK
  5
19C
330
193
100
AcDbEntity
  8
0
100
AcDbBlockEnd
  0
BLOCK
  5
1A7
330
19F
100
AcDbEntity
  8
0
100
AcDbBlockBegin
  2
*D7
 70
     1
 10
0.0
 20
0.0
 30
0.0
  3
*D7
  1

  0
LINE
  5
1A0
330
19F
100
AcDbEntity
  8
1
  6
Continuous
 62
     2
100
AcDbLine
 10
79.08806616306084
 20
-98.785670014645
 30
0.0
 11
42.20082782705103
 21
-98.785670014645
 31
0.0
  0
LINE
  5
1A1
330
19F
100
AcDbEntity
  8
1
  6
Continuous
 62
     2
100
AcDbLine
 10
89.08806616306084
 20
-98.785670014645
 30
0.0
 11
79.08806616306084
 21
-98.785670014645
 31
0.0
  0
LINE
  5
1A2
330
19F
100
AcDbEntity
  8
1
  6
Continuous
 62
     2
100
AcDbLine
 10
79.08806616306084
 20
-89.62339990768868
 30
0.0
 11
79.08806616306084
 21
-100.785670014645
 31
0.0
  0
LINE
  5
1A3
330
19F
100
AcDbEntity
  8
1
  6
Continuous
 62
     2
100
AcDbLine
 10
89.08806616306084
 20
-72.12339990768865
 30
0.0
 11
89.08806616306084
 21
-100.785670014645
 31
0.0
  0
SOLID
  5
1A4
330
19F
100
AcDbEntity
  8
1
 62
     2
100
AcDbTrace
 10
85.58806616306084
 20
-99.24645375620089
 30
0.0
 11
85.58806616306084
 21
-98.32488627308912
 31
0.0
 12
89.08806616306084
 22
-98.785670014645
 32
0.0
 13
89.08806616306084
 23
-98.785670014645
 33
0.0
  0
SOLID
  5
1A5
330
19F
100
AcDbEntity
  8
1
 62
     2
100
AcDbTrace
 10
82.58806616306084
 20
-98.32488627308912
 30
0.0
 11
82.58806616306084
 21
-99.24645375620089
 31
0.0
 12
79.08806616306084
 22
-98.785670014645
 32
0.0
 13
79.08806616306084
 23
-98.785670014645
 33
0.0
  0
MTEXT
  5
1A6
330
19F
100
AcDbEntity
  8
1
 62
     2
100
AcDbMText
 10
42.30582782710164
 20
-96.78571175710294
 30
0.0
 40
3.5
 41
0.0
 71
     7
 72
     1
  1
\C2;10mm (\C2;0.394\C2;``)
  7
CONVERTER_11
 11
0.9999999999970619
 21
2.424068405545306E-6
 31
0.0
 73
     1
 44
0.60024009603842
  0
ENDBLK
  5
1A8
330
19F
100
AcDbEntity
  8
0
100
AcDbBlockEnd
  0
BLOCK
  5
1B3
330
1AB
100
AcDbEntity
  8
0
100
AcDbBlockBegin
  2
*D8
 70
     1
 10
0.0
 20
0.0
 30
0.0
  3
*D8
  1

  0
LINE
  5
1AC
330
1AB
100
AcDbEntity
  8
1
  6
Continuous
 62
     2
100
AcDbLine
 10
-68.80177865188125
 20
-99.2653824624736
 30
0.0
 11
-29.36539482681312
 21
-99.2653824624736
 31
0.0
  0
LINE
  5
1AD
330
1AB
100
AcDbEntity
  8
1
  6
Continuous
 62
     2
100
AcDbLine
 10
-78.80177865188125
 20
-99.2653824624736
 30
0.0
 11
-68.80177865188125
 21
-99.2653824624736
 31
0.0
  0
LINE
  5
1AE
330
1AB
100
AcDbEntity
  8
1
  6
Continuous
 62
     2
100
AcDbLine
 10
-68.80177865188125
 20
-89.62339990768865
 30
0.0
 11
-68.80177865188125
 21
-101.2653824624736
 31
0.0
  0
LINE
  5
1AF
330
1AB
100
AcDbEntity
  8
1
  6
Continuous
 62
     2
100
AcDbLine
 10
-78.80177865188125
 20
-72.12339990768865
 30
0.0
 11
-78.80177865188125
 21
-101.2653824624736
 31
0.0
  0
SOLID
  5
1B0
330
1AB
100
AcDbEntity
  8
1
 62
     2
100
AcDbTrace
 10
-75.30177865188125
 20
-98.80459872091771
 30
0.0
 11
-75.30177865188125
 21
-99.72616620402948
 31
0.0
 12
-78.80177865188125
 22
-99.2653824624736
 32
0.0
 13
-78.80177865188125
 23
-99.2653824624736
 33
0.0
  0
SOLID
  5
1B1
330
1AB
100
AcDbEntity
  8
1
 62
     2
100
AcDbTrace
 10
-72.30177865188125
 20
-99.72616620402948
 30
0.0
 11
-72.30177865188125
 21
-98.80459872091771
 31
0.0
 12
-68.80177865188125
 22
-99.2653824624736
 32
0.0
 13
-68.80177865188125
 23
-99.2653824624736
 33
0.0
  0
MTEXT
  5
1B2
330
1AB
100
AcDbEntity
  8
1
 62
     2
100
AcDbMText
 10
-63.99789482676253
 20
-97.26542420493153
 30
0.0
 40
3.5
 41
0.0
 71
     7
 72
     1
  1
\C2;10mm (\C2;0.394\C2;``)
  7
CONVERTER_11
 11
0.9999999999970619
 21
2.424068405545306E-6
 31
0.0
 73
     1
 44
0.60024009603842
  0
ENDBLK
  5
1B4
330
1AB
100
AcDbEntity
  8
0
100
AcDbBlockEnd
  0
BLOCK
  5
1BF
330
1B7
100
AcDbEntity
  8
0
100
AcDbBlockBegin
  2
*D9
 70
     1
 10
0.0
 20
0.0
 30
0.0
  3
*D9
  1

  0
LINE
  5
1B8
330
1B7
100
AcDbEntity
  8
1
  6
Continuous
 62
     2
100
AcDbLine
 10
-68.80177865188125
 20
-110.2833961103276
 30
0.0
 11
-92.80488390961864
 21
-110.2833961103276
 31
0.0
  0
LINE
  5
1B9
330
1B7
100
AcDbEntity
  8
1
  6
Continuous
 62
     2
100
AcDbLine
 10
-30.08224419807557
 20
-110.2833961103276
 30
0.0
 11
-68.80177865188125
 21
-110.2833961103276
 31
0.0
  0
LINE
  5
1BA
330
1B7
100
AcDbEntity
  8
1
  6
Continuous
 62
     2
100
AcDbLine
 10
-92.80488390961864
 20
-60.62339990768861
 30
0.0
 11
-92.80488390961864
 21
-112.2833961103276
 31
0.0
  0
LINE
  5
1BB
330
1B7
100
AcDbEntity
  8
1
  6
Continuous
 62
     2
100
AcDbLine
 10
-68.80177865188125
 20
-72.12339990768865
 30
0.0
 11
-68.80177865188125
 21
-112.2833961103276
 31
0.0
  0
SOLID
  5
1BC
330
1B7
100
AcDbEntity
  8
1
 62
     2
100
AcDbTrace
 10
-72.30177865188125
 20
-110.7441798518835
 30
0.0
 11
-72.30177865188125
 21
-109.8226123687717
 31
0.0
 12
-68.80177865188125
 22
-110.2833961103276
 32
0.0
 13
-68.80177865188125
 23
-110.2833961103276
 33
0.0
  0
SOLID
  5
1BD
330
1B7
100
AcDbEntity
  8
1
 62
     2
100
AcDbTrace
 10
-89.30488390961864
 20
-109.8226123687717
 30
0.0
 11
-89.30488390961864
 21
-110.7441798518835
 31
0.0
 12
-92.80488390961864
 22
-110.2833961103276
 32
0.0
 13
-92.80488390961864
 23
-110.2833961103276
 33
0.0
  0
MTEXT
  5
1BE
330
1B7
100
AcDbEntity
  8
1
 62
     2
100
AcDbMText
 10
-64.71474419802497
 20
-108.2834378527855
 30
0.0
 40
3.5
 41
0.0
 71
     7
 72
     1
  1
\C2;24mm (\C2;0.945\C2;``)
  7
CONVERTER_11
 11
0.9999999999970619
 21
2.424068405545306E-6
 31
0.0
 73
     1
 44
0.60024009603842
  0
ENDBLK
  5
1C0
330
1B7
100
AcDbEntity
  8
0
100
AcDbBlockEnd
  0
BLOCK
  5
1CA
330
1C3
100
AcDbEntity
  8
0
100
AcDbBlockBegin
  2
*D10
 70
     1
 10
0.0
 20
0.0
 30
0.0
  3
*D10
  1

  0
LINE
  5
1C4
330
1C3
100
AcDbEntity
  8
1
  6
Continuous
 62
     2
100
AcDbLine
 10
200.769916730974
 20
65.37660009231134
 30
0.0
 11
200.769916730974
 21
-54.62339990768866
 31
0.0
  0
LINE
  5
1C5
330
1C3
100
AcDbEntity
  8
1
  6
Continuous
 62
     2
100
AcDbLine
 10
177.1986003432113
 20
65.37660009231134
 30
0.0
 11
202.769916730974
 21
65.37660009231134
 31
0.0
  0
LINE
  5
1C6
330
1C3
100
AcDbEntity
  8
1
  6
Continuous
 62
     2
100
AcDbLine
 10
177.1986003432113
 20
-54.62339990768866
 30
0.0
 11
202.769916730974
 21
-54.62339990768866
 31
0.0
  0
SOLID
  5
1C7
330
1C3
100
AcDbEntity
  8
1
 62
     2
100
AcDbTrace
 10
201.2307004725299
 20
61.87660009231134
 30
0.0
 11
200.3091329894181
 21
61.87660009231134
 31
0.0
 12
200.769916730974
 22
65.37660009231134
 32
0.0
 13
200.769916730974
 23
65.37660009231134
 33
0.0
  0
SOLID
  5
1C8
330
1C3
100
AcDbEntity
  8
1
 62
     2
100
AcDbTrace
 10
200.3091329894181
 20
-51.12339990768866
 30
0.0
 11
201.2307004725299
 21
-51.12339990768866
 31
0.0
 12
200.769916730974
 22
-54.62339990768866
 32
0.0
 13
200.769916730974
 23
-54.62339990768866
 33
0.0
  0
MTEXT
  5
1C9
330
1C3
100
AcDbEntity
  8
1
 62
     2
100
AcDbMText
 10
198.769916730974
 20
-14.95487963725349
 30
0.0
 40
3.5
 41
0.0
 71
     7
 72
     1
  1
\C2;120mm (\C2;4.724\C2;``)
  7
CONVERTER_11
 11
0.0
 21
1.0
 31
0.0
 73
     1
 44
0.60024009603842
  0
ENDBLK
  5
1CB
330
1C3
100
AcDbEntity
  8
0
100
AcDbBlockEnd
  0
BLOCK
  5
1D5
330
1CE
100
AcDbEntity
  8
0
100
AcDbBlockBegin
  2
*D11
 70
     1
 10
0.0
 20
0.0
 30
0.0
  3
*D11
  1

  0
LINE
  5
1CF
330
1CE
100
AcDbEntity
  8
1
  6
Continuous
 62
     2
100
AcDbLine
 10
219.164495411211
 20
-72.12339990768865
 30
0.0
 11
219.164495411211
 21
82.87660009231135
 31
0.0
  0
LINE
  5
1D0
330
1CE
100
AcDbEntity
  8
1
  6
Continuous
 62
     2
100
AcDbLine
 10
178.1986003432112
 20
-72.12339990768865
 30
0.0
 11
221.164495411211
 21
-72.12339990768865
 31
0.0
  0
LINE
  5
1D1
330
1CE
100
AcDbEntity
  8
1
  6
Continuous
 62
     2
100
AcDbLine
 10
178.1986003432112
 20
82.87660009231135
 30
0.0
 11
221.164495411211
 21
82.87660009231135
 31
0.0
  0
SOLID
  5
1D2
330
1CE
100
AcDbEntity
  8
1
 62
     2
100
AcDbTrace
 10
218.7037116696551
 20
-68.62339990768865
 30
0.0
 11
219.6252791527669
 21
-68.62339990768865
 31
0.0
 12
219.164495411211
 22
-72.12339990768865
 32
0.0
 13
219.164495411211
 23
-72.12339990768865
 33
0.0
  0
SOLID
  5
1D3
330
1CE
100
AcDbEntity
  8
1
 62
     2
100
AcDbTrace
 10
219.6252791527669
 20
79.37660009231135
 30
0.0
 11
218.7037116696551
 21
79.37660009231135
 31
0.0
 12
219.164495411211
 22
82.87660009231135
 32
0.0
 13
219.164495411211
 23
82.87660009231135
 33
0.0
  0
MTEXT
  5
1D4
330
1CE
100
AcDbEntity
  8
1
 62
     2
100
AcDbMText
 10
217.164495411211
 20
-11.78136159302699
 30
0.0
 40
3.5
 41
0.0
 71
     7
 72
     1
  1
\C2;155mm (\C2;6.102\C2;``)
  7
CONVERTER_11
 11
0.0
 21
1.0
 31
0.0
 73
     1
 44
0.60024009603842
  0
ENDBLK
  5
1D6
330
1CE
100
AcDbEntity
  8
0
100
AcDbBlockEnd
  0
BLOCK
  5
1E1
330
1D9
100
AcDbEntity
  8
0
100
AcDbBlockBegin
  2
*D12
 70
     1
 10
0.0
 20
0.0
 30
0.0
  3
*D12
  1

  0
LINE
  5
1DA
330
1D9
100
AcDbEntity
  8
1
  6
Continuous
 62
     2
100
AcDbLine
 10
169.1986003432113
 20
32.3048182481224
 30
0.0
 11
129.3333311065338
 21
32.3048182481224
 31
0.0
  0
LINE
  5
1DB
330
1D9
100
AcDbEntity
  8
1
  6
Continuous
 62
     2
100
AcDbLine
 10
185.1986003432113
 20
32.3048182481224
 30
0.0
 11
169.1986003432113
 21
32.3048182481224
 31
0.0
  0
LINE
  5
1DC
330
1D9
100
AcDbEntity
  8
1
  6
Continuous
 62
     2
100
AcDbLine
 10
169.1986003432113
 20
5.37660009231135
 30
0.0
 11
169.1986003432113
 21
34.3048182481224
 31
0.0
  0
LINE
  5
1DD
330
1D9
100
AcDbEntity
  8
1
  6
Continuous
 62
     2
100
AcDbLine
 10
185.1986003432113
 20
-46.62339990768864
 30
0.0
 11
185.1986003432113
 21
34.3048182481224
 31
0.0
  0
SOLID
  5
1DE
330
1D9
100
AcDbEntity
  8
1
 62
     2
100
AcDbTrace
 10
181.6986003432113
 20
31.84403450656652
 30
0.0
 11
181.6986003432113
 21
32.76560198967829
 31
0.0
 12
185.1986003432113
 22
32.3048182481224
 32
0.0
 13
185.1986003432113
 23
32.3048182481224
 33
0.0
  0
SOLID
  5
1DF
330
1D9
100
AcDbEntity
  8
1
 62
     2
100
AcDbTrace
 10
172.6986003432113
 20
32.76560198967829
 30
0.0
 11
172.6986003432113
 21
31.84403450656652
 31
0.0
 12
169.1986003432113
 22
32.3048182481224
 32
0.0
 13
169.1986003432113
 23
32.3048182481224
 33
0.0
  0
MTEXT
  5
1E0
330
1D9
100
AcDbEntity
  8
1
 62
     2
100
AcDbMText
 10
129.4383311065844
 20
34.30477650566446
 30
0.0
 40
3.5
 41
0.0
 71
     7
 72
     1
  1
\C2;16mm (\C2;0.630\C2;``)
  7
CONVERTER_11
 11
0.9999999999970619
 21
2.424068405545306E-6
 31
0.0
 73
     1
 44
0.60024009603842
  0
ENDBLK
  5
1E2
330
1D9
100
AcDbEntity
  8
0
100
AcDbBlockEnd
  0
BLOCK
  5
1ED
330
1E5
100
AcDbEntity
  8
0
100
AcDbBlockBegin
  2
*D13
 70
     1
 10
0.0
 20
0.0
 30
0.0
  3
*D13
  1

  0
LINE
  5
1E6
330
1E5
100
AcDbEntity
  8
1
  6
Continuous
 62
     2
100
AcDbLine
 10
187.1986003432113
 20
-108.781584343866
 30
0.0
 11
169.1986003432113
 21
-108.781584343866
 31
0.0
  0
LINE
  5
1E7
330
1E5
100
AcDbEntity
  8
1
  6
Continuous
 62
     2
100
AcDbLine
 10
223.259618300829
 20
-108.781584343866
 30
0.0
 11
187.1986003432113
 21
-108.781584343866
 31
0.0
  0
LINE
  5
1E8
330
1E5
100
AcDbEntity
  8
1
  6
Continuous
 62
     2
100
AcDbLine
 10
169.1986003432113
 20
-63.12339990768867
 30
0.0
 11
169.1986003432113
 21
-110.781584343866
 31
0.0
  0
LINE
  5
1E9
330
1E5
100
AcDbEntity
  8
1
  6
Continuous
 62
     2
100
AcDbLine
 10
187.1986003432113
 20
-63.12339990768867
 30
0.0
 11
187.1986003432113
 21
-110.781584343866
 31
0.0
  0
SOLID
  5
1EA
330
1E5
100
AcDbEntity
  8
1
 62
     2
100
AcDbTrace
 10
183.6986003432113
 20
-109.2423680854219
 30
0.0
 11
183.6986003432113
 21
-108.3208006023101
 31
0.0
 12
187.1986003432113
 22
-108.781584343866
 32
0.0
 13
187.1986003432113
 23
-108.781584343866
 33
0.0
  0
SOLID
  5
1EB
330
1E5
100
AcDbEntity
  8
1
 62
     2
100
AcDbTrace
 10
172.6986003432113
 20
-108.3208006023101
 30
0.0
 11
172.6986003432113
 21
-109.2423680854219
 31
0.0
 12
169.1986003432113
 22
-108.781584343866
 32
0.0
 13
169.1986003432113
 23
-108.781584343866
 33
0.0
  0
MTEXT
  5
1EC
330
1E5
100
AcDbEntity
  8
1
 62
     2
100
AcDbMText
 10
188.6271183008796
 20
-106.7816260863239
 30
0.0
 40
3.5
 41
0.0
 71
     7
 72
     1
  1
\C2;18mm (\C2;0.709\C2;``)
  7
CONVERTER_11
 11
0.9999999999970619
 21
2.424068405545306E-6
 31
0.0
 73
     1
 44
0.60024009603842
  0
ENDBLK
  5
1EE
330
1E5
100
AcDbEntity
  8
0
100
AcDbBlockEnd
  0
BLOCK
  5
1FA
330
1F1
100
AcDbEntity
  8
0
100
AcDbBlockBegin
  2
*D14
 70
     1
 10
0.0
 20
0.0
 30
0.0
  3
*D14
  1

  0
LINE
  5
1F2
330
1F1
100
AcDbEntity
  8
1
  6
Continuous
 62
     2
100
AcDbLine
 10
187.1986003432113
 20
-97.781584343866
 30
0.0
 11
180.1986003432113
 21
-97.781584343866
 31
0.0
  0
LINE
  5
1F3
330
1F1
100
AcDbEntity
  8
1
  6
Continuous
 62
     2
100
AcDbLine
 10
191.1986003432113
 20
-97.781584343866
 30
0.0
 11
187.1986003432113
 21
-97.781584343866
 31
0.0
  0
LINE
  5
1F4
330
1F1
100
AcDbEntity
  8
1
  6
Continuous
 62
     2
100
AcDbLine
 10
223.384289035212
 20
-97.781584343866
 30
0.0
 11
191.1986003432113
 21
-97.781584343866
 31
0.0
  0
LINE
  5
1F5
330
1F1
100
AcDbEntity
  8
1
  6
Continuous
 62
     2
100
AcDbLine
 10
187.1986003432113
 20
-63.12339990768866
 30
0.0
 11
187.1986003432113
 21
-99.781584343866
 31
0.0
  0
LINE
  5
1F6
330
1F1
100
AcDbEntity
  8
1
  6
Continuous
 62
     2
100
AcDbLine
 10
191.1986003432113
 20
-89.62339990768866
 30
0.0
 11
191.1986003432113
 21
-99.781584343866
 31
0.0
  0
SOLID
  5
1F7
330
1F1
100
AcDbEntity
  8
1
 62
     2
100
AcDbTrace
 10
194.6986003432113
 20
-97.32080060231011
 30
0.0
 11
194.6986003432113
 21
-98.24236808542189
 31
0.0
 12
191.1986003432113
 22
-97.781584343866
 32
0.0
 13
191.1986003432113
 23
-97.781584343866
 33
0.0
  0
SOLID
  5
1F8
330
1F1
100
AcDbEntity
  8
1
 62
     2
100
AcDbTrace
 10
183.6986003432113
 20
-98.24236808542189
 30
0.0
 11
183.6986003432113
 21
-97.32080060231011
 31
0.0
 12
187.1986003432113
 22
-97.781584343866
 32
0.0
 13
187.1986003432113
 23
-97.781584343866
 33
0.0
  0
MTEXT
  5
1F9
330
1F1
100
AcDbEntity
  8
1
 62
     2
100
AcDbMText
 10
192.6717890352542
 20
-95.78161912924762
 30
0.0
 40
3.5
 41
0.0
 71
     7
 72
     1
  1
\C2;4mm (\C2;0.157\C2;``)
  7
CONVERTER_11
 11
0.9999999999970619
 21
2.424068405545306E-6
 31
0.0
 73
     1
 44
0.60024009603842
  0
ENDBLK
  5
1FB
330
1F1
100
AcDbEntity
  8
0
100
AcDbBlockEnd
  0
BLOCK
  5
206
330
1FE
100
AcDbEntity
  8
0
100
AcDbBlockBegin
  2
*D15
 70
     1
 10
0.0
 20
0.0
 30
0.0
  3
*D15
  1

  0
LINE
  5
1FF
330
1FE
100
AcDbEntity
  8
1
  6
Continuous
 62
     2
100
AcDbLine
 10
-189.1092983114338
 20
-109.5759847602375
 30
0.0
 11
-227.2139842178087
 21
-109.5759847602375
 31
0.0
  0
LINE
  5
200
330
1FE
100
AcDbEntity
  8
1
  6
Continuous
 62
     2
100
AcDbLine
 10
-168.1092983114338
 20
-109.5759847602375
 30
0.0
 11
-189.1092983114338
 21
-109.5759847602375
 31
0.0
  0
LINE
  5
201
330
1FE
100
AcDbEntity
  8
1
  6
Continuous
 62
     2
100
AcDbLine
 10
-189.1092983114338
 20
-61.62339990768865
 30
0.0
 11
-189.1092983114338
 21
-111.5759847602375
 31
0.0
  0
LINE
  5
202
330
1FE
100
AcDbEntity
  8
1
  6
Continuous
 62
     2
100
AcDbLine
 10
-168.1092983114338
 20
-61.62339990768865
 30
0.0
 11
-168.1092983114338
 21
-111.5759847602375
 31
0.0
  0
SOLID
  5
203
330
1FE
100
AcDbEntity
  8
1
 62
     2
100
AcDbTrace
 10
-171.6092983114338
 20
-110.0367685017934
 30
0.0
 11
-171.6092983114338
 21
-109.1152010186816
 31
0.0
 12
-168.1092983114338
 22
-109.5759847602375
 32
0.0
 13
-168.1092983114338
 23
-109.5759847602375
 33
0.0
  0
SOLID
  5
204
330
1FE
100
AcDbEntity
  8
1
 62
     2
100
AcDbTrace
 10
-185.6092983114338
 20
-109.1152010186816
 30
0.0
 11
-185.6092983114338
 21
-110.0367685017934
 31
0.0
 12
-189.1092983114338
 22
-109.5759847602375
 32
0.0
 13
-189.1092983114338
 23
-109.5759847602375
 33
0.0
  0
MTEXT
  5
205
330
1FE
100
AcDbEntity
  8
1
 62
     2
100
AcDbMText
 10
-227.1089842177581
 20
-107.5760265026954
 30
0.0
 40
3.5
 41
0.0
 71
     7
 72
     1
  1
\C2;21mm (\C2;0.827\C2;``)
  7
CONVERTER_11
 11
0.9999999999970619
 21
2.424068405545306E-6
 31
0.0
 73
     1
 44
0.60024009603842
  0
ENDBLK
  5
207
330
1FE
100
AcDbEntity
  8
0
100
AcDbBlockEnd
  0
BLOCK
  5
212
330
20A
100
AcDbEntity
  8
0
100
AcDbBlockBegin
  2
*D16
 70
     1
 10
0.0
 20
0.0
 30
0.0
  3
*D16
  1

  0
LINE
  5
20B
330
20A
100
AcDbEntity
  8
1
  6
Continuous
 62
     2
100
AcDbLine
 10
-186.1092983114338
 20
34.4188748070954
 30
0.0
 11
-168.1092983114338
 21
34.4188748070954
 31
0.0
  0
LINE
  5
20C
330
20A
100
AcDbEntity
  8
1
  6
Continuous
 62
     2
100
AcDbLine
 10
-229.9202973033972
 20
34.4188748070954
 30
0.0
 11
-186.1092983114338
 21
34.4188748070954
 31
0.0
  0
LINE
  5
20D
330
20A
100
AcDbEntity
  8
1
  6
Continuous
 62
     2
100
AcDbLine
 10
-168.1092983114338
 20
72.37660009231135
 30
0.0
 11
-168.1092983114338
 21
32.4188748070954
 31
0.0
  0
LINE
  5
20E
330
20A
100
AcDbEntity
  8
1
  6
Continuous
 62
     2
100
AcDbLine
 10
-186.1092983114338
 20
62.37660009231134
 30
0.0
 11
-186.1092983114338
 21
32.4188748070954
 31
0.0
  0
SOLID
  5
20F
330
20A
100
AcDbEntity
  8
1
 62
     2
100
AcDbTrace
 10
-182.6092983114338
 20
34.87965854865129
 30
0.0
 11
-182.6092983114338
 21
33.95809106553951
 31
0.0
 12
-186.1092983114338
 22
34.4188748070954
 32
0.0
 13
-186.1092983114338
 23
34.4188748070954
 33
0.0
  0
SOLID
  5
210
330
20A
100
AcDbEntity
  8
1
 62
     2
100
AcDbTrace
 10
-171.6092983114338
 20
33.95809106553951
 30
0.0
 11
-171.6092983114338
 21
34.87965854865129
 31
0.0
 12
-168.1092983114338
 22
34.4188748070954
 32
0.0
 13
-168.1092983114338
 23
34.4188748070954
 33
0.0
  0
MTEXT
  5
211
330
20A
100
AcDbEntity
  8
1
 62
     2
100
AcDbMText
 10
-229.8152973033466
 20
36.41883306463745
 30
0.0
 40
3.5
 41
0.0
 71
     7
 72
     1
  1
\C2;18mm (\C2;0.709\C2;``)
  7
CONVERTER_11
 11
0.9999999999970619
 21
2.424068405545306E-6
 31
0.0
 73
     1
 44
0.60024009603842
  0
ENDBLK
  5
213
330
20A
100
AcDbEntity
  8
0
100
AcDbBlockEnd
  0
BLOCK
  5
21D
330
216
100
AcDbEntity
  8
0
100
AcDbBlockBegin
  2
*D17
 70
     1
 10
0.0
 20
0.0
 30
0.0
  3
*D17
  1

  0
LINE
  5
217
330
216
100
AcDbEntity
  8
1
  6
Continuous
 62
     2
100
AcDbLine
 10
-117.887717566138
 20
82.87660009231135
 30
0.0
 11
-117.887717566138
 21
-72.12339990768865
 31
0.0
  0
LINE
  5
218
330
216
100
AcDbEntity
  8
1
  6
Continuous
 62
     2
100
AcDbLine
 10
-178.6092983114338
 20
-72.12339990768865
 30
0.0
 11
-115.887717566138
 21
-72.12339990768865
 31
0.0
  0
LINE
  5
219
330
216
100
AcDbEntity
  8
1
  6
Continuous
 62
     2
100
AcDbLine
 10
-178.6092983114338
 20
82.87660009231135
 30
0.0
 11
-115.887717566138
 21
82.87660009231135
 31
0.0
  0
SOLID
  5
21A
330
216
100
AcDbEntity
  8
1
 62
     2
100
AcDbTrace
 10
-117.4269338245821
 20
79.37660009231135
 30
0.0
 11
-118.3485013076939
 21
79.37660009231135
 31
0.0
 12
-117.887717566138
 22
82.87660009231135
 32
0.0
 13
-117.887717566138
 23
82.87660009231135
 33
0.0
  0
SOLID
  5
21B
330
216
100
AcDbEntity
  8
1
 62
     2
100
AcDbTrace
 10
-118.3485013076939
 20
-68.62339990768865
 30
0.0
 11
-117.4269338245821
 21
-68.62339990768865
 31
0.0
 12
-117.887717566138
 22
-72.12339990768865
 32
0.0
 13
-117.887717566138
 23
-72.12339990768865
 33
0.0
  0
MTEXT
  5
21C
330
216
100
AcDbEntity
  8
1
 62
     2
100
AcDbMText
 10
-119.887717566138
 20
-11.21388769335792
 30
0.0
 40
3.5
 41
0.0
 71
     7
 72
     1
  1
\C2;155mm (\C2;6.102\C2;``)
  7
CONVERTER_11
 11
0.0
 21
1.0
 31
0.0
 73
     1
 44
0.60024009603842
  0
ENDBLK
  5
21E
330
216
100
AcDbEntity
  8
0
100
AcDbBlockEnd
  0
BLOCK
  5
228
330
221
100
AcDbEntity
  8
0
100
AcDbBlockBegin
  2
*D18
 70
     1
 10
0.0
 20
0.0
 30
0.0
  3
*D18
  1

  0
LINE
  5
222
330
221
100
AcDbEntity
  8
1
  6
Continuous
 62
     2
100
AcDbLine
 10
-144.761064172083
 20
71.37660009231135
 30
0.0
 11
-144.761064172083
 21
-60.62339990768864
 31
0.0
  0
LINE
  5
223
330
221
100
AcDbEntity
  8
1
  6
Continuous
 62
     2
100
AcDbLine
 10
-177.1092983114338
 20
-60.62339990768864
 30
0.0
 11
-142.761064172083
 21
-60.62339990768864
 31
0.0
  0
LINE
  5
224
330
221
100
AcDbEntity
  8
1
  6
Continuous
 62
     2
100
AcDbLine
 10
-177.1092983114338
 20
71.37660009231135
 30
0.0
 11
-142.761064172083
 21
71.37660009231135
 31
0.0
  0
SOLID
  5
225
330
221
100
AcDbEntity
  8
1
 62
     2
100
AcDbTrace
 10
-144.3002804305271
 20
67.87660009231135
 30
0.0
 11
-145.2218479136389
 21
67.87660009231135
 31
0.0
 12
-144.761064172083
 22
71.37660009231135
 32
0.0
 13
-144.761064172083
 23
71.37660009231135
 33
0.0
  0
SOLID
  5
226
330
221
100
AcDbEntity
  8
1
 62
     2
100
AcDbTrace
 10
-145.2218479136389
 20
-57.12339990768864
 30
0.0
 11
-144.3002804305271
 21
-57.12339990768864
 31
0.0
 12
-144.761064172083
 22
-60.62339990768864
 32
0.0
 13
-144.761064172083
 23
-60.62339990768864
 33
0.0
  0
MTEXT
  5
227
330
221
100
AcDbEntity
  8
1
 62
     2
100
AcDbMText
 10
-146.761064172083
 20
-12.52348723316366
 30
0.0
 40
3.5
 41
0.0
 71
     7
 72
     1
  1
\C2;132mm (\C2;5.197\C2;``)
  7
CONVERTER_11
 11
0.0
 21
1.0
 31
0.0
 73
     1
 44
0.60024009603842
  0
ENDBLK
  5
229
330
221
100
AcDbEntity
  8
0
100
AcDbBlockEnd
  0
BLOCK
  5
235
330
22C
100
AcDbEntity
  8
0
100
AcDbBlockBegin
  2
*D19
 70
     1
 10
0.0
 20
0.0
 30
0.0
  3
*D19
  1

  0
LINE
  5
22D
330
22C
100
AcDbEntity
  8
1
  6
Continuous
 62
     2
100
AcDbLine
 10
-189.1092983114338
 20
-98.635225276103
 30
0.0
 11
-182.1092983114338
 21
-98.635225276103
 31
0.0
  0
LINE
  5
22E
330
22C
100
AcDbEntity
  8
1
  6
Continuous
 62
     2
100
AcDbLine
 10
-192.1092983114338
 20
-98.635225276103
 30
0.0
 11
-189.1092983114338
 21
-98.635225276103
 31
0.0
  0
LINE
  5
22F
330
22C
100
AcDbEntity
  8
1
  6
Continuous
 62
     2
100
AcDbLine
 10
-224.888007011963
 20
-98.635225276103
 30
0.0
 11
-192.1092983114338
 21
-98.635225276103
 31
0.0
  0
LINE
  5
230
330
22C
100
AcDbEntity
  8
1
  6
Continuous
 62
     2
100
AcDbLine
 10
-189.1092983114338
 20
-61.62339990768865
 30
0.0
 11
-189.1092983114338
 21
-100.635225276103
 31
0.0
  0
LINE
  5
231
330
22C
100
AcDbEntity
  8
1
  6
Continuous
 62
     2
100
AcDbLine
 10
-192.1092983114338
 20
-89.62339990768864
 30
0.0
 11
-192.1092983114338
 21
-100.635225276103
 31
0.0
  0
SOLID
  5
232
330
22C
100
AcDbEntity
  8
1
 62
     2
100
AcDbTrace
 10
-195.6092983114338
 20
-99.09600901765889
 30
0.0
 11
-195.6092983114338
 21
-98.17444153454711
 31
0.0
 12
-192.1092983114338
 22
-98.635225276103
 32
0.0
 13
-192.1092983114338
 23
-98.635225276103
 33
0.0
  0
SOLID
  5
233
330
22C
100
AcDbEntity
  8
1
 62
     2
100
AcDbTrace
 10
-185.6092983114338
 20
-98.17444153454711
 30
0.0
 11
-185.6092983114338
 21
-99.09600901765889
 31
0.0
 12
-189.1092983114338
 22
-98.635225276103
 32
0.0
 13
-189.1092983114338
 23
-98.635225276103
 33
0.0
  0
MTEXT
  5
234
330
22C
100
AcDbEntity
  8
1
 62
     2
100
AcDbMText
 10
-224.0130070119208
 20
-96.63526006148462
 30
0.0
 40
3.5
 41
0.0
 71
     7
 72
     1
  1
\C2;3mm (\C2;0.118\C2;``)
  7
CONVERTER_11
 11
0.9999999999970619
 21
2.424068405545306E-6
 31
0.0
 73
     1
 44
0.60024009603842
  0
ENDBLK
  5
236
330
22C
100
AcDbEntity
  8
0
100
AcDbBlockEnd
  0
BLOCK
  5
240
330
239
100
AcDbEntity
  8
0
100
AcDbBlockBegin
  2
*D20
 70
     1
 10
0.0
 20
0.0
 30
0.0
  3
*D20
  1

  0
LINE
  5
23A
330
239
100
AcDbEntity
  8
1
  6
Continuous
 62
     2
100
AcDbLine
 10
-154.717596822132
 20
25.37660009231135
 30
0.0
 11
-154.717596822132
 21
-14.62339990768865
 31
0.0
  0
LINE
  5
23B
330
239
100
AcDbEntity
  8
1
  6
Continuous
 62
     2
100
AcDbLine
 10
-178.1092983114338
 20
25.37660009231135
 30
0.0
 11
-152.717596822132
 21
25.37660009231135
 31
0.0
  0
LINE
  5
23C
330
239
100
AcDbEntity
  8
1
  6
Continuous
 62
     2
100
AcDbLine
 10
-178.1092983114338
 20
-14.62339990768865
 30
0.0
 11
-152.717596822132
 21
-14.62339990768865
 31
0.0
  0
SOLID
  5
23D
330
239
100
AcDbEntity
  8
1
 62
     2
100
AcDbTrace
 10
-154.2568130805761
 20
21.87660009231135
 30
0.0
 11
-155.1783805636879
 21
21.87660009231135
 31
0.0
 12
-154.717596822132
 22
25.37660009231135
 32
0.0
 13
-154.717596822132
 23
25.37660009231135
 33
0.0
  0
SOLID
  5
23E
330
239
100
AcDbEntity
  8
1
 62
     2
100
AcDbTrace
 10
-155.1783805636879
 20
-11.12339990768865
 30
0.0
 11
-154.2568130805761
 21
-11.12339990768865
 31
0.0
 12
-154.717596822132
 22
-14.62339990768865
 32
0.0
 13
-154.717596822132
 23
-14.62339990768865
 33
0.0
  0
MTEXT
  5
23F
330
239
100
AcDbEntity
  8
1
 62
     2
100
AcDbMText
 10
-156.717596822132
 20
-10.39770557821646
 30
0.0
 40
3.5
 41
0.0
 71
     7
 72
     1
  1
\C2;40mm (\C2;1.575\C2;``)
  7
CONVERTER_11
 11
0.0
 21
1.0
 31
0.0
 73
     1
 44
0.60024009603842
  0
ENDBLK
  5
241
330
239
100
AcDbEntity
  8
0
100
AcDbBlockEnd
  0
BLOCK
  5
24C
330
244
100
AcDbEntity
  8
0
100
AcDbBlockBegin
  2
*D21
 70
     1
 10
0.0
 20
0.0
 30
0.0
  3
*D21
  1

  0
LINE
  5
245
330
244
100
AcDbEntity
  8
1
  6
Continuous
 62
     2
100
AcDbLine
 10
-186.1092983114338
 20
-27.2309945915511
 30
0.0
 11
-170.1092983114338
 21
-27.2309945915511
 31
0.0
  0
LINE
  5
246
330
244
100
AcDbEntity
  8
1
  6
Continuous
 62
     2
100
AcDbLine
 10
-230.619490254751
 20
-27.2309945915511
 30
0.0
 11
-186.1092983114338
 21
-27.2309945915511
 31
0.0
  0
LINE
  5
247
330
244
100
AcDbEntity
  8
1
  6
Continuous
 62
     2
100
AcDbLine
 10
-170.1092983114338
 20
-6.62339990768865
 30
0.0
 11
-170.1092983114338
 21
-29.2309945915511
 31
0.0
  0
LINE
  5
248
330
244
100
AcDbEntity
  8
1
  6
Continuous
 62
     2
100
AcDbLine
 10
-186.1092983114338
 20
-6.62339990768865
 30
0.0
 11
-186.1092983114338
 21
-29.2309945915511
 31
0.0
  0
SOLID
  5
249
330
244
100
AcDbEntity
  8
1
 62
     2
100
AcDbTrace
 10
-182.6092983114338
 20
-26.77021084999521
 30
0.0
 11
-182.6092983114338
 21
-27.69177833310698
 31
0.0
 12
-186.1092983114338
 22
-27.2309945915511
 32
0.0
 13
-186.1092983114338
 23
-27.2309945915511
 33
0.0
  0
SOLID
  5
24A
330
244
100
AcDbEntity
  8
1
 62
     2
100
AcDbTrace
 10
-173.6092983114338
 20
-27.69177833310698
 30
0.0
 11
-173.6092983114338
 21
-26.77021084999521
 31
0.0
 12
-170.1092983114338
 22
-27.2309945915511
 32
0.0
 13
-170.1092983114338
 23
-27.2309945915511
 33
0.0
  0
MTEXT
  5
24B
330
244
100
AcDbEntity
  8
1
 62
     2
100
AcDbMText
 10
-230.5144902547004
 20
-25.23103633400904
 30
0.0
 40
3.5
 41
0.0
 71
     7
 72
     1
  1
\C2;16mm (\C2;0.630\C2;``)
  7
CONVERTER_11
 11
0.9999999999970619
 21
2.424068405545306E-6
 31
0.0
 73
     1
 44
0.60024009603842
  0
ENDBLK
  5
24D
330
244
100
AcDbEntity
  8
0
100
AcDbBlockEnd
  0
BLOCK
  5
257
330
250
100
AcDbEntity
  8
0
100
AcDbBlockBegin
  2
*D22
 70
     1
 10
0.0
 20
0.0
 30
0.0
  3
*D22
  1

  0
LINE
  5
251
330
250
100
AcDbEntity
  8
1
  6
Continuous
 62
     2
100
AcDbLine
 10
101.1187293972021
 20
25.37660009231135
 30
0.0
 11
101.1187293972021
 21
-14.62339990768865
 31
0.0
  0
LINE
  5
252
330
250
100
AcDbEntity
  8
1
  6
Continuous
 62
     2
100
AcDbLine
 10
106.0880661630608
 20
-14.62339990768865
 30
0.0
 11
99.11872939720206
 21
-14.62339990768865
 31
0.0
  0
LINE
  5
253
330
250
100
AcDbEntity
  8
1
  6
Continuous
 62
     2
100
AcDbLine
 10
106.0880661630608
 20
25.37660009231135
 30
0.0
 11
99.11872939720206
 21
25.37660009231135
 31
0.0
  0
SOLID
  5
254
330
250
100
AcDbEntity
  8
1
 62
     2
100
AcDbTrace
 10
101.5795131387579
 20
21.87660009231135
 30
0.0
 11
100.6579456556462
 21
21.87660009231135
 31
0.0
 12
101.1187293972021
 22
25.37660009231135
 32
0.0
 13
101.1187293972021
 23
25.37660009231135
 33
0.0
  0
SOLID
  5
255
330
250
100
AcDbEntity
  8
1
 62
     2
100
AcDbTrace
 10
100.6579456556462
 20
-11.12339990768865
 30
0.0
 11
101.5795131387579
 21
-11.12339990768865
 31
0.0
 12
101.1187293972021
 22
-14.62339990768865
 32
0.0
 13
101.1187293972021
 23
-14.62339990768865
 33
0.0
  0
MTEXT
  5
256
330
250
100
AcDbEntity
  8
1
 62
     2
100
AcDbMText
 10
99.11872939720206
 20
-9.83714990768865
 30
0.0
 40
3.5
 41
0.0
 71
     7
 72
     1
  1
\C2;40mm (\C2;1.575\C2;``)
  7
CONVERTER_11
 11
0.0
 21
1.0
 31
0.0
 73
     1
 44
0.60024009603842
  0
ENDBLK
  5
258
330
250
100
AcDbEntity
  8
0
100
AcDbBlockEnd
  0
BLOCK
  5
262
330
25B
100
AcDbEntity
  8
0
100
AcDbBlockBegin
  2
*D23
 70
     1
 10
0.0
 20
0.0
 30
0.0
  3
*D23
  1

  0
LINE
  5
25C
330
25B
100
AcDbEntity
  8
1
  6
Continuous
 62
     2
100
AcDbLine
 10
-127.185402709083
 20
76.37660009231135
 30
0.0
 11
-127.185402709083
 21
-65.62339990768865
 31
0.0
  0
LINE
  5
25D
330
25B
100
AcDbEntity
  8
1
  6
Continuous
 62
     2
100
AcDbLine
 10
-176.8592983114338
 20
-65.62339990768865
 30
0.0
 11
-125.185402709083
 21
-65.62339990768865
 31
0.0
  0
LINE
  5
25E
330
25B
100
AcDbEntity
  8
1
  6
Continuous
 62
     2
100
AcDbLine
 10
-176.8592983114338
 20
76.37660009231135
 30
0.0
 11
-125.185402709083
 21
76.37660009231135
 31
0.0
  0
SOLID
  5
25F
330
25B
100
AcDbEntity
  8
1
 62
     2
100
AcDbTrace
 10
-126.7246189675271
 20
72.87660009231135
 30
0.0
 11
-127.6461864506389
 21
72.87660009231135
 31
0.0
 12
-127.185402709083
 22
76.37660009231135
 32
0.0
 13
-127.185402709083
 23
76.37660009231135
 33
0.0
  0
SOLID
  5
260
330
25B
100
AcDbEntity
  8
1
 62
     2
100
AcDbTrace
 10
-127.6461864506389
 20
-62.12339990768865
 30
0.0
 11
-126.7246189675271
 21
-62.12339990768865
 31
0.0
 12
-127.185402709083
 22
-65.62339990768865
 32
0.0
 13
-127.185402709083
 23
-65.62339990768865
 33
0.0
  0
MTEXT
  5
261
330
25B
100
AcDbEntity
  8
1
 62
     2
100
AcDbMText
 10
-129.185402709083
 20
-12.3998635358775
 30
0.0
 40
3.5
 41
0.0
 71
     7
 72
     1
  1
\C2;142mm (\C2;5.591\C2;``)
  7
CONVERTER_11
 11
0.0
 21
1.0
 31
0.0
 73
     1
 44
0.60024009603842
  0
ENDBLK
  5
263
330
25B
100
AcDbEntity
  8
0
100
AcDbBlockEnd
  0
BLOCK
  5
26A
330
266
100
AcDbEntity
  8
0
100
AcDbBlockBegin
  2
*D24
 70
     1
 10
0.0
 20
0.0
 30
0.0
  3
*D24
  1

  0
LINE
  5
267
330
266
100
AcDbEntity
  8
1
  6
Continuous
 62
     2
100
AcDbLine
 10
-185.4771411744183
 20
65.69008855922952
 30
0.0
 11
-232.2393022460602
 21
84.20691349680875
 31
0.0
  0
SOLID
  5
268
330
266
100
AcDbEntity
  8
1
 62
     2
100
AcDbTrace
 10
-188.900946911511
 20
66.55024896934687
 30
0.0
 11
-188.5616576640913
 21
67.40708584560413
 31
0.0
 12
-185.4771411744183
 22
65.69008855922952
 32
0.0
 13
-185.4771411744183
 23
65.69008855922952
 33
0.0
  0
MTEXT
  5
269
330
266
100
AcDbEntity
  8
1
 62
     2
100
AcDbMText
 10
-230.1036821968793
 20
85.51234522828175
 30
0.0
 40
3.5
 41
0.0
 71
     7
 72
     1
  1
\C2;R9mm (\C2;0.354\C2;``)
  7
CONVERTER_11
 11
0.9297603181093864
 21
-0.3681653852131301
 31
0.0
 73
     1
 44
0.60024009603842
  0
ENDBLK
  5
26B
330
266
100
AcDbEntity
  8
0
100
AcDbBlockEnd
  0
BLOCK
  5
273
330
26D
100
AcDbEntity
  8
0
100
AcDbBlockBegin
  2
*D25
 70
     1
 10
0.0
 20
0.0
 30
0.0
  3
*D25
  1

  0
LINE
  5
26E
330
26D
100
AcDbEntity
  8
1
  6
Continuous
 62
     2
100
AcDbLine
 10
-177.0197929998934
 20
-55.82441572612828
 30
0.0
 11
-179.1367337028846
 21
-51.02014033227135
 31
0.0
  0
LINE
  5
26F
330
26D
100
AcDbEntity
  8
1
  6
Continuous
 62
     2
100
AcDbLine
 10
-149.2227676883062
 20
-118.9081688696054
 30
0.0
 11
-171.8988036229742
 21
-67.446207125846
 31
0.0
  0
SOLID
  5
270
330
26D
100
AcDbEntity
  8
1
 62
     2
100
AcDbTrace
 10
-170.065846584514
 20
-70.46325703455511
 30
0.0
 11
-170.9091730574459
 21
-70.83485774227941
 31
0.0
 12
-171.8988036229742
 22
-67.446207125846
 32
0.0
 13
-171.8988036229742
 23
-67.446207125846
 33
0.0
  0
SOLID
  5
271
330
26D
100
AcDbEntity
  8
1
 62
     2
100
AcDbTrace
 10
-178.8527500383535
 20
-52.80736581741917
 30
0.0
 11
-178.0094235654217
 21
-52.43576510969487
 31
0.0
 12
-177.0197929998934
 22
-55.82441572612828
 32
0.0
 13
-177.0197929998934
 23
-55.82441572612828
 33
0.0
  0
MTEXT
  5
272
330
26D
100
AcDbEntity
  8
1
 62
     2
100
AcDbMText
 10
-159.1627578468965
 20
-91.3899440786214
 30
0.0
 40
3.5
 41
0.0
 71
     7
 72
     1
  1
\C2;cutter\U+00f8\C2;1/2``
  7
CONVERTER_11
 11
0.403226800569752
 21
-0.9151000750203671
 31
0.0
 73
     1
 44
0.60024009603842
  0
ENDBLK
  5
274
330
26D
100
AcDbEntity
  8
0
100
AcDbBlockEnd
  0
BLOCK
  5
27C
330
276
100
AcDbEntity
  8
0
100
AcDbBlockBegin
  2
*D26
 70
     1
 10
0.0
 20
0.0
 30
0.0
  3
*D26
  1

  0
LINE
  5
277
330
276
100
AcDbEntity
  8
1
  6
Continuous
 62
     2
100
AcDbLine
 10
179.5077100488356
 20
-58.15871540380534
 30
0.0
 11
182.7809839678242
 21
-54.05406220879983
 31
0.0
  0
LINE
  5
278
330
276
100
AcDbEntity
  8
1
  6
Continuous
 62
     2
100
AcDbLine
 10
134.3370909448047
 20
-114.8022260339899
 30
0.0
 11
171.5894906375869
 21
-68.088084411572
 31
0.0
  0
SOLID
  5
279
330
276
100
AcDbEntity
  8
1
 62
     2
100
AcDbTrace
 10
169.7675665881629
 20
-71.11180966605735
 30
0.0
 11
169.0470494616928
 21
-70.53723008376063
 31
0.0
 12
171.5894906375869
 22
-68.088084411572
 32
0.0
 13
171.5894906375869
 23
-68.088084411572
 33
0.0
  0
SOLID
  5
27A
330
276
100
AcDbEntity
  8
1
 62
     2
100
AcDbTrace
 10
181.3296340982597
 20
-55.13499014931999
 30
0.0
 11
182.0501512247298
 21
-55.70956973161671
 31
0.0
 12
179.5077100488356
 22
-58.15871540380534
 32
0.0
 13
179.5077100488356
 23
-58.15871540380534
 33
0.0
  0
MTEXT
  5
27B
330
276
100
AcDbEntity
  8
1
 62
     2
100
AcDbMText
 10
132.304244275462
 20
-114.1435981656593
 30
0.0
 40
3.5
 41
0.0
 71
     7
 72
     1
  1
\C2;cutter\U+00f8\C2;1/2``
  7
CONVERTER_11
 11
0.6234807464740182
 21
0.7818387038105759
 31
0.0
 73
     1
 44
0.60024009603842
  0
ENDBLK
  5
27D
330
276
100
AcDbEntity
  8
0
100
AcDbBlockEnd
  0
BLOCK
  5
285
330
27F
100
AcDbEntity
  8
0
100
AcDbBlockBegin
  2
*D27
 70
     1
 10
0.0
 20
0.0
 30
0.0
  3
*D27
  1

  0
LINE
  5
280
330
27F
100
AcDbEntity
  8
1
  6
Continuous
 62
     2
100
AcDbLine
 10
176.9048861658602
 20
75.61745344816357
 30
0.0
 11
172.3768865451314
 21
72.96044019364636
 31
0.0
  0
LINE
  5
281
330
27F
100
AcDbEntity
  8
1
  6
Continuous
 62
     2
100
AcDbLine
 10
223.2380050213068
 20
102.8055544273393
 30
0.0
 11
179.4923145205623
 21
77.13574673645913
 31
0.0
  0
SOLID
  5
282
330
27F
100
AcDbEntity
  8
1
 62
     2
100
AcDbTrace
 10
182.2777793136615
 20
79.30450387889978
 30
0.0
 11
182.7441825551015
 21
78.50967393337483
 31
0.0
 12
179.4923145205623
 22
77.13574673645913
 32
0.0
 13
179.4923145205623
 23
77.13574673645913
 33
0.0
  0
SOLID
  5
283
330
27F
100
AcDbEntity
  8
1
 62
     2
100
AcDbTrace
 10
174.1194213727611
 20
73.44869630572292
 30
0.0
 11
173.653018131321
 21
74.24352625124787
 31
0.0
 12
176.9048861658602
 22
75.61745344816357
 32
0.0
 13
176.9048861658602
 23
75.61745344816357
 33
0.0
  0
MTEXT
  5
284
330
27F
100
AcDbEntity
  8
1
 62
     2
100
AcDbMText
 10
194.1673051793272
 20
88.06588119664909
 30
0.0
 40
3.5
 41
0.0
 71
     7
 72
     1
  1
\C2;\U+00f83mm (\C2;0.118\C2;``)
  7
CONVERTER_11
 11
0.862476118234052
 21
0.5060977627651811
 31
0.0
 73
     1
 44
0.60024009603842
  0
ENDBLK
  5
286
330
27F
100
AcDbEntity
  8
0
100
AcDbBlockEnd
  0
BLOCK
  5
28E
330
288
100
AcDbEntity
  8
0
100
AcDbBlockBegin
  2
*D28
 70
     1
 10
0.0
 20
0.0
 30
0.0
  3
*D28
  1

  0
LINE
  5
289
330
288
100
AcDbEntity
  8
1
  6
Continuous
 62
     2
100
AcDbLine
 10
-177.3334134524398
 20
75.58785563015016
 30
0.0
 11
-172.8678164459609
 21
72.82725001258602
 31
0.0
  0
LINE
  5
28A
330
288
100
AcDbEntity
  8
1
  6
Continuous
 62
     2
100
AcDbLine
 10
-226.7162010759638
 20
106.1160024214277
 30
0.0
 11
-179.8851831704278
 21
77.16534455447254
 31
0.0
  0
SOLID
  5
28B
330
288
100
AcDbEntity
  8
1
 62
     2
100
AcDbTrace
 10
-183.1045415910178
 20
78.61381030010082
 30
0.0
 11
-182.6199540918096
 21
79.39768629892981
 31
0.0
 12
-179.8851831704278
 22
77.16534455447254
 32
0.0
 13
-179.8851831704278
 23
77.16534455447254
 33
0.0
  0
SOLID
  5
28C
330
288
100
AcDbEntity
  8
1
 62
     2
100
AcDbTrace
 10
-174.1140550318498
 20
74.13938988452188
 30
0.0
 11
-174.598642531058
 21
73.35551388569289
 31
0.0
 12
-177.3334134524398
 22
75.58785563015016
 32
0.0
 13
-177.3334134524398
 23
75.58785563015016
 33
0.0
  0
MTEXT
  5
28D
330
288
100
AcDbEntity
  8
1
 62
     2
100
AcDbMText
 10
-224.6821104516569
 20
107.2098489975555
 30
0.0
 40
3.5
 41
0.0
 71
     7
 72
     1
  1
\C2;\U+00f83mm (\C2;0.118\C2;``)
  7
CONVERTER_11
 11
0.8505899059959807
 21
-0.5258296414407889
 31
0.0
 73
     1
 44
0.60024009603842
  0
ENDBLK
  5
28F
330
288
100
AcDbEntity
  8
0
100
AcDbBlockEnd
  0
ENDSEC
  0
SECTION
  2
ENTITIES
  0
POINT
  5
47
330
1F
100
AcDbEntity
  8
1
 62
     3
 60
     1
100
AcDbPoint
 10
127.919322566898
 20
5.37660009231135
 30
0.0
  0
POINT
  5
48
330
1F
100
AcDbEntity
  8
1
 62
     3
 60
     1
100
AcDbPoint
 10
103.919322566898
 20
5.37660009231135
 30
0.0
  0
POINT
  5
49
330
1F
100
AcDbEntity
  8
1
 62
     3
 60
     1
100
AcDbPoint
 10
175.5486003432113
 20
-71.37223275146525
 30
0.0
  0
POINT
  5
4A
330
1F
100
AcDbEntity
  8
1
 62
     3
 60
     1
100
AcDbPoint
 10
175.5486003432113
 20
-55.37223275146523
 30
0.0
  0
POINT
  5
4B
330
1F
100
AcDbEntity
  8
1
 62
     3
 60
     1
100
AcDbPoint
 10
181.8986003432113
 20
-63.11148838939018
 30
0.0
  0
POINT
  5
4C
330
1F
100
AcDbEntity
  8
1
 62
     3
 60
     1
100
AcDbPoint
 10
-174.4592983114338
 20
-69.88414426976371
 30
0.0
  0
POINT
  5
4D
330
1F
100
AcDbEntity
  8
1
 62
     3
 60
     1
100
AcDbPoint
 10
-174.4592983114338
 20
-53.8841442697637
 30
0.0
  0
POINT
  5
4E
330
1F
100
AcDbEntity
  8
1
 62
     3
 60
     1
100
AcDbPoint
 10
-168.1092983114338
 20
-61.62339990768865
 30
0.0
  0
POINT
  5
4F
330
1F
100
AcDbEntity
  8
1
 62
     3
 60
     1
100
AcDbPoint
 10
-174.4592983114338
 20
-61.63531142598714
 30
0.0
  0
POINT
  5
50
330
1F
100
AcDbEntity
  8
1
 62
     3
 60
     1
100
AcDbPoint
 10
-38.11320632733305
 20
-60.6979399702632
 30
0.0
  0
POINT
  5
51
330
1F
100
AcDbEntity
  8
1
 62
     3
 60
     1
100
AcDbPoint
 10
-25.11320632733314
 20
-44.6979399702632
 30
0.0
  0
POINT
  5
52
330
1F
100
AcDbEntity
  8
1
 62
     3
 60
     1
100
AcDbPoint
 10
47.38679367266684
 20
-60.69793997026319
 30
0.0
  0
POINT
  5
53
330
1F
100
AcDbEntity
  8
1
 62
     3
 60
     1
100
AcDbPoint
 10
47.38679367266684
 20
-44.69793997026326
 30
0.0
  0
POINT
  5
54
330
1F
100
AcDbEntity
  8
1
 62
     3
 60
     1
100
AcDbPoint
 10
20.88679367266668
 20
-60.69793997026319
 30
0.0
  0
POINT
  5
55
330
1F
100
AcDbEntity
  8
1
 62
     3
 60
     1
100
AcDbPoint
 10
-92.80380177434651
 20
-14.62339990768865
 30
0.0
  0
POINT
  5
56
330
1F
100
AcDbEntity
  8
1
 62
     3
 60
     1
100
AcDbPoint
 10
-105.8017786518812
 20
-14.62339990768865
 30
0.0
  0
POINT
  5
57
330
1F
100
AcDbEntity
  8
1
 62
     3
 60
     1
100
AcDbPoint
 10
124.0880661630608
 20
-14.62339990768865
 30
0.0
  0
POINT
  5
58
330
1F
100
AcDbEntity
  8
1
 62
     3
 60
     1
100
AcDbPoint
 10
106.0880661630608
 20
-54.62339990768866
 30
0.0
  0
POINT
  5
59
330
1F
100
AcDbEntity
  8
1
 62
     3
 60
     1
100
AcDbPoint
 10
106.0880661630608
 20
-14.62339990768865
 30
0.0
  0
POINT
  5
5A
330
1F
100
AcDbEntity
  8
1
 62
     3
 60
     1
100
AcDbPoint
 10
106.0880661630608
 20
25.37660009231135
 30
0.0
  0
POINT
  5
5B
330
1F
100
AcDbEntity
  8
1
 62
     3
 60
     1
100
AcDbPoint
 10
124.0880661630608
 20
25.37660009231135
 30
0.0
  0
POINT
  5
5C
330
1F
100
AcDbEntity
  8
1
 62
     3
 60
     1
100
AcDbPoint
 10
185.1986003432113
 20
-6.62339990768865
 30
0.0
  0
POINT
  5
5D
330
1F
100
AcDbEntity
  8
1
 62
     3
 60
     1
100
AcDbPoint
 10
169.1986003432113
 20
-6.62339990768865
 30
0.0
  0
POINT
  5
5E
330
1F
100
AcDbEntity
  8
1
 62
     3
 60
     1
100
AcDbPoint
 10
177.1986003432113
 20
-6.62339990768865
 30
0.0
  0
POINT
  5
5F
330
1F
100
AcDbEntity
  8
1
 62
     3
 60
     1
100
AcDbPoint
 10
169.1986003432113
 20
17.37660009231135
 30
0.0
  0
POINT
  5
60
330
1F
100
AcDbEntity
  8
1
 62
     3
 60
     1
100
AcDbPoint
 10
185.1986003432113
 20
17.37660009231135
 30
0.0
  0
POINT
  5
61
330
1F
100
AcDbEntity
  8
1
 62
     3
 60
     1
100
AcDbPoint
 10
177.1986003432113
 20
17.37660009231135
 30
0.0
  0
POINT
  5
62
330
1F
100
AcDbEntity
  8
1
 62
     3
 60
     1
100
AcDbPoint
 10
-170.1092983114338
 20
-6.62339990768865
 30
0.0
  0
POINT
  5
63
330
1F
100
AcDbEntity
  8
1
 62
     3
 60
     1
100
AcDbPoint
 10
-186.1092983114338
 20
-6.62339990768865
 30
0.0
  0
POINT
  5
64
330
1F
100
AcDbEntity
  8
1
 62
     3
 60
     1
100
AcDbPoint
 10
-178.1092983114338
 20
-6.62339990768865
 30
0.0
  0
POINT
  5
65
330
1F
100
AcDbEntity
  8
1
 62
     3
 60
     1
100
AcDbPoint
 10
-186.1092983114338
 20
17.37660009231135
 30
0.0
  0
POINT
  5
66
330
1F
100
AcDbEntity
  8
1
 62
     3
 60
     1
100
AcDbPoint
 10
-170.1092983114338
 20
17.37660009231135
 30
0.0
  0
POINT
  5
67
330
1F
100
AcDbEntity
  8
1
 62
     3
 60
     1
100
AcDbPoint
 10
-178.1092983114338
 20
17.37660009231135
 30
0.0
  0
POINT
  5
68
330
1F
100
AcDbEntity
  8
1
 62
     3
 60
     1
100
AcDbPoint
 10
-178.6092983114338
 20
76.37660009231135
 30
0.0
  0
POINT
  5
69
330
1F
100
AcDbEntity
  8
1
 62
     3
 60
     1
100
AcDbPoint
 10
185.1986003432113
 20
57.37660009231134
 30
0.0
  0
POINT
  5
6A
330
1F
100
AcDbEntity
  8
1
 62
     3
 60
     1
100
AcDbPoint
 10
178.1986003432113
 20
73.87660009231135
 30
0.0
  0
POINT
  5
6B
330
1F
100
AcDbEntity
  8
1
 62
     3
 60
     1
100
AcDbPoint
 10
29.3867936726667
 20
-60.69793997026319
 30
0.0
  0
POINT
  5
6C
330
1F
100
AcDbEntity
  8
1
 62
     3
 60
     1
100
AcDbPoint
 10
12.38679367266665
 20
-60.69793997026319
 30
0.0
  0
POINT
  5
6D
330
1F
100
AcDbEntity
  8
1
 62
     3
 60
     1
100
AcDbPoint
 10
185.1986003432113
 20
5.37660009231135
 30
0.0
  0
POINT
  5
6E
330
1F
100
AcDbEntity
  8
1
 62
     3
 60
     1
100
AcDbPoint
 10
191.1986003432113
 20
73.87660009231135
 30
0.0
  0
POINT
  5
6F
330
1F
100
AcDbEntity
  8
1
 62
     3
 60
     1
100
AcDbPoint
 10
162.5349461857596
 20
73.87660009231135
 30
0.0
  0
POINT
  5
70
330
1F
100
AcDbEntity
  8
1
 62
     3
 60
     1
100
AcDbPoint
 10
15.38679367266695
 20
-26.69793997026321
 30
0.0
  0
POINT
  5
71
330
1F
100
AcDbEntity
  8
1
 62
     3
 60
     1
100
AcDbPoint
 10
15.38679367266695
 20
-42.69793997026321
 30
0.0
  0
POINT
  5
72
330
1F
100
AcDbEntity
  8
1
 62
     3
 60
     1
100
AcDbPoint
 10
-11.1132063273331
 20
-60.6979399702632
 30
0.0
  0
POINT
  5
73
330
1F
100
AcDbEntity
  8
1
 62
     3
 60
     1
100
AcDbPoint
 10
-25.11320632733309
 20
-60.6979399702632
 30
0.0
  0
POINT
  5
74
330
1F
100
AcDbEntity
  8
1
 62
     3
 60
     1
100
AcDbPoint
 10
-178.1092983114338
 20
26.4300827869768
 30
0.0
  0
POINT
  5
75
330
1F
100
AcDbEntity
  8
1
 62
     3
 60
     1
100
AcDbPoint
 10
-178.1092983114338
 20
-16.5699172130232
 30
0.0
  0
LINE
  5
76
330
1F
100
AcDbEntity
  8
1
  6
Continuous
 62
     7
100
AcDbLine
 10
151.1986003432113
 20
29.9832553328578
 30
0.0
 11
151.1986003432113
 21
-89.62339990768865
 31
0.0
  0
LINE
  5
77
330
1F
100
AcDbEntity
  8
1
  6
DOT_CENTER
 62
     2
100
AcDbLine
 10
103.919322566898
 20
5.37660009231135
 30
0.0
 11
127.919322566898
 21
5.37660009231135
 31
0.0
  0
LINE
  5
78
330
1F
100
AcDbEntity
  8
1
  6
DOT_CENTER
 62
     2
100
AcDbLine
 10
175.5486003432113
 20
-55.37223275146523
 30
0.0
 11
175.5486003432113
 21
-71.37223275146525
 31
0.0
  0
LINE
  5
79
330
1F
100
AcDbEntity
  8
1
  6
DOT_CENTER
 62
     2
100
AcDbLine
 10
-174.4592983114338
 20
-53.8841442697637
 30
0.0
 11
-174.4592983114338
 21
-69.88414426976371
 31
0.0
  0
LINE
  5
7A
330
1F
100
AcDbEntity
  8
1
  6
Continuous
 62
     7
100
AcDbLine
 10
-38.11320632733305
 20
-60.6979399702632
 30
0.0
 11
-38.11320632733305
 21
-66.69793997026322
 31
0.0
  0
LINE
  5
7B
330
1F
100
AcDbEntity
  8
1
  6
Continuous
 62
     7
100
AcDbLine
 10
-25.11320632733309
 20
-60.6979399702632
 30
0.0
 11
-38.11320632733305
 21
-60.6979399702632
 31
0.0
  0
LINE
  5
7C
330
1F
100
AcDbEntity
  8
1
  6
Continuous
 62
     7
100
AcDbLine
 10
-38.11320632733305
 20
-44.6979399702632
 30
0.0
 11
-38.11320632733305
 21
-60.6979399702632
 31
0.0
  0
LINE
  5
7D
330
1F
100
AcDbEntity
  8
1
  6
Continuous
 62
     7
100
AcDbLine
 10
-25.11320632733314
 20
-44.6979399702632
 30
0.0
 11
-25.11320632733315
 21
-42.69793997026332
 31
0.0
  0
LINE
  5
7E
330
1F
100
AcDbEntity
  8
1
  6
Continuous
 62
     7
100
AcDbLine
 10
-25.11320632733314
 20
-44.6979399702632
 30
0.0
 11
-38.11320632733305
 21
-44.6979399702632
 31
0.0
  0
LINE
  5
7F
330
1F
100
AcDbEntity
  8
1
  6
PHANTOM
 62
     2
100
AcDbLine
 10
47.38679367266684
 20
-60.69793997026319
 30
0.0
 11
47.38679367266684
 21
-44.69793997026326
 31
0.0
  0
LINE
  5
80
330
1F
100
AcDbEntity
  8
1
  6
Continuous
 62
     7
100
AcDbLine
 10
29.3867936726667
 20
-60.69793997026319
 30
0.0
 11
47.38679367266684
 21
-60.69793997026319
 31
0.0
  0
LINE
  5
81
330
1F
100
AcDbEntity
  8
1
  6
PHANTOM
 62
     2
100
AcDbLine
 10
47.38679367266684
 20
-44.69793997026326
 30
0.0
 11
47.38679367266684
 21
-26.69793997026321
 31
0.0
  0
LINE
  5
82
330
1F
100
AcDbEntity
  8
1
  6
Continuous
 62
     7
100
AcDbLine
 10
29.3867936726667
 20
-44.69793997026326
 30
0.0
 11
47.38679367266684
 21
-44.69793997026326
 31
0.0
  0
LINE
  5
83
330
1F
100
AcDbEntity
  8
1
  6
Continuous
 62
     7
100
AcDbLine
 10
-105.8017786518812
 20
-14.62339990768865
 30
0.0
 11
-105.8017786518812
 21
-89.62339990768864
 31
0.0
  0
LINE
  5
84
330
1F
100
AcDbEntity
  8
1
  6
Continuous
 62
     7
100
AcDbLine
 10
-92.80380177434651
 20
-14.62339990768865
 30
0.0
 11
-92.80488390961862
 21
-60.62339990768862
 31
0.0
  0
LINE
  5
85
330
1F
100
AcDbEntity
  8
1
  6
Continuous
 62
     7
100
AcDbLine
 10
-105.8017786518812
 20
-14.62339990768865
 30
0.0
 11
-92.80380177434651
 21
-14.62339990768865
 31
0.0
  0
LINE
  5
86
330
1F
100
AcDbEntity
  8
1
  6
Continuous
 62
     7
100
AcDbLine
 10
-105.8017786518812
 20
25.37660009231135
 30
0.0
 11
-105.8017786518812
 21
-14.62339990768865
 31
0.0
  0
LINE
  5
87
330
1F
100
AcDbEntity
  8
1
  6
Continuous
 62
     7
100
AcDbLine
 10
-92.80286078715336
 20
25.37660009231135
 30
0.0
 11
-92.80380177434651
 21
-14.62339990768865
 31
0.0
  0
LINE
  5
88
330
1F
100
AcDbEntity
  8
1
  6
Continuous
 62
     7
100
AcDbLine
 10
-105.8017786518812
 20
25.37660009231135
 30
0.0
 11
-92.80286078715336
 21
25.37660009231135
 31
0.0
  0
LINE
  5
89
330
1F
100
AcDbEntity
  8
1
  6
DOT_CENTER
 62
     2
100
AcDbLine
 10
124.0880661630608
 20
-89.62339990768865
 30
0.0
 11
124.0880661630608
 21
-14.62339990768865
 31
0.0
  0
LINE
  5
8A
330
1F
100
AcDbEntity
  8
1
  6
Continuous
 62
     7
100
AcDbLine
 10
106.0880661630608
 20
-54.62339990768866
 30
0.0
 11
106.0880661630608
 21
-14.62339990768865
 31
0.0
  0
LINE
  5
8B
330
1F
100
AcDbEntity
  8
1
  6
Continuous
 62
     7
100
AcDbLine
 10
124.0880661630608
 20
-14.62339990768865
 30
0.0
 11
106.0880661630608
 21
-14.62339990768865
 31
0.0
  0
LINE
  5
8C
330
1F
100
AcDbEntity
  8
1
  6
DOT_CENTER
 62
     2
100
AcDbLine
 10
124.0880661630608
 20
-14.62339990768865
 30
0.0
 11
124.0880661630608
 21
25.37660009231135
 31
0.0
  0
LINE
  5
8D
330
1F
100
AcDbEntity
  8
1
  6
Continuous
 62
     7
100
AcDbLine
 10
106.0880661630608
 20
-14.62339990768865
 30
0.0
 11
106.0880661630608
 21
25.37660009231135
 31
0.0
  0
LINE
  5
8E
330
1F
100
AcDbEntity
  8
1
  6
Continuous
 62
     7
100
AcDbLine
 10
106.0880661630608
 20
25.37660009231135
 30
0.0
 11
124.0880661630608
 21
25.37660009231135
 31
0.0
  0
LINE
  5
8F
330
1F
100
AcDbEntity
  8
1
  6
Continuous
 62
     7
100
AcDbLine
 10
-170.1092983114338
 20
17.37660009231135
 30
0.0
 11
-170.1092983114338
 21
-6.62339990768865
 31
0.0
  0
LINE
  5
90
330
1F
100
AcDbEntity
  8
1
  6
Continuous
 62
     7
100
AcDbLine
 10
-186.1092983114338
 20
-6.62339990768865
 30
0.0
 11
-186.1092983114338
 21
17.37660009231135
 31
0.0
  0
LINE
  5
91
330
1F
100
AcDbEntity
  8
1
  6
Continuous
 62
     7
100
AcDbLine
 10
-186.1092983114338
 20
17.37660009231135
 30
0.0
 11
-186.1092983114338
 21
62.37660009231134
 31
0.0
  0
LINE
  5
92
330
1F
100
AcDbEntity
  8
1
  6
DOT_CENTER
 62
     2
100
AcDbLine
 10
178.1986003432113
 20
13.7329803655398
 30
0.0
 11
178.1986003432113
 21
5.37660009231135
 31
0.0
  0
LINE
  5
93
330
1F
100
AcDbEntity
  8
1
  6
DOT_CENTER
 62
     2
100
AcDbLine
 10
178.1986003432113
 20
88.4334180606021
 30
0.0
 11
178.1986003432113
 21
13.7329803655398
 31
0.0
  0
LINE
  5
94
330
1F
100
AcDbEntity
  8
1
  6
DOT_CENTER
 62
     2
100
AcDbLine
 10
177.1986003432113
 20
23.9064781914974
 30
0.0
 11
177.1986003432113
 21
69.88724435850082
 31
0.0
  0
LINE
  5
95
330
1F
100
AcDbEntity
  8
1
  6
DOT_CENTER
 62
     2
100
AcDbLine
 10
175.9486003432113
 20
-65.62339990768865
 30
0.0
 11
180.4486003432113
 21
-65.62339990768865
 31
0.0
  0
LINE
  5
96
330
1F
100
AcDbEntity
  8
1
  6
DOT_CENTER
 62
     2
100
AcDbLine
 10
175.9486003432113
 20
76.37660009231135
 30
0.0
 11
180.4486003432113
 21
76.37660009231135
 31
0.0
  0
LINE
  5
97
330
1F
100
AcDbEntity
  8
1
  6
Continuous
 62
     7
100
AcDbLine
 10
187.1986003432113
 20
73.87660009231135
 30
0.0
 11
187.1986003432113
 21
5.37660009231135
 31
0.0
  0
LINE
  5
98
330
1F
100
AcDbEntity
  8
1
  6
Continuous
 62
     7
100
AcDbLine
 10
2.38679367266664
 20
-62.69793997026319
 30
0.0
 11
2.38679367266681
 21
-44.69793997026316
 31
0.0
  0
LINE
  5
99
330
1F
100
AcDbEntity
  8
1
  6
Continuous
 62
     7
100
AcDbLine
 10
89.08806616306083
 20
65.37660009231138
 30
0.0
 11
89.08806616306083
 21
-54.62339990768865
 31
0.0
  0
LINE
  5
9A
330
1F
100
AcDbEntity
  8
1
  6
DOT_CENTER
 62
     2
100
AcDbLine
 10
30.99343703560656
 20
-52.69793997026323
 30
0.0
 11
10.2442424891523
 21
-52.69793997026323
 31
0.0
  0
LINE
  5
9B
330
1F
100
AcDbEntity
  8
1
  6
DOT_CENTER
 62
     2
100
AcDbLine
 10
124.0880661630608
 20
104.4193999621323
 30
0.0
 11
124.0880661630608
 21
100.3766000923114
 31
0.0
  0
LINE
  5
9C
330
1F
100
AcDbEntity
  8
1
  6
DOT_CENTER
 62
     2
100
AcDbLine
 10
124.0880661630608
 20
-99.1112895265787
 30
0.0
 11
124.0880661630608
 21
-89.62339990768865
 31
0.0
  0
LINE
  5
9D
330
1F
100
AcDbEntity
  8
1
  6
DOT_CENTER
 62
     2
100
AcDbLine
 10
124.0880661630608
 20
25.37660009231135
 30
0.0
 11
124.0880661630608
 21
100.3766000923114
 31
0.0
  0
LINE
  5
9E
330
1F
100
AcDbEntity
  8
1
  6
Continuous
 62
     7
100
AcDbLine
 10
79.08806616306083
 20
-89.62339990768868
 30
0.0
 11
79.08806616306083
 21
-72.12339990768865
 31
0.0
  0
LINE
  5
9F
330
1F
100
AcDbEntity
  8
1
  6
Continuous
 62
     7
100
AcDbLine
 10
79.08806616306083
 20
-72.12339990768865
 30
0.0
 11
89.08806616306083
 21
-72.12339990768865
 31
0.0
  0
LINE
  5
A0
330
1F
100
AcDbEntity
  8
1
  6
Continuous
 62
     7
100
AcDbLine
 10
89.08806616306083
 20
-72.12339990768865
 30
0.0
 11
89.08806616306083
 21
-54.62339990768865
 31
0.0
  0
LINE
  5
A1
330
1F
100
AcDbEntity
  8
1
  6
Continuous
 62
     7
100
AcDbLine
 10
89.08806616306083
 20
-54.62339990768865
 30
0.0
 11
106.0880661630608
 21
-54.62339990768866
 31
0.0
  0
LINE
  5
A2
330
1F
100
AcDbEntity
  8
1
  6
Continuous
 62
     7
100
AcDbLine
 10
106.0880661630608
 20
25.37660009231135
 30
0.0
 11
106.0880661630608
 21
65.37660009231135
 31
0.0
  0
LINE
  5
A3
330
1F
100
AcDbEntity
  8
1
  6
Continuous
 62
     7
100
AcDbLine
 10
106.0880661630608
 20
65.37660009231135
 30
0.0
 11
89.08806616306083
 21
65.37660009231138
 31
0.0
  0
LINE
  5
A4
330
1F
100
AcDbEntity
  8
1
  6
Continuous
 62
     7
100
AcDbLine
 10
89.08806616306083
 20
65.37660009231138
 30
0.0
 11
89.08806616306083
 21
82.87660009231135
 31
0.0
  0
LINE
  5
A5
330
1F
100
AcDbEntity
  8
1
  6
Continuous
 62
     7
100
AcDbLine
 10
79.08806616306083
 20
-72.12339990768865
 30
0.0
 11
79.08806616306083
 21
82.87660009231132
 31
0.0
  0
LINE
  5
A6
330
1F
100
AcDbEntity
  8
1
  6
Continuous
 62
     7
100
AcDbLine
 10
89.08806616306083
 20
82.87660009231135
 30
0.0
 11
79.08806616306083
 21
82.87660009231132
 31
0.0
  0
LINE
  5
A7
330
1F
100
AcDbEntity
  8
1
  6
Continuous
 62
     7
100
AcDbLine
 10
79.08806616306083
 20
82.87660009231132
 30
0.0
 11
79.08806616306083
 21
100.3766000923114
 31
0.0
  0
LINE
  5
A8
330
1F
100
AcDbEntity
  8
1
  6
DOT_CENTER
 62
     2
100
AcDbLine
 10
77.02314420299797
 20
-89.62339990768866
 30
0.0
 11
79.08806616306083
 21
-89.62339990768868
 31
0.0
  0
LINE
  5
A9
330
1F
100
AcDbEntity
  8
1
  6
DOT_CENTER
 62
     2
100
AcDbLine
 10
79.08806616306083
 20
-89.62339990768868
 30
0.0
 11
124.0880661630608
 21
-89.62339990768865
 31
0.0
  0
LINE
  5
AA
330
1F
100
AcDbEntity
  8
1
  6
DOT_CENTER
 62
     2
100
AcDbLine
 10
119.0880661630608
 20
-89.62339990768866
 30
0.0
 11
125.2272285751265
 21
-89.62339990768866
 31
0.0
  0
LINE
  5
AB
330
1F
100
AcDbEntity
  8
1
  6
DOT_CENTER
 62
     2
100
AcDbLine
 10
77.02314420299797
 20
100.3766000923114
 30
0.0
 11
79.08806616306083
 21
100.3766000923114
 31
0.0
  0
LINE
  5
AC
330
1F
100
AcDbEntity
  8
1
  6
DOT_CENTER
 62
     2
100
AcDbLine
 10
79.08806616306083
 20
100.3766000923114
 30
0.0
 11
124.0880661630608
 21
100.3766000923114
 31
0.0
  0
LINE
  5
AD
330
1F
100
AcDbEntity
  8
1
  6
DOT_CENTER
 62
     2
100
AcDbLine
 10
119.0880661630608
 20
100.3766000923114
 30
0.0
 11
125.2272285751265
 21
100.3766000923114
 31
0.0
  0
LINE
  5
AE
330
1F
100
AcDbEntity
  8
1
  6
Continuous
 62
     7
100
AcDbLine
 10
12.38679367266682
 20
-44.69793997026319
 30
0.0
 11
2.38679367266681
 21
-44.69793997026316
 31
0.0
  0
LINE
  5
AF
330
1F
100
AcDbEntity
  8
1
  6
Continuous
 62
     7
100
AcDbLine
 10
12.38679367266682
 20
-44.69793997026319
 30
0.0
 11
12.38679367266665
 21
-60.69793997026319
 31
0.0
  0
LINE
  5
B0
330
1F
100
AcDbEntity
  8
1
  6
DOT_CENTER
 62
     2
100
AcDbLine
 10
145.0594379311456
 20
5.37660009231135
 30
0.0
 11
178.1986003432113
 21
5.37660009231135
 31
0.0
  0
LINE
  5
B1
330
1F
100
AcDbEntity
  8
1
  6
DOT_CENTER
 62
     2
100
AcDbLine
 10
191.1986003432113
 20
-89.62339990768866
 30
0.0
 11
197.8813092857647
 21
-89.62339990768866
 31
0.0
  0
LINE
  5
B2
330
1F
100
AcDbEntity
  8
1
  6
DOT_CENTER
 62
     2
100
AcDbLine
 10
191.1986003432113
 20
100.3766000923114
 30
0.0
 11
197.8813092857647
 21
100.3766000923114
 31
0.0
  0
LINE
  5
B3
330
1F
100
AcDbEntity
  8
1
  6
Continuous
 62
     7
100
AcDbLine
 10
191.1986003432113
 20
-89.62339990768866
 30
0.0
 11
191.1986003432113
 21
73.87660009231135
 31
0.0
  0
LINE
  5
B4
330
1F
100
AcDbEntity
  8
1
  6
DOT_CENTER
 62
     2
100
AcDbLine
 10
167.1986003432113
 20
-89.62339990768866
 30
0.0
 11
191.1986003432113
 21
-89.62339990768866
 31
0.0
  0
LINE
  5
B5
330
1F
100
AcDbEntity
  8
1
  6
DOT_CENTER
 62
     2
100
AcDbLine
 10
167.1986003432113
 20
100.3766000923114
 30
0.0
 11
191.1986003432113
 21
100.3766000923114
 31
0.0
  0
LINE
  5
B6
330
1F
100
AcDbEntity
  8
1
  6
Continuous
 62
     7
100
AcDbLine
 10
167.1986003432113
 20
-89.62339990768866
 30
0.0
 11
167.1986003432113
 21
100.3766000923114
 31
0.0
  0
LINE
  5
B7
330
1F
100
AcDbEntity
  8
1
  6
DOT_CENTER
 62
     2
100
AcDbLine
 10
148.6901158396337
 20
100.3766000923114
 30
0.0
 11
151.1986003432113
 21
100.3766000923114
 31
0.0
  0
LINE
  5
B8
330
1F
100
AcDbEntity
  8
1
  6
Continuous
 62
     7
100
AcDbLine
 10
47.38679367266684
 20
-66.6979399702632
 30
0.0
 11
2.38679367266664
 21
-66.6979399702632
 31
0.0
  0
LINE
  5
B9
330
1F
100
AcDbEntity
  8
1
  6
Continuous
 62
     7
100
AcDbLine
 10
2.38679367266664
 20
-66.6979399702632
 30
0.0
 11
2.38679367266664
 21
-62.69793997026319
 31
0.0
  0
LINE
  5
BA
330
1F
100
AcDbEntity
  8
1
  6
Continuous
 62
     7
100
AcDbLine
 10
2.38679367266664
 20
-62.69793997026319
 30
0.0
 11
12.38679367266663
 21
-62.69793997026319
 31
0.0
  0
LINE
  5
BB
330
1F
100
AcDbEntity
  8
1
  6
Continuous
 62
     7
100
AcDbLine
 10
29.3867936726667
 20
-44.69793997026326
 30
0.0
 11
12.38679367266682
 21
-44.69793997026319
 31
0.0
  0
LINE
  5
BC
330
1F
100
AcDbEntity
  8
1
  6
Continuous
 62
     7
100
AcDbLine
 10
2.38679367266681
 20
-44.69793997026316
 30
0.0
 11
2.38679367266684
 21
-42.69793997026321
 31
0.0
  0
LINE
  5
BD
330
1F
100
AcDbEntity
  8
1
  6
PHANTOM
 62
     2
100
AcDbLine
 10
47.38679367266684
 20
-66.6979399702632
 30
0.0
 11
47.38679367266684
 21
-60.69793997026319
 31
0.0
  0
LINE
  5
BE
330
1F
100
AcDbEntity
  8
1
  6
PHANTOM
 62
     2
100
AcDbLine
 10
47.38679367266684
 20
-68.47367057736668
 30
0.0
 11
47.38679367266684
 21
-66.6979399702632
 31
0.0
  0
LINE
  5
BF
330
1F
100
AcDbEntity
  8
1
  6
Continuous
 62
     7
100
AcDbLine
 10
2.38679367266684
 20
-42.69793997026321
 30
0.0
 11
15.38679367266695
 21
-42.69793997026321
 31
0.0
  0
LINE
  5
C0
330
1F
100
AcDbEntity
  8
1
  6
Continuous
 62
     7
100
AcDbLine
 10
15.38679367266695
 20
-42.69793997026321
 30
0.0
 11
15.38679367266695
 21
-26.69793997026321
 31
0.0
  0
LINE
  5
C1
330
1F
100
AcDbEntity
  8
1
  6
Continuous
 62
     7
100
AcDbLine
 10
15.38679367266695
 20
-26.69793997026321
 30
0.0
 11
47.38679367266684
 21
-26.69793997026321
 31
0.0
  0
LINE
  5
C2
330
1F
100
AcDbEntity
  8
1
  6
PHANTOM
 62
     2
100
AcDbLine
 10
47.38679367266684
 20
-26.69793997026321
 30
0.0
 11
47.38679367266686
 21
-23.65515166616186
 31
0.0
  0
LINE
  5
C3
330
1F
100
AcDbEntity
  8
1
  6
Continuous
 62
     7
100
AcDbLine
 10
169.1986003432113
 20
73.87660009231135
 30
0.0
 11
169.1986003432113
 21
5.37660009231135
 31
0.0
  0
LINE
  5
C4
330
1F
100
AcDbEntity
  8
1
  6
DOT_CENTER
 62
     2
100
AcDbLine
 10
162.5349461857596
 20
73.87660009231135
 30
0.0
 11
191.1986003432113
 21
73.87660009231135
 31
0.0
  0
LINE
  5
C5
330
1F
100
AcDbEntity
  8
1
  6
Continuous
 62
     7
100
AcDbLine
 10
191.1986003432113
 20
73.87660009231135
 30
0.0
 11
191.1986003432113
 21
100.3766000923114
 31
0.0
  0
LINE
  5
C6
330
1F
100
AcDbEntity
  8
1
  6
DOT_CENTER
 62
     2
100
AcDbLine
 10
178.1986003432113
 20
5.37660009231135
 30
0.0
 11
185.1986003432113
 21
5.37660009231135
 31
0.0
  0
LINE
  5
C7
330
1F
100
AcDbEntity
  8
1
  6
Continuous
 62
     7
100
AcDbLine
 10
185.1986003432113
 20
57.37660009231134
 30
0.0
 11
185.1986003432113
 21
5.37660009231135
 31
0.0
  0
LINE
  5
C8
330
1F
100
AcDbEntity
  8
1
  6
DOT_CENTER
 62
     2
100
AcDbLine
 10
185.1986003432113
 20
5.37660009231135
 30
0.0
 11
193.8813092857647
 21
5.37660009231135
 31
0.0
  0
LINE
  5
C9
330
1F
100
AcDbEntity
  8
1
  6
Continuous
 62
     7
100
AcDbLine
 10
191.1986003432113
 20
-63.12339990768867
 30
0.0
 11
191.1986003432113
 21
100.3766000923114
 31
0.0
  0
LINE
  5
CA
330
1F
100
AcDbEntity
  8
1
  6
Continuous
 62
     7
100
AcDbLine
 10
185.1986003432113
 20
5.37660009231135
 30
0.0
 11
185.1986003432113
 21
-46.62339990768865
 31
0.0
  0
LINE
  5
CB
330
1F
100
AcDbEntity
  8
1
  6
Continuous
 62
     7
100
AcDbLine
 10
169.1986003432113
 20
5.37660009231135
 30
0.0
 11
169.1986003432113
 21
-63.12339990768867
 31
0.0
  0
LINE
  5
CC
330
1F
100
AcDbEntity
  8
1
  6
Continuous
 62
     7
100
AcDbLine
 10
187.1986003432113
 20
5.37660009231135
 30
0.0
 11
187.1986003432113
 21
-63.12339990768867
 31
0.0
  0
LINE
  5
CD
330
1F
100
AcDbEntity
  8
1
  6
DOT_CENTER
 62
     2
100
AcDbLine
 10
178.1986003432113
 20
5.37660009231135
 30
0.0
 11
178.1986003432113
 21
-77.12339990768866
 31
0.0
  0
LINE
  5
CE
330
1F
100
AcDbEntity
  8
1
  6
DOT_CENTER
 62
     2
100
AcDbLine
 10
191.1986003432113
 20
-63.12339990768867
 30
0.0
 11
162.5349461857596
 21
-63.12339990768866
 31
0.0
  0
LINE
  5
CF
330
1F
100
AcDbEntity
  8
1
  6
Continuous
 62
     7
100
AcDbLine
 10
12.38679367266665
 20
-60.69793997026319
 30
0.0
 11
29.3867936726667
 21
-60.69793997026319
 31
0.0
  0
LINE
  5
D0
330
1F
100
AcDbEntity
  8
1
  6
Continuous
 62
     7
100
AcDbLine
 10
12.38679367266665
 20
-60.69793997026319
 30
0.0
 11
12.38679367266663
 21
-62.69793997026319
 31
0.0
  0
LINE
  5
D1
330
1F
100
AcDbEntity
  8
1
  6
Continuous
 62
     7
100
AcDbLine
 10
29.3867936726667
 20
-60.69793997026319
 30
0.0
 11
29.3867936726667
 21
-44.69793997026326
 31
0.0
  0
LINE
  5
D2
330
1F
100
AcDbEntity
  8
1
  6
Continuous
 62
     7
100
AcDbLine
 10
151.1986003432113
 20
100.3766000923114
 30
0.0
 11
151.1986003432113
 21
39.6852686573133
 31
0.0
  0
LINE
  5
D3
330
1F
100
AcDbEntity
  8
1
  6
DOT_CENTER
 62
     2
100
AcDbLine
 10
151.1986003432113
 20
-89.62339990768865
 30
0.0
 11
167.1986003432113
 21
-89.62339990768866
 31
0.0
  0
LINE
  5
D4
330
1F
100
AcDbEntity
  8
1
  6
DOT_CENTER
 62
     2
100
AcDbLine
 10
151.1986003432113
 20
100.3766000923114
 30
0.0
 11
167.1986003432113
 21
100.3766000923114
 31
0.0
  0
LINE
  5
D5
330
1F
100
AcDbEntity
  8
1
  6
DOT_CENTER
 62
     2
100
AcDbLine
 10
14.580883670625
 20
-53.6979399702632
 30
0.0
 11
0.86388297763482
 21
-53.6979399702632
 31
0.0
  0
LINE
  5
D6
330
1F
100
AcDbEntity
  8
1
  6
DOT_CENTER
 62
     2
100
AcDbLine
 10
177.1986003432113
 20
-58.17778590641503
 30
0.0
 11
177.1986003432113
 21
23.9064781914974
 31
0.0
  0
LINE
  5
D7
330
1F
100
AcDbEntity
  8
1
  6
DOT_CENTER
 62
     2
100
AcDbLine
 10
167.9302363320646
 20
57.37660009231134
 30
0.0
 11
186.6092227685969
 21
57.37660009231134
 31
0.0
  0
LINE
  5
D8
330
1F
100
AcDbEntity
  8
1
  6
DOT_CENTER
 62
     2
100
AcDbLine
 10
167.974028109067
 20
-46.62339990768865
 30
0.0
 11
186.2536929180181
 21
-46.62339990768865
 31
0.0
  0
LINE
  5
D9
330
1F
100
AcDbEntity
  8
1
  6
Continuous
 62
     7
100
AcDbLine
 10
-1.11320632733315
 20
-63.69793997026321
 30
0.0
 11
-1.11320632733315
 21
-66.6979399702632
 31
0.0
  0
LINE
  5
DA
330
1F
100
AcDbEntity
  8
1
  6
Continuous
 62
     7
100
AcDbLine
 10
-1.11320632733323
 20
-42.6979399702632
 30
0.0
 11
-1.11320632733315
 21
-37.69793997026319
 31
0.0
  0
LINE
  5
DB
330
1F
100
AcDbEntity
  8
1
  6
DOT_CENTER
 62
     2
100
AcDbLine
 10
11.88679367266695
 20
-5.13242320594023
 30
0.0
 11
18.90126688979785
 21
-5.13242320594023
 31
0.0
  0
LINE
  5
DC
330
1F
100
AcDbEntity
  8
1
  6
DOT_CENTER
 62
     2
100
AcDbLine
 10
-38.11320632733305
 20
-5.13242320594023
 30
0.0
 11
-42.58147486355817
 21
-5.13242320594023
 31
0.0
  0
LINE
  5
DD
330
1F
100
AcDbEntity
  8
1
  6
Continuous
 62
     7
100
AcDbLine
 10
-1.11320632733315
 20
-39.69793997026321
 30
0.0
 11
0.61884448023564
 21
-42.69793997026321
 31
0.0
  0
LINE
  5
DE
330
1F
100
AcDbEntity
  8
1
  6
Continuous
 62
     7
100
AcDbLine
 10
0.61884448023564
 20
-42.69793997026321
 30
0.0
 11
2.38679367266684
 21
-42.69793997026321
 31
0.0
  0
LINE
  5
DF
330
1F
100
AcDbEntity
  8
1
  6
Continuous
 62
     7
100
AcDbLine
 10
10.15474286509806
 20
-42.69793997026321
 30
0.0
 11
11.88679367266695
 21
-39.69793997026321
 31
0.0
  0
LINE
  5
E0
330
1F
100
AcDbEntity
  8
1
  6
Continuous
 62
     7
100
AcDbLine
 10
11.88679367266695
 20
-39.69793997026321
 30
0.0
 11
11.88679367266695
 21
-37.69793997026319
 31
0.0
  0
LINE
  5
E1
330
1F
100
AcDbEntity
  8
1
  6
Continuous
 62
     7
100
AcDbLine
 10
-0.11320632733315
 20
-38.69793997026321
 30
0.0
 11
10.88679367266695
 21
-38.69793997026321
 31
0.0
  0
LINE
  5
E2
330
1F
100
AcDbEntity
  8
1
  6
Continuous
 62
     7
100
AcDbLine
 10
10.88679367266695
 20
-38.69793997026321
 30
0.0
 11
10.88679367266695
 21
-39.42999077783213
 31
0.0
  0
LINE
  5
E3
330
1F
100
AcDbEntity
  8
1
  6
Continuous
 62
     7
100
AcDbLine
 10
10.88679367266695
 20
-39.42999077783213
 30
0.0
 11
9.57739259590841
 21
-41.69793997026321
 31
0.0
  0
LINE
  5
E4
330
1F
100
AcDbEntity
  8
1
  6
Continuous
 62
     7
100
AcDbLine
 10
9.57739259590841
 20
-41.69793997026321
 30
0.0
 11
1.19619474942526
 21
-41.69793997026321
 31
0.0
  0
LINE
  5
E5
330
1F
100
AcDbEntity
  8
1
  6
Continuous
 62
     7
100
AcDbLine
 10
1.19619474942526
 20
-41.69793997026321
 30
0.0
 11
-0.11320632733315
 21
-39.42999077783213
 31
0.0
  0
LINE
  5
E6
330
1F
100
AcDbEntity
  8
1
  6
Continuous
 62
     7
100
AcDbLine
 10
-0.11320632733315
 20
-39.42999077783213
 30
0.0
 11
-0.11320632733315
 21
-38.69793997026321
 31
0.0
  0
LINE
  5
E7
330
1F
100
AcDbEntity
  8
1
  6
Continuous
 62
     7
100
AcDbLine
 10
-1.11320632733315
 20
-63.69793997026321
 30
0.0
 11
-11.11320632733307
 21
-63.69793997026324
 31
0.0
  0
LINE
  5
E8
330
1F
100
AcDbEntity
  8
1
  6
Continuous
 62
     7
100
AcDbLine
 10
-25.11320632733315
 20
-42.69793997026332
 30
0.0
 11
-11.1132063273332
 21
-42.6979399702632
 31
0.0
  0
LINE
  5
E9
330
1F
100
AcDbEntity
  8
1
  6
Continuous
 62
     7
100
AcDbLine
 10
-38.11320632733305
 20
-5.13242320594023
 30
0.0
 11
-38.11320632733305
 21
-44.6979399702632
 31
0.0
  0
LINE
  5
EA
330
1F
100
AcDbEntity
  8
1
  6
Continuous
 62
     7
100
AcDbLine
 10
-1.11320632733315
 20
-63.69793997026321
 30
0.0
 11
-1.11320632733323
 21
-42.6979399702632
 31
0.0
  0
LINE
  5
EB
330
1F
100
AcDbEntity
  8
1
  6
Continuous
 62
     7
100
AcDbLine
 10
-1.11320632733315
 20
-37.69793997026319
 30
0.0
 11
11.88679367266695
 21
-37.69793997026319
 31
0.0
  0
LINE
  5
EC
330
1F
100
AcDbEntity
  8
1
  6
Continuous
 62
     7
100
AcDbLine
 10
11.88679367266695
 20
-37.69793997026319
 30
0.0
 11
11.88679367266695
 21
-5.13242320594023
 31
0.0
  0
LINE
  5
ED
330
1F
100
AcDbEntity
  8
1
  6
DOT_CENTER
 62
     2
100
AcDbLine
 10
11.88679367266695
 20
-5.13242320594023
 30
0.0
 11
-38.11320632733305
 21
-5.13242320594023
 31
0.0
  0
LINE
  5
EE
330
1F
100
AcDbEntity
  8
1
  6
Continuous
 62
     7
100
AcDbLine
 10
-1.11320632733315
 20
-66.6979399702632
 30
0.0
 11
-38.11320632733305
 21
-66.69793997026322
 31
0.0
  0
LINE
  5
EF
330
1F
100
AcDbEntity
  8
1
  6
DOT_CENTER
 62
     2
100
AcDbLine
 10
-194.6000806359427
 20
100.3766000923113
 30
0.0
 11
-192.1092983114338
 21
100.3766000923113
 31
0.0
  0
LINE
  5
F0
330
1F
100
AcDbEntity
  8
1
  6
DOT_CENTER
 62
     2
100
AcDbLine
 10
-196.6000806359427
 20
-89.62339990768865
 30
0.0
 11
-192.1092983114338
 21
-89.62339990768864
 31
0.0
  0
LINE
  5
F1
330
1F
100
AcDbEntity
  8
1
  6
DOT_CENTER
 62
     2
100
AcDbLine
 10
-139.4897709387598
 20
100.3766000923113
 30
0.0
 11
-139.4897709387598
 21
-89.62339990768866
 31
0.0
  0
LINE
  5
F2
330
1F
100
AcDbEntity
  8
1
  6
DOT_CENTER
 62
     2
100
AcDbLine
 10
-139.4897709387598
 20
100.3766000923113
 30
0.0
 11
-134.5343223151126
 21
100.3766000923113
 31
0.0
  0
LINE
  5
F3
330
1F
100
AcDbEntity
  8
1
  6
DOT_CENTER
 62
     2
100
AcDbLine
 10
-139.4897709387598
 20
-89.62339990768866
 30
0.0
 11
-134.5343223151126
 21
-89.62339990768865
 31
0.0
  0
LINE
  5
F4
330
1F
100
AcDbEntity
  8
1
  6
DOT_CENTER
 62
     2
100
AcDbLine
 10
-139.4897709387598
 20
-89.62339990768866
 30
0.0
 11
-139.4897709387598
 21
-94.90359801694666
 31
0.0
  0
LINE
  5
F5
330
1F
100
AcDbEntity
  8
1
  6
DOT_CENTER
 62
     2
100
AcDbLine
 10
-139.4897709387598
 20
100.3766000923113
 30
0.0
 11
-139.4897709387598
 21
104.761881720986
 31
0.0
  0
LINE
  5
F6
330
1F
100
AcDbEntity
  8
1
  6
Continuous
 62
     7
100
AcDbLine
 10
-192.1092983114338
 20
100.3766000923113
 30
0.0
 11
-192.1092983114338
 21
-89.62339990768864
 31
0.0
  0
LINE
  5
F7
330
1F
100
AcDbEntity
  8
1
  6
DOT_CENTER
 62
     2
100
AcDbLine
 10
-192.1092983114338
 20
100.3766000923113
 30
0.0
 11
-163.1092983114338
 21
100.3766000923113
 31
0.0
  0
LINE
  5
F8
330
1F
100
AcDbEntity
  8
1
  6
DOT_CENTER
 62
     2
100
AcDbLine
 10
-192.1092983114338
 20
-89.62339990768864
 30
0.0
 11
-163.1092983114338
 21
-89.62339990768864
 31
0.0
  0
LINE
  5
F9
330
1F
100
AcDbEntity
  8
1
  6
Continuous
 62
     7
100
AcDbLine
 10
-163.1092983114338
 20
100.3766000923113
 30
0.0
 11
-163.1092983114338
 21
-89.62339990768864
 31
0.0
  0
LINE
  5
FA
330
1F
100
AcDbEntity
  8
1
  6
DOT_CENTER
 62
     2
100
AcDbLine
 10
-163.1092983114338
 20
100.3766000923113
 30
0.0
 11
-139.4897709387598
 21
100.3766000923113
 31
0.0
  0
LINE
  5
FB
330
1F
100
AcDbEntity
  8
1
  6
DOT_CENTER
 62
     2
100
AcDbLine
 10
-163.1092983114338
 20
-89.62339990768864
 30
0.0
 11
-139.4897709387598
 21
-89.62339990768866
 31
0.0
  0
LINE
  5
FC
330
1F
100
AcDbEntity
  8
1
  6
DOT_CENTER
 62
     2
100
AcDbLine
 10
-108.5635309971517
 20
100.3766000923113
 30
0.0
 11
-105.8017786518812
 21
100.3766000923113
 31
0.0
  0
LINE
  5
FD
330
1F
100
AcDbEntity
  8
1
  6
DOT_CENTER
 62
     2
100
AcDbLine
 10
-108.5635309971517
 20
5.37660009231135
 30
0.0
 11
-51.29189472598307
 21
5.37660009231135
 31
0.0
  0
LINE
  5
FE
330
1F
100
AcDbEntity
  8
1
  6
DOT_CENTER
 62
     2
100
AcDbLine
 10
-108.5635309971517
 20
-89.62339990768865
 30
0.0
 11
-105.8017786518812
 21
-89.62339990768864
 31
0.0
  0
LINE
  5
FF
330
1F
100
AcDbEntity
  8
1
  6
Continuous
 62
     7
100
AcDbLine
 10
-105.8017786518812
 20
100.3766000923113
 30
0.0
 11
-105.8017786518812
 21
25.37660009231135
 31
0.0
  0
LINE
  5
100
330
1F
100
AcDbEntity
  8
1
  6
DOT_CENTER
 62
     2
100
AcDbLine
 10
-105.8017786518812
 20
100.3766000923113
 30
0.0
 11
-68.80177865188125
 21
100.3766000923113
 31
0.0
  0
LINE
  5
101
330
1F
100
AcDbEntity
  8
1
  6
DOT_CENTER
 62
     2
100
AcDbLine
 10
-105.8017786518812
 20
-89.62339990768864
 30
0.0
 11
-68.80177865188125
 21
-89.62339990768865
 31
0.0
  0
LINE
  5
102
330
1F
100
AcDbEntity
  8
1
  6
Continuous
 62
     7
100
AcDbLine
 10
-55.80177865188119
 20
-89.62339990768865
 30
0.0
 11
-55.80177865188119
 21
100.3766000923113
 31
0.0
  0
LINE
  5
103
330
1F
100
AcDbEntity
  8
1
  6
DOT_CENTER
 62
     2
100
AcDbLine
 10
-55.80177865188119
 20
100.3766000923113
 30
0.0
 11
-51.29189472598307
 21
100.3766000923113
 31
0.0
  0
LINE
  5
104
330
1F
100
AcDbEntity
  8
1
  6
DOT_CENTER
 62
     2
100
AcDbLine
 10
-55.80177865188119
 20
-89.62339990768865
 30
0.0
 11
-51.29189472598307
 21
-89.62339990768865
 31
0.0
  0
LINE
  5
105
330
1F
100
AcDbEntity
  8
1
  6
Continuous
 62
     7
100
AcDbLine
 10
-68.80177865188125
 20
100.3766000923113
 30
0.0
 11
-68.80177865188125
 21
82.87660009231135
 31
0.0
  0
LINE
  5
106
330
1F
100
AcDbEntity
  8
1
  6
DOT_CENTER
 62
     2
100
AcDbLine
 10
-68.80177865188125
 20
100.3766000923113
 30
0.0
 11
-55.80177865188119
 21
100.3766000923113
 31
0.0
  0
LINE
  5
107
330
1F
100
AcDbEntity
  8
1
  6
DOT_CENTER
 62
     2
100
AcDbLine
 10
-68.80177865188125
 20
-89.62339990768865
 30
0.0
 11
-55.80177865188119
 21
-89.62339990768865
 31
0.0
  0
LINE
  5
108
330
1F
100
AcDbEntity
  8
1
  6
Continuous
 62
     7
100
AcDbLine
 10
-68.80177865188125
 20
82.87660009231135
 30
0.0
 11
-78.80177865188125
 21
82.87660009231135
 31
0.0
  0
LINE
  5
109
330
1F
100
AcDbEntity
  8
1
  6
Continuous
 62
     7
100
AcDbLine
 10
-68.80177865188125
 20
82.87660009231135
 30
0.0
 11
-68.80177865188125
 21
-72.12339990768866
 31
0.0
  0
LINE
  5
10A
330
1F
100
AcDbEntity
  8
1
  6
Continuous
 62
     7
100
AcDbLine
 10
-78.80177865188125
 20
82.87660009231135
 30
0.0
 11
-78.80177865188125
 21
71.37660009231135
 31
0.0
  0
LINE
  5
10B
330
1F
100
AcDbEntity
  8
1
  6
Continuous
 62
     7
100
AcDbLine
 10
-78.80177865188125
 20
71.37660009231135
 30
0.0
 11
-92.80177865188125
 21
71.37660009231135
 31
0.0
  0
LINE
  5
10C
330
1F
100
AcDbEntity
  8
1
  6
Continuous
 62
     7
100
AcDbLine
 10
-92.80177865188125
 20
71.37660009231135
 30
0.0
 11
-92.80286078715336
 21
25.37660009231135
 31
0.0
  0
LINE
  5
10D
330
1F
100
AcDbEntity
  8
1
  6
Continuous
 62
     7
100
AcDbLine
 10
-92.80488390961862
 20
-60.62339990768862
 30
0.0
 11
-78.80177865188125
 21
-60.62339990768867
 31
0.0
  0
LINE
  5
10E
330
1F
100
AcDbEntity
  8
1
  6
Continuous
 62
     7
100
AcDbLine
 10
-78.80177865188125
 20
-60.62339990768867
 30
0.0
 11
-78.80177865188125
 21
-72.12339990768865
 31
0.0
  0
LINE
  5
10F
330
1F
100
AcDbEntity
  8
1
  6
Continuous
 62
     7
100
AcDbLine
 10
-78.80177865188125
 20
-72.12339990768865
 30
0.0
 11
-68.80177865188125
 21
-72.12339990768866
 31
0.0
  0
LINE
  5
110
330
1F
100
AcDbEntity
  8
1
  6
Continuous
 62
     7
100
AcDbLine
 10
-68.80177865188125
 20
-72.12339990768866
 30
0.0
 11
-68.80177865188125
 21
-89.62339990768865
 31
0.0
  0
LINE
  5
111
330
1F
100
AcDbEntity
  8
1
  6
Continuous
 62
     7
100
AcDbLine
 10
-11.1132063273332
 20
-42.6979399702632
 30
0.0
 11
-1.11320632733323
 21
-42.6979399702632
 31
0.0
  0
LINE
  5
112
330
1F
100
AcDbEntity
  8
1
  6
Continuous
 62
     7
100
AcDbLine
 10
-78.80177865188125
 20
-60.62339990768867
 30
0.0
 11
-78.80177865188125
 21
-50.62339990768866
 31
0.0
  0
LINE
  5
113
330
1F
100
AcDbEntity
  8
1
  6
Continuous
 62
     7
100
AcDbLine
 10
-78.80177865188125
 20
71.37660009231135
 30
0.0
 11
-78.80177865188125
 21
62.87660009231139
 31
0.0
  0
LINE
  5
114
330
1F
100
AcDbEntity
  8
1
  6
DOT_CENTER
 62
     2
100
AcDbLine
 10
0.86388297763482
 20
-53.19793997026318
 30
0.0
 11
-13.2598530654007
 21
-53.19793997026318
 31
0.0
  0
LINE
  5
115
330
1F
100
AcDbEntity
  8
1
  6
Continuous
 62
     7
100
AcDbLine
 10
-186.1092983114338
 20
-51.62339990768865
 30
0.0
 11
-186.1092983114338
 21
-6.62339990768865
 31
0.0
  0
LINE
  5
116
330
1F
100
AcDbEntity
  8
1
  6
Continuous
 62
     7
100
AcDbLine
 10
-168.1092983114338
 20
-61.62339990768865
 30
0.0
 11
-168.1092983114338
 21
-51.62339990768865
 31
0.0
  0
LINE
  5
117
330
1F
100
AcDbEntity
  8
1
  6
Continuous
 62
     7
100
AcDbLine
 10
-189.1092983114338
 20
-61.62339990768865
 30
0.0
 11
-189.1092983114338
 21
72.37660009231135
 31
0.0
  0
LINE
  5
118
330
1F
100
AcDbEntity
  8
1
  6
Continuous
 62
     7
100
AcDbLine
 10
-11.1132063273331
 20
-60.6979399702632
 30
0.0
 11
-25.11320632733309
 21
-60.6979399702632
 31
0.0
  0
LINE
  5
119
330
1F
100
AcDbEntity
  8
1
  6
Continuous
 62
     7
100
AcDbLine
 10
-25.11320632733309
 20
-60.6979399702632
 30
0.0
 11
-25.11320632733314
 21
-44.6979399702632
 31
0.0
  0
LINE
  5
11A
330
1F
100
AcDbEntity
  8
1
  6
Continuous
 62
     7
100
AcDbLine
 10
-11.1132063273331
 20
-60.6979399702632
 30
0.0
 11
-11.1132063273332
 21
-42.6979399702632
 31
0.0
  0
LINE
  5
11B
330
1F
100
AcDbEntity
  8
1
  6
Continuous
 62
     7
100
AcDbLine
 10
-11.11320632733307
 20
-63.69793997026324
 30
0.0
 11
-11.1132063273331
 21
-60.6979399702632
 31
0.0
  0
LINE
  5
11C
330
1F
100
AcDbEntity
  8
1
  6
DOT_CENTER
 62
     2
100
AcDbLine
 10
-190.620962865328
 20
72.37660009231135
 30
0.0
 11
-166.856329904655
 21
72.37660009231135
 31
0.0
  0
LINE
  5
11D
330
1F
100
AcDbEntity
  8
1
  6
DOT_CENTER
 62
     2
100
AcDbLine
 10
-181.3592983114338
 20
76.37660009231135
 30
0.0
 11
-176.8592983114338
 21
76.37660009231135
 31
0.0
  0
LINE
  5
11E
330
1F
100
AcDbEntity
  8
1
  6
DOT_CENTER
 62
     2
100
AcDbLine
 10
-178.6092983114338
 20
-75.5804222971521
 30
0.0
 11
-178.6092983114338
 21
86.3336224817748
 31
0.0
  0
LINE
  5
11F
330
1F
100
AcDbEntity
  8
1
  6
DOT_CENTER
 62
     2
100
AcDbLine
 10
-181.3592983114338
 20
-65.62339990768865
 30
0.0
 11
-176.8592983114338
 21
-65.62339990768865
 31
0.0
  0
LINE
  5
120
330
1F
100
AcDbEntity
  8
1
  6
DOT_CENTER
 62
     2
100
AcDbLine
 10
-190.620962865328
 20
-61.63531142598714
 30
0.0
 11
-166.18830624847
 21
-61.63531142598714
 31
0.0
  0
LINE
  5
121
330
1F
100
AcDbEntity
  8
1
  6
DOT_CENTER
 62
     2
100
AcDbLine
 10
-194.6000806359427
 20
5.37660009231135
 30
0.0
 11
-162.0
 21
5.37660009231135
 31
0.0
  0
LINE
  5
122
330
1F
100
AcDbEntity
  8
1
  6
DOT_CENTER
 62
     2
100
AcDbLine
 10
-177.1092983114338
 20
74.1913679844397
 30
0.0
 11
-177.1092983114338
 21
-62.92176113992363
 31
0.0
  0
LINE
  5
123
330
1F
100
AcDbEntity
  8
1
  6
DOT_CENTER
 62
     2
100
AcDbLine
 10
-187.939077315715
 20
-51.62339990768865
 30
0.0
 11
-166.009785283542
 21
-51.62339990768865
 31
0.0
  0
LINE
  5
124
330
1F
100
AcDbEntity
  8
1
  6
DOT_CENTER
 62
     2
100
AcDbLine
 10
-188.554644728426
 20
62.37660009231135
 30
0.0
 11
-166.132898766084
 21
62.37660009231135
 31
0.0
  0
LINE
  5
125
330
1F
100
AcDbEntity
  8
1
  6
DOT_CENTER
 62
     2
100
AcDbLine
 10
-9.01360038267119
 20
-51.19793997026326
 30
0.0
 11
-27.1065792868494
 21
-51.19793997026326
 31
0.0
  0
LINE
  5
126
330
1F
100
AcDbEntity
  8
1
  6
DOT_CENTER
 62
     2
100
AcDbLine
 10
-144.0
 20
5.37660009231135
 30
0.0
 11
-135.8383329234636
 21
5.37660009231135
 31
0.0
  0
LINE
  5
127
330
1F
100
AcDbEntity
  8
1
  6
Continuous
 62
     7
100
AcDbLine
 10
-168.1092983114338
 20
71.37660009231135
 30
0.0
 11
-168.1092983114338
 21
72.37660009231135
 31
0.0
  0
LINE
  5
128
330
1F
100
AcDbEntity
  8
1
  6
Continuous
 62
     7
100
AcDbLine
 10
-168.1092983114338
 20
-51.62339990768865
 30
0.0
 11
-168.1092983114338
 21
72.37660009231135
 31
0.0
  0
LINE
  5
129
330
1F
100
AcDbEntity
  8
1
  6
DOT_CENTER
 62
     2
100
AcDbLine
 10
-178.1092983114338
 20
26.4300827869768
 30
0.0
 11
-178.1092983114338
 21
-16.5699172130232
 31
0.0
  0
LINE
  5
12A
330
1F
100
AcDbEntity
  8
1
  6
DOT_CENTER
 62
     2
100
AcDbLine
 10
76.85589887400897
 20
5.37660009231135
 30
0.0
 11
92.0
 21
5.37660009231135
 31
0.0
  0
ARC
  5
12B
330
1F
100
AcDbEntity
  8
1
  6
Continuous
 62
     7
100
AcDbCircle
 10
177.1986003432113
 20
-6.62339990768865
 30
0.0
 40
8.0
100
AcDbArc
 50
180.0
 51
0.0
  0
ARC
  5
12C
330
1F
100
AcDbEntity
  8
1
  6
Continuous
 62
     7
100
AcDbCircle
 10
177.1986003432113
 20
17.37660009231135
 30
0.0
 40
8.0
100
AcDbArc
 50
0.0
 51
180.0
  0
ARC
  5
12D
330
1F
100
AcDbEntity
  8
1
  6
Continuous
 62
     7
100
AcDbCircle
 10
-178.1092983114338
 20
-6.62339990768865
 30
0.0
 40
7.999999999999999
100
AcDbArc
 50
270.0
 51
0.0
  0
ARC
  5
12E
330
1F
100
AcDbEntity
  8
1
  6
Continuous
 62
     7
100
AcDbCircle
 10
-178.1092983114338
 20
17.37660009231135
 30
0.0
 40
8.0
100
AcDbArc
 50
90.0
 51
180.0
  0
ARC
  5
12F
330
1F
100
AcDbEntity
  8
1
  6
Continuous
 62
     7
100
AcDbCircle
 10
178.1986003432113
 20
73.87660009231135
 30
0.0
 40
9.0
100
AcDbArc
 50
90.0
 51
180.0
  0
ARC
  5
130
330
1F
100
AcDbEntity
  8
1
  6
Continuous
 62
     7
100
AcDbCircle
 10
177.1986003432113
 20
57.37660009231134
 30
0.0
 40
8.000000000000007
100
AcDbArc
 50
90.0
 51
180.0
  0
ARC
  5
131
330
1F
100
AcDbEntity
  8
1
  6
Continuous
 62
     7
100
AcDbCircle
 10
177.1986003432113
 20
-46.62339990768865
 30
0.0
 40
8.0
100
AcDbArc
 50
270.0
 51
0.0
  0
ARC
  5
132
330
1F
100
AcDbEntity
  8
1
  6
Continuous
 62
     7
100
AcDbCircle
 10
178.1986003432113
 20
-63.12339990768867
 30
0.0
 40
8.999999999999979
100
AcDbArc
 50
270.0
 51
0.0
  0
ARC
  5
133
330
1F
100
AcDbEntity
  8
1
  6
Continuous
 62
     7
100
AcDbCircle
 10
178.1986003432113
 20
73.87660009231135
 30
0.0
 40
9.0
100
AcDbArc
 50
0.0
 51
90.0
  0
ARC
  5
134
330
1F
100
AcDbEntity
  8
1
  6
Continuous
 62
     7
100
AcDbCircle
 10
178.1986003432113
 20
-63.12339990768867
 30
0.0
 40
9.0
100
AcDbArc
 50
180.0
 51
270.0
  0
ARC
  5
135
330
1F
100
AcDbEntity
  8
1
  6
Continuous
 62
     7
100
AcDbCircle
 10
177.1986003432113
 20
57.37660009231134
 30
0.0
 40
8.0
100
AcDbArc
 50
0.0
 51
90.0
  0
ARC
  5
136
330
1F
100
AcDbEntity
  8
1
  6
Continuous
 62
     7
100
AcDbCircle
 10
177.1986003432113
 20
-46.62339990768865
 30
0.0
 40
8.0
100
AcDbArc
 50
180.0
 51
270.0
  0
ARC
  5
137
330
1F
100
AcDbEntity
  8
1
  6
Continuous
 62
     7
100
AcDbCircle
 10
-178.1092983114338
 20
17.37660009231135
 30
0.0
 40
8.0
100
AcDbArc
 50
0.0
 51
90.0
  0
ARC
  5
138
330
1F
100
AcDbEntity
  8
1
  6
Continuous
 62
     7
100
AcDbCircle
 10
-178.1092983114338
 20
-6.62339990768865
 30
0.0
 40
8.0
100
AcDbArc
 50
180.0
 51
270.0
  0
CIRCLE
  5
139
330
1F
100
AcDbEntity
  8
1
  6
DOT_CENTER
 62
     2
100
AcDbCircle
 10
175.5486003432113
 20
-63.12339990768867
 30
0.0
 40
6.350011171979815
  0
CIRCLE
  5
13A
330
1F
100
AcDbEntity
  8
1
  6
DOT_CENTER
 62
     2
100
AcDbCircle
 10
-174.4592983114338
 20
-61.63531142598714
 30
0.0
 40
6.350011171979786
  0
CIRCLE
  5
13B
330
1F
100
AcDbEntity
  8
1
  6
Continuous
 62
     7
100
AcDbCircle
 10
178.1986003432113
 20
-65.62339990768865
 30
0.0
 40
1.5
  0
CIRCLE
  5
13C
330
1F
100
AcDbEntity
  8
1
  6
Continuous
 62
     7
100
AcDbCircle
 10
178.1986003432113
 20
76.37660009231135
 30
0.0
 40
1.5
  0
CIRCLE
  5
13D
330
1F
100
AcDbEntity
  8
1
  6
Continuous
 62
     7
100
AcDbCircle
 10
-178.6092983114338
 20
76.37660009231135
 30
0.0
 40
1.5
  0
CIRCLE
  5
13E
330
1F
100
AcDbEntity
  8
1
  6
Continuous
 62
     7
100
AcDbCircle
 10
-178.6092983114338
 20
-65.62339990768865
 30
0.0
 40
1.5
  0
XLINE
  5
13F
330
1F
100
AcDbEntity
  8
1
  6
DOT_CENTER
 62
     3
 60
     1
100
AcDbXline
 10
20.88679367266668
 20
-60.69793997026319
 30
0.0
 11
0.0
 21
1.0
 31
0.0
  0
XLINE
  5
140
330
1F
100
AcDbEntity
  8
1
  6
DOT_CENTER
 62
     3
 60
     1
100
AcDbXline
 10
20.88679367266668
 20
-60.69793997026319
 30
0.0
 11
0.0
 21
1.0
 31
0.0
  0
XLINE
  5
141
330
1F
100
AcDbEntity
  8
1
  6
DOT_CENTER
 62
     3
 60
     1
100
AcDbXline
 10
106.0880661630608
 20
-14.62339990768865
 30
0.0
 11
-1.0
 21
0.0
 31
0.0
  0
XLINE
  5
142
330
1F
100
AcDbEntity
  8
1
  6
DOT_CENTER
 62
     3
 60
     1
100
AcDbXline
 10
177.1986003432113
 20
-6.62339990768865
 30
0.0
 11
-1.0
 21
0.0
 31
0.0
  0
XLINE
  5
143
330
1F
100
AcDbEntity
  8
1
  6
DOT_CENTER
 62
     3
 60
     1
100
AcDbXline
 10
177.1986003432113
 20
-6.62339990768865
 30
0.0
 11
1.0
 21
0.0
 31
0.0
  0
XLINE
  5
144
330
1F
100
AcDbEntity
  8
1
  6
DOT_CENTER
 62
     3
 60
     1
100
AcDbXline
 10
177.1986003432113
 20
17.37660009231135
 30
0.0
 11
1.0
 21
0.0
 31
0.0
  0
XLINE
  5
145
330
1F
100
AcDbEntity
  8
1
  6
DOT_CENTER
 62
     3
 60
     1
100
AcDbXline
 10
177.1986003432113
 20
17.37660009231135
 30
0.0
 11
-1.0
 21
0.0
 31
0.0
  0
XLINE
  5
146
330
1F
100
AcDbEntity
  8
1
  6
DOT_CENTER
 62
     3
 60
     1
100
AcDbXline
 10
-178.1092983114338
 20
-6.62339990768865
 30
0.0
 11
-1.0
 21
0.0
 31
0.0
  0
XLINE
  5
147
330
1F
100
AcDbEntity
  8
1
  6
DOT_CENTER
 62
     3
 60
     1
100
AcDbXline
 10
-178.1092983114338
 20
-6.62339990768865
 30
0.0
 11
1.0
 21
0.0
 31
0.0
  0
XLINE
  5
148
330
1F
100
AcDbEntity
  8
1
  6
DOT_CENTER
 62
     3
 60
     1
100
AcDbXline
 10
-178.1092983114338
 20
17.37660009231135
 30
0.0
 11
1.0
 21
0.0
 31
0.0
  0
XLINE
  5
149
330
1F
100
AcDbEntity
  8
1
  6
DOT_CENTER
 62
     3
 60
     1
100
AcDbXline
 10
-178.1092983114338
 20
17.37660009231135
 30
0.0
 11
-1.0
 21
0.0
 31
0.0
  0
XLINE
  5
14A
330
1F
100
AcDbEntity
  8
1
  6
DOT_CENTER
 62
     3
 60
     1
100
AcDbXline
 10
-194.6000806359427
 20
5.37660009231135
 30
0.0
 11
1.0
 21
0.0
 31
0.0
  0
ARC
  5
14B
330
1F
100
AcDbEntity
  8
1
  6
Continuous
 62
     7
100
AcDbCircle
 10
-178.6092983114338
 20
72.37660009231135
 30
0.0
 40
10.5
100
AcDbArc
 50
0.0
 51
90.0
  0
ARC
  5
14C
330
1F
100
AcDbEntity
  8
1
  6
Continuous
 62
     7
100
AcDbCircle
 10
-178.6092983114338
 20
72.37660009231135
 30
0.0
 40
10.5
100
AcDbArc
 50
90.0
 51
180.0
  0
ARC
  5
14D
330
1F
100
AcDbEntity
  8
1
  6
Continuous
 62
     7
100
AcDbCircle
 10
-178.6092983114338
 20
-61.62339990768865
 30
0.0
 40
10.5
100
AcDbArc
 50
180.0
 51
270.0
  0
ARC
  5
14E
330
1F
100
AcDbEntity
  8
1
  6
Continuous
 62
     7
100
AcDbCircle
 10
-178.6092983114338
 20
-61.62339990768865
 30
0.0
 40
10.5
100
AcDbArc
 50
270.0
 51
0.0
  0
ARC
  5
14F
330
1F
100
AcDbEntity
  8
1
  6
Continuous
 62
     7
100
AcDbCircle
 10
-177.1092983114338
 20
62.37660009231135
 30
0.0
 40
9.0
100
AcDbArc
 50
90.0
 51
180.0
  0
ARC
  5
150
330
1F
100
AcDbEntity
  8
1
  6
Continuous
 62
     7
100
AcDbCircle
 10
-177.1092983114338
 20
62.37660009231135
 30
0.0
 40
9.0
100
AcDbArc
 50
0.0
 51
90.0
  0
ARC
  5
151
330
1F
100
AcDbEntity
  8
1
  6
Continuous
 62
     7
100
AcDbCircle
 10
-177.1092983114338
 20
-51.62339990768865
 30
0.0
 40
9.0
100
AcDbArc
 50
180.0
 51
270.0
  0
ARC
  5
152
330
1F
100
AcDbEntity
  8
1
  6
Continuous
 62
     7
100
AcDbCircle
 10
-177.1092983114338
 20
-51.62339990768865
 30
0.0
 40
9.0
100
AcDbArc
 50
270.0
 51
0.0
  0
MTEXT
  5
154
330
1F
100
AcDbEntity
  8
1
 62
     3
100
AcDbMText
 10
-21.26073053579021
 20
13.2425005013189
 30
0.0
 40
3.5
 41
0.0
 71
     5
 72
     1
  1
template\Pblock frame
  7
CONVERTER_11
 73
     1
 44
1.32052821128451
  0
MTEXT
  5
155
330
1F
100
AcDbEntity
  8
1
 62
     3
100
AcDbMText
 10
34.40554988135929
 20
12.14012547522979
 30
0.0
 40
3.5
 41
0.0
 71
     5
 72
     1
  1
template\Pdoor panel
  7
CONVERTER_11
 73
     1
 44
1.32052821128451
  0
MTEXT
  5
156
330
1F
100
AcDbEntity
  8
1
 62
     3
100
AcDbMText
 10
185.947720152387
 20
-123.691625468493
 30
0.0
 40
3.5
 41
0.0
 71
     5
 72
     1
  1
TECTUS TE240-3D Energy
  7
CONVERTER_11
 73
     1
 44
1.32052821128451
  0
DIMENSION
  5
161
330
1F
100
AcDbEntity
  8
1
100
AcDbDimension
  2
*D1
 10
47.38679367266684
 20
-13.9668547328877
 30
0.0
 11
37.0234033580172
 21
-10.2168547328877
 31
0.0
 70
    32
  1
min.35mm (1.378``)
 71
     5
 42
-1.0
 53
0.00013888888889
  3
ME10_DIM_10
100
AcDbAlignedDimension
 13
29.3867936726667
 23
-60.69793997026319
 33
0.0
 14
47.38679367266684
 24
-26.69793997026321
 34
0.0
100
AcDbRotatedDimension
  0
DIMENSION
  5
16D
330
1F
100
AcDbEntity
  8
1
100
AcDbDimension
  2
*D2
 10
67.4865992579755
 20
-66.6979399702632
 30
0.0
 11
63.7365992579755
 21
-19.050648164731
 31
0.0
 70
    32
  1
24mm (0.945``)
 71
     5
 42
-1.0
 53
90.0
  3
ME10_DIM_11
100
AcDbAlignedDimension
 13
15.38679367266695
 23
-42.69793997026321
 33
0.0
 14
47.38679367266684
 24
-66.6979399702632
 34
0.0
 50
90.0
100
AcDbRotatedDimension
  0
DIMENSION
  5
178
330
1F
100
AcDbEntity
  8
1
100
AcDbDimension
  2
*D3
 10
209.3887512679591
 20
76.37660009231135
 30
0.0
 11
205.6387512679591
 21
3.37388654899802
 31
0.0
 70
    32
  1
<>``)
 71
     5
 42
-1.0
 53
90.0
  3
ME10_DIM_12
100
AcDbAlignedDimension
 13
175.9486003432113
 23
-65.62339990768865
 33
0.0
 14
175.9486003432113
 24
76.37660009231135
 34
0.0
 50
90.0
100
AcDbRotatedDimension
  0
DIMENSION
  5
185
330
1F
100
AcDbEntity
  8
1
100
AcDbDimension
  2
*D4
 10
-7.155817394035
 20
-63.69793997026324
 30
0.0
 11
-10.905817394035
 21
-85.6483512587725
 31
0.0
 70
    32
  1
3mm (0.118``)
 71
     5
 42
-1.0
 53
90.0
  3
ME10_DIM_13
100
AcDbAlignedDimension
 13
-1.11320632733315
 23
-66.6979399702632
 33
0.0
 14
-11.11320632733307
 24
-63.69793997026324
 34
0.0
 50
90.0
100
AcDbRotatedDimension
  0
DIMENSION
  5
192
330
1F
100
AcDbEntity
  8
1
100
AcDbDimension
  2
*D5
 10
12.63953091356274
 20
-62.69793997026319
 30
0.0
 11
8.88953091356274
 21
-84.6886454488453
 31
0.0
 70
    32
  1
4mm (0.157``)
 71
     5
 42
-1.0
 53
90.0
  3
ME10_DIM_14
100
AcDbAlignedDimension
 13
2.38679367266664
 23
-66.6979399702632
 33
0.0
 14
12.38679367266663
 24
-62.69793997026319
 34
0.0
 50
90.0
100
AcDbRotatedDimension
  0
DIMENSION
  5
19E
330
1F
100
AcDbEntity
  8
1
100
AcDbDimension
  2
*D6
 10
79.08806616306083
 20
-110.622960427562
 30
0.0
 11
56.63057816361243
 21
-106.872960427562
 31
0.0
 70
    32
  1
<>``)
 71
     5
 42
-1.0
 53
0.00013888888889
  3
ME10_DIM_15
100
AcDbAlignedDimension
 13
106.0880661630608
 23
-54.62339990768866
 33
0.0
 14
79.08806616306083
 24
-72.12339990768865
 34
0.0
100
AcDbRotatedDimension
  0
DIMENSION
  5
1AA
330
1F
100
AcDbEntity
  8
1
100
AcDbDimension
  2
*D7
 10
89.08806616306084
 20
-98.785670014645
 30
0.0
 11
59.56957782705104
 21
-95.035670014645
 31
0.0
 70
    32
  1
10mm (0.394``)
 71
     5
 42
-1.0
 53
0.00013888888889
  3
ME10_DIM_16
100
AcDbAlignedDimension
 13
79.08806616306083
 23
-89.62339990768868
 33
0.0
 14
89.08806616306083
 24
-72.12339990768865
 34
0.0
100
AcDbRotatedDimension
  0
DIMENSION
  5
1B6
330
1F
100
AcDbEntity
  8
1
100
AcDbDimension
  2
*D8
 10
-78.80177865188125
 20
-99.2653824624736
 30
0.0
 11
-46.73414482681312
 21
-95.5153824624736
 31
0.0
 70
    32
  1
10mm (0.394``)
 71
     5
 42
-1.0
 53
0.00013888888889
  3
ME10_DIM_17
100
AcDbAlignedDimension
 13
-68.80177865188125
 23
-89.62339990768865
 33
0.0
 14
-78.80177865188125
 24
-72.12339990768865
 34
0.0
100
AcDbRotatedDimension
  0
DIMENSION
  5
1C2
330
1F
100
AcDbEntity
  8
1
100
AcDbDimension
  2
*D9
 10
-68.80177865188125
 20
-110.2833961103276
 30
0.0
 11
-47.97599419807557
 21
-106.5333961103276
 31
0.0
 70
    32
  1
24mm (0.945``)
 71
     5
 42
-1.0
 53
0.00013888888889
  3
ME10_DIM_18
100
AcDbAlignedDimension
 13
-92.80488390961862
 23
-60.62339990768862
 33
0.0
 14
-68.80177865188125
 24
-72.12339990768866
 34
0.0
100
AcDbRotatedDimension
  0
DIMENSION
  5
1CD
330
1F
100
AcDbEntity
  8
1
100
AcDbDimension
  2
*D10
 10
200.769916730974
 20
65.37660009231134
 30
0.0
 11
197.019916730974
 21
3.6038703627465
 31
0.0
 70
    32
  1
<>``)
 71
     5
 42
-1.0
 53
90.0
  3
ME10_DIM_19
100
AcDbAlignedDimension
 13
177.1986003432113
 23
-54.62339990768865
 33
0.0
 14
177.1986003432113
 24
65.37660009231135
 34
0.0
 50
90.0
100
AcDbRotatedDimension
  0
DIMENSION
  5
1D8
330
1F
100
AcDbEntity
  8
1
100
AcDbDimension
  2
*D11
 10
219.164495411211
 20
-72.12339990768865
 30
0.0
 11
215.414495411211
 21
6.25238840697301
 31
0.0
 70
    32
  1
<>``)
 71
     5
 42
-1.0
 53
90.0
  3
ME10_DIM_20
100
AcDbAlignedDimension
 13
178.1986003432113
 23
82.87660009231135
 33
0.0
 14
178.1986003432113
 24
-72.12339990768865
 34
0.0
 50
90.0
100
AcDbRotatedDimension
  0
DIMENSION
  5
1E4
330
1F
100
AcDbEntity
  8
1
100
AcDbDimension
  2
*D12
 10
185.1986003432113
 20
32.3048182481224
 30
0.0
 11
146.7020811065338
 21
36.0548182481224
 31
0.0
 70
    32
  1
16mm (0.630``)
 71
     5
 42
-1.0
 53
0.00013888888889
  3
ME10_DIM_21
100
AcDbAlignedDimension
 13
169.1986003432113
 23
5.37660009231135
 33
0.0
 14
185.1986003432113
 24
-46.62339990768865
 34
0.0
100
AcDbRotatedDimension
  0
DIMENSION
  5
1F0
330
1F
100
AcDbEntity
  8
1
100
AcDbDimension
  2
*D13
 10
187.1986003432113
 20
-108.781584343866
 30
0.0
 11
205.890868300829
 21
-105.031584343866
 31
0.0
 70
    32
  1
18mm (0.709``)
 71
     5
 42
-1.0
 53
0.00013888888889
  3
ME10_DIM_22
100
AcDbAlignedDimension
 13
169.1986003432113
 23
-63.12339990768867
 33
0.0
 14
187.1986003432113
 24
-63.12339990768867
 34
0.0
100
AcDbRotatedDimension
  0
DIMENSION
  5
1FD
330
1F
100
AcDbEntity
  8
1
100
AcDbDimension
  2
*D14
 10
191.1986003432113
 20
-97.781584343866
 30
0.0
 11
207.590539035212
 21
-94.031584343866
 31
0.0
 70
    32
  1
4mm (0.157``)
 71
     5
 42
-1.0
 53
0.00013888888889
  3
ME10_DIM_23
100
AcDbAlignedDimension
 13
187.1986003432113
 23
-63.12339990768867
 33
0.0
 14
191.1986003432113
 24
-89.62339990768866
 34
0.0
100
AcDbRotatedDimension
  0
DIMENSION
  5
209
330
1F
100
AcDbEntity
  8
1
100
AcDbDimension
  2
*D15
 10
-168.1092983114338
 20
-109.5759847602375
 30
0.0
 11
-209.8452342178087
 21
-105.8259847602375
 31
0.0
 70
    32
  1
21mm (0.827``)
 71
     5
 42
-1.0
 53
0.00013888888889
  3
ME10_DIM_24
100
AcDbAlignedDimension
 13
-189.1092983114338
 23
-61.62339990768865
 33
0.0
 14
-168.1092983114338
 24
-61.62339990768865
 34
0.0
100
AcDbRotatedDimension
  0
DIMENSION
  5
215
330
1F
100
AcDbEntity
  8
1
100
AcDbDimension
  2
*D16
 10
-186.1092983114338
 20
34.4188748070954
 30
0.0
 11
-212.5515473033972
 21
38.1688748070954
 31
0.0
 70
    32
  1
18mm (0.709``)
 71
     5
 42
-1.0
 53
0.00013888888889
  3
ME10_DIM_25
100
AcDbAlignedDimension
 13
-168.1092983114338
 23
72.37660009231135
 33
0.0
 14
-186.1092983114338
 24
62.37660009231134
 34
0.0
100
AcDbRotatedDimension
  0
DIMENSION
  5
220
330
1F
100
AcDbEntity
  8
1
100
AcDbDimension
  2
*D17
 10
-117.887717566138
 20
82.87660009231135
 30
0.0
 11
-121.637717566138
 21
6.81986230664208
 31
0.0
 70
    32
  1
<>``)
 71
     5
 42
-1.0
 53
90.0
  3
ME10_DIM_26
100
AcDbAlignedDimension
 13
-178.6092983114338
 23
-72.12339990768865
 33
0.0
 14
-178.6092983114338
 24
82.87660009231135
 34
0.0
 50
90.0
100
AcDbRotatedDimension
  0
DIMENSION
  5
22B
330
1F
100
AcDbEntity
  8
1
100
AcDbDimension
  2
*D18
 10
-144.761064172083
 20
71.37660009231135
 30
0.0
 11
-148.511064172083
 21
5.51026276683634
 31
0.0
 70
    32
  1
<>``)
 71
     5
 42
-1.0
 53
90.0
  3
ME10_DIM_27
100
AcDbAlignedDimension
 13
-177.1092983114338
 23
-60.62339990768865
 33
0.0
 14
-177.1092983114338
 24
71.37660009231135
 34
0.0
 50
90.0
100
AcDbRotatedDimension
  0
DIMENSION
  5
238
330
1F
100
AcDbEntity
  8
1
100
AcDbDimension
  2
*D19
 10
-192.1092983114338
 20
-98.635225276103
 30
0.0
 11
-209.619257011963
 21
-94.885225276103
 31
0.0
 70
    32
  1
3mm (0.118``)
 71
     5
 42
-1.0
 53
0.00013888888889
  3
ME10_DIM_28
100
AcDbAlignedDimension
 13
-189.1092983114338
 23
-61.62339990768865
 33
0.0
 14
-192.1092983114338
 24
-89.62339990768864
 34
0.0
100
AcDbRotatedDimension
  0
DIMENSION
  5
243
330
1F
100
AcDbEntity
  8
1
100
AcDbDimension
  2
*D20
 10
-154.717596822132
 20
25.37660009231135
 30
0.0
 11
-158.467596822132
 21
5.81604442178354
 31
0.0
 70
    32
  1
<>``)
 71
     5
 42
-1.0
 53
90.0
  3
ME10_DIM_29
100
AcDbAlignedDimension
 13
-178.1092983114338
 23
-14.62339990768865
 33
0.0
 14
-178.1092983114338
 24
25.37660009231135
 34
0.0
 50
90.0
100
AcDbRotatedDimension
  0
DIMENSION
  5
24F
330
1F
100
AcDbEntity
  8
1
100
AcDbDimension
  2
*D21
 10
-186.1092983114338
 20
-27.2309945915511
 30
0.0
 11
-213.250740254751
 21
-23.4809945915511
 31
0.0
 70
    32
  1
16mm (0.630``)
 71
     5
 42
-1.0
 53
0.00013888888889
  3
ME10_DIM_30
100
AcDbAlignedDimension
 13
-170.1092983114338
 23
-6.62339990768865
 33
0.0
 14
-186.1092983114338
 24
-6.62339990768865
 34
0.0
100
AcDbRotatedDimension
  0
DIMENSION
  5
25A
330
1F
100
AcDbEntity
  8
1
100
AcDbDimension
  2
*D22
 10
101.1187293972021
 20
25.37660009231135
 30
0.0
 11
97.36872939720206
 21
6.37660009231135
 31
0.0
 70
    32
  1
<>``)
 71
     5
 42
-1.0
 53
90.0
  3
ME10_DIM_31
100
AcDbAlignedDimension
 13
106.0880661630608
 23
-14.62339990768865
 33
0.0
 14
106.0880661630608
 24
25.37660009231135
 34
0.0
 50
90.0
100
AcDbRotatedDimension
  0
DIMENSION
  5
265
330
1F
100
AcDbEntity
  8
1
100
AcDbDimension
  2
*D23
 10
-127.185402709083
 20
76.37660009231135
 30
0.0
 11
-130.935402709083
 21
5.6338864641225
 31
0.0
 70
    32
  1
<>``)
 71
     5
 42
-1.0
 53
90.0
  3
ME10_DIM_32
100
AcDbAlignedDimension
 13
-176.8592983114338
 23
-65.62339990768865
 33
0.0
 14
-176.8592983114338
 24
76.37660009231135
 34
0.0
 50
90.0
100
AcDbRotatedDimension
  0
INSERT
  5
26C
330
1F
100
AcDbEntity
  8
1
100
AcDbBlockReference
  2
*D24
 10
0.0
 20
0.0
 30
0.0
  0
INSERT
  5
275
330
1F
100
AcDbEntity
  8
1
100
AcDbBlockReference
  2
*D25
 10
0.0
 20
0.0
 30
0.0
  0
INSERT
  5
27E
330
1F
100
AcDbEntity
  8
1
100
AcDbBlockReference
  2
*D26
 10
0.0
 20
0.0
 30
0.0
  0
INSERT
  5
287
330
1F
100
AcDbEntity
  8
1
100
AcDbBlockReference
  2
*D27
 10
0.0
 20
0.0
 30
0.0
  0
INSERT
  5
290
330
1F
100
AcDbEntity
  8
1
100
AcDbBlockReference
  2
*D28
 10
0.0
 20
0.0
 30
0.0
  0
ENDSEC
  0
SECTION
  2
OBJECTS
  0
DICTIONARY
  5
C
330
0
100
AcDbDictionary
281
     1
  3
ACAD_GROUP
350
D
  3
ACAD_LAYOUT
350
1A
  3
ACAD_MATERIAL
350
3B
  3
ACAD_MLEADERSTYLE
350
2B8
  3
ACAD_MLINESTYLE
350
17
  3
ACAD_PLOTSETTINGS
350
19
  3
ACAD_PLOTSTYLENAME
350
E
  3
ACAD_TABLESTYLE
350
2B7
  3
ACAD_VISUALSTYLE
350
2A
  0
DICTIONARY
  5
D
102
{ACAD_REACTORS
330
C
102
}
330
C
100
AcDbDictionary
281
     1
  0
DICTIONARY
  5
1A
102
{ACAD_REACTORS
330
C
102
}
330
C
100
AcDbDictionary
281
     1
  3
Layout1
350
1E
  3
Layout2
350
26
  3
Model
350
22
  0
DICTIONARY
  5
3B
102
{ACAD_REACTORS
330
C
102
}
330
C
100
AcDbDictionary
281
     1
  3
ByBlock
350
3D
  3
ByLayer
350
3C
  3
Global
350
3E
  0
DICTIONARY
  5
2B8
102
{ACAD_REACTORS
330
C
102
}
330
C
100
AcDbDictionary
281
     1
  0
DICTIONARY
  5
17
102
{ACAD_REACTORS
330
C
102
}
330
C
100
AcDbDictionary
281
     1
  3
Standard
350
18
  0
DICTIONARY
  5
19
102
{ACAD_REACTORS
330
C
102
}
330
C
100
AcDbDictionary
281
     1
  0
ACDBDICTIONARYWDFLT
  5
E
102
{ACAD_REACTORS
330
C
102
}
330
C
100
AcDbDictionary
281
     1
  3
Normal
350
F
100
AcDbDictionaryWithDefault
340
F
  0
DICTIONARY
  5
2B7
102
{ACAD_REACTORS
330
C
102
}
330
C
100
AcDbDictionary
281
     1
  0
DICTIONARY
  5
2A
102
{ACAD_REACTORS
330
C
102
}
330
C
100
AcDbDictionary
281
     1
  3
2dWireframe
350
2F
  3
3D Hidden
350
31
  3
3dWireframe
350
30
  3
Basic
350
32
  3
Brighten
350
36
  3
ColorChange
350
3A
  3
Conceptual
350
34
  3
Dim
350
35
  3
Facepattern
350
39
  3
Flat
350
2B
  3
FlatWithEdges
350
2C
  3
Gouraud
350
2D
  3
GouraudWithEdges
350
2E
  3
Linepattern
350
38
  3
Realistic
350
33
  3
Thicken
350
37
  0
LAYOUT
  5
1E
102
{ACAD_REACTORS
330
1A
102
}
330
1A
100
AcDbPlotSettings
  1

  2
none_device
  4

  6

 40
0.0
 41
0.0
 42
0.0
 43
0.0
 44
0.0
 45
0.0
 46
0.0
 47
0.0
 48
0.0
 49
0.0
140
0.0
141
0.0
142
1.0
143
1.0
 70
   688
 72
     0
 73
     0
 74
     5
  7

 75
    16
 76
     0
 77
     2
 78
   300
147
1.0
148
0.0
149
0.0
100
AcDbLayout
  1
Layout1
 70
     1
 71
     1
 10
0.0
 20
0.0
 11
12.0
 21
9.0
 12
0.0
 22
0.0
 32
0.0
 14
1.00000000000000E+20
 24
1.00000000000000E+20
 34
1.00000000000000E+20
 15
-1.00000000000000E+20
 25
-1.00000000000000E+20
 35
-1.00000000000000E+20
146
0.0
 13
0.0
 23
0.0
 33
0.0
 16
1.0
 26
0.0
 36
0.0
 17
0.0
 27
1.0
 37
0.0
 76
     0
330
1B
  0
LAYOUT
  5
26
102
{ACAD_REACTORS
330
1A
102
}
330
1A
100
AcDbPlotSettings
  1

  2
none_device
  4

  6

 40
0.0
 41
0.0
 42
0.0
 43
0.0
 44
0.0
 45
0.0
 46
0.0
 47
0.0
 48
0.0
 49
0.0
140
0.0
141
0.0
142
1.0
143
1.0
 70
   688
 72
     0
 73
     0
 74
     5
  7

 75
    16
 76
     0
 77
     2
 78
   300
147
1.0
148
0.0
149
0.0
100
AcDbLayout
  1
Layout2
 70
     1
 71
     2
 10
0.0
 20
0.0
 11
0.0
 21
0.0
 12
0.0
 22
0.0
 32
0.0
 14
0.0
 24
0.0
 34
0.0
 15
0.0
 25
0.0
 35
0.0
146
0.0
 13
0.0
 23
0.0
 33
0.0
 16
1.0
 26
0.0
 36
0.0
 17
0.0
 27
1.0
 37
0.0
 76
     0
330
23
  0
LAYOUT
  5
22
102
{ACAD_REACTORS
330
1A
102
}
330
1A
100
AcDbPlotSettings
  1

  2
none_device
  4

  6

 40
0.0
 41
0.0
 42
0.0
 43
0.0
 44
0.0
 45
0.0
 46
0.0
 47
0.0
 48
0.0
 49
0.0
140
0.0
141
0.0
142
1.0
143
1.0
 70
  1712
 72
     0
 73
     0
 74
     0
  7

 75
     0
 76
     0
 77
     2
 78
   300
147
1.0
148
0.0
149
0.0
100
AcDbLayout
  1
Model
 70
     1
 71
     0
 10
0.0
 20
0.0
 11
12.0
 21
9.0
 12
0.0
 22
0.0
 32
0.0
 14
-232.2393022460602
 24
-126.491625468493
 34
0.0
 15
223.384289035212
 25
110.7942469044056
 35
0.0
146
0.0
 13
0.0
 23
0.0
 33
0.0
 16
1.0
 26
0.0
 36
0.0
 17
0.0
 27
1.0
 37
0.0
 76
     0
330
1F
331
29
  0
MATERIAL
  5
3D
102
{ACAD_REACTORS
330
3B
102
}
102
{ACAD_XDICTIONARY
360
2B3
102
}
330
3B
100
AcDbMaterial
  1
ByBlock
  0
MATERIAL
  5
3C
102
{ACAD_REACTORS
330
3B
102
}
102
{ACAD_XDICTIONARY
360
2B1
102
}
330
3B
100
AcDbMaterial
  1
ByLayer
  0
MATERIAL
  5
3E
102
{ACAD_REACTORS
330
3B
102
}
102
{ACAD_XDICTIONARY
360
2B5
102
}
330
3B
100
AcDbMaterial
  1
Global
  0
MLINESTYLE
  5
18
102
{ACAD_REACTORS
330
17
102
}
330
17
100
AcDbMlineStyle
  2
Standard
 70
     0
  3

 62
   256
 51
90.0
 52
90.0
 71
     2
 49
0.5
 62
   256
  6
BYLAYER
 49
-0.5
 62
   256
  6
BYLAYER
  0
ACDBPLACEHOLDER
  5
F
102
{ACAD_REACTORS
330
E
102
}
330
E
  0
VISUALSTYLE
  5
2F
102
{ACAD_REACTORS
330
2A
102
}
102
{ACAD_XDICTIONARY
360
299
102
}
330
2A
100
AcDbVisualStyle
  2
2dWireframe
 70
     4
 71
     0
 72
     2
 73
     0
 90
        0
 40
-0.6
 41
-30.0
 62
     5
 63
     7
421
 16777215
 74
     1
 91
        4
 64
     7
 65
   257
 75
     1
175
     1
 42
1.0
 92
        0
 66
   257
 43
1.0
 76
     1
 77
     6
 78
     2
 67
     7
 79
     5
170
     0
171
     0
290
     0
174
     0
 93
        1
 44
0.0
173
     0
291
     0
 45
0.0
1001
ACAD
1000
AcDbSavedByObjectVersion
1070
     0
  0
VISUALSTYLE
  5
31
102
{ACAD_REACTORS
330
2A
102
}
102
{ACAD_XDICTIONARY
360
29D
102
}
330
2A
100
AcDbVisualStyle
  2
3D Hidden
 70
     6
 71
     1
 72
     2
 73
     2
 90
        0
 40
-0.6
 41
-30.0
 62
     5
 63
     7
421
 16777215
 74
     2
 91
        2
 64
     7
 65
   257
 75
     2
175
     1
 42
40.0
 92
        0
 66
   257
 43
1.0
 76
     1
 77
     6
 78
     2
 67
     7
 79
     3
170
     0
171
     0
290
     0
174
     0
 93
        1
 44
0.0
173
     0
291
     0
 45
0.0
1001
ACAD
1000
AcDbSavedByObjectVersion
1070
     0
  0
VISUALSTYLE
  5
30
102
{ACAD_REACTORS
330
2A
102
}
102
{ACAD_XDICTIONARY
360
29B
102
}
330
2A
100
AcDbVisualStyle
  2
3dWireframe
 70
     5
 71
     0
 72
     2
 73
     0
 90
        0
 40
-0.6
 41
-30.0
 62
     5
 63
     7
421
 16777215
 74
     1
 91
        4
 64
     7
 65
   257
 75
     1
175
     1
 42
1.0
 92
        0
 66
   257
 43
1.0
 76
     1
 77
     6
 78
     2
 67
     7
 79
     5
170
     0
171
     0
290
     0
174
     0
 93
        1
 44
0.0
173
     0
291
     0
 45
0.0
1001
ACAD
1000
AcDbSavedByObjectVersion
1070
     0
  0
VISUALSTYLE
  5
32
102
{ACAD_REACTORS
330
2A
102
}
102
{ACAD_XDICTIONARY
360
29F
102
}
330
2A
100
AcDbVisualStyle
  2
Basic
 70
     7
 71
     1
 72
     0
 73
     1
 90
        0
 40
-0.6
 41
-30.0
 62
     5
 63
     7
421
 16777215
 74
     0
 91
        4
 64
     7
 65
   257
 75
     1
175
     1
 42
1.0
 92
        8
 66
     7
 43
1.0
 76
     1
 77
     6
 78
     2
 67
     7
 79
     5
170
     0
171
     0
290
     0
174
     0
 93
        1
 44
0.0
173
     0
291
     1
 45
0.0
1001
ACAD
1000
AcDbSavedByObjectVersion
1070
     0
  0
VISUALSTYLE
  5
36
102
{ACAD_REACTORS
330
2A
102
}
102
{ACAD_XDICTIONARY
360
2A7
102
}
330
2A
100
AcDbVisualStyle
  2
Brighten
 70
    12
 71
     2
 72
     2
 73
     0
 90
        0
 40
-0.6
 41
-30.0
 62
     5
 63
     7
421
 16777215
 74
     1
 91
        4
 64
     7
 65
   257
 75
     1
175
     1
 42
1.0
 92
        8
 66
     7
 43
1.0
 76
     1
 77
     6
 78
     2
 67
     7
 79
     5
170
     0
171
     0
290
     0
174
     0
 93
        1
 44
50.0
173
     0
291
     1
 45
0.0
1001
ACAD
1000
AcDbSavedByObjectVersion
1070
     0
  0
VISUALSTYLE
  5
3A
102
{ACAD_REACTORS
330
2A
102
}
102
{ACAD_XDICTIONARY
360
2AF
102
}
330
2A
100
AcDbVisualStyle
  2
ColorChange
 70
    16
 71
     2
 72
     2
 73
     3
 90
        0
 40
-0.6
 41
-30.0
 62
     5
 63
     8
421
  8421504
 74
     1
 91
        4
 64
     7
 65
   257
 75
     1
175
     1
 42
1.0
 92
        8
 66
     8
424
  8421504
 43
1.0
 76
     1
 77
     6
 78
     2
 67
     7
 79
     5
170
     0
171
     0
290
     0
174
     0
 93
        1
 44
0.0
173
     0
291
     1
 45
0.0
1001
ACAD
1000
AcDbSavedByObjectVersion
1070
     0
  0
VISUALSTYLE
  5
34
102
{ACAD_REACTORS
330
2A
102
}
102
{ACAD_XDICTIONARY
360
2A3
102
}
330
2A
100
AcDbVisualStyle
  2
Conceptual
 70
     9
 71
     3
 72
     2
 73
     0
 90
        0
 40
-0.6
 41
-30.0
 62
     5
 63
     7
421
 16777215
 74
     2
 91
        2
 64
     7
 65
   257
 75
     1
175
     1
 42
40.0
 92
        8
 66
     7
 43
1.0
 76
     1
 77
     6
 78
     2
 67
     7
 79
     3
170
     0
171
     0
290
     0
174
     0
 93
        1
 44
0.0
173
     0
291
     0
 45
0.0
1001
ACAD
1000
AcDbSavedByObjectVersion
1070
     0
  0
VISUALSTYLE
  5
35
102
{ACAD_REACTORS
330
2A
102
}
102
{ACAD_XDICTIONARY
360
2A5
102
}
330
2A
100
AcDbVisualStyle
  2
Dim
 70
    11
 71
     2
 72
     2
 73
     0
 90
        0
 40
-0.6
 41
-30.0
 62
     5
 63
     7
421
 16777215
 74
     1
 91
        4
 64
     7
 65
   257
 75
     1
175
     1
 42
1.0
 92
        8
 66
     7
 43
1.0
 76
     1
 77
     6
 78
     2
 67
     7
 79
     5
170
     0
171
     0
290
     0
174
     0
 93
        1
 44
-50.0
173
     0
291
     1
 45
0.0
1001
ACAD
1000
AcDbSavedByObjectVersion
1070
     0
  0
VISUALSTYLE
  5
39
102
{ACAD_REACTORS
330
2A
102
}
102
{ACAD_XDICTIONARY
360
2AD
102
}
330
2A
100
AcDbVisualStyle
  2
Facepattern
 70
    15
 71
     2
 72
     2
 73
     0
 90
        0
 40
-0.6
 41
-30.0
 62
     5
 63
     7
421
 16777215
 74
     1
 91
        4
 64
     7
 65
   257
 75
     1
175
     1
 42
1.0
 92
        8
 66
     7
 43
1.0
 76
     1
 77
     6
 78
     2
 67
     7
 79
     5
170
     0
171
     0
290
     0
174
     0
 93
        1
 44
0.0
173
     0
291
     1
 45
0.0
1001
ACAD
1000
AcDbSavedByObjectVersion
1070
     0
  0
VISUALSTYLE
  5
2B
102
{ACAD_REACTORS
330
2A
102
}
102
{ACAD_XDICTIONARY
360
291
102
}
330
2A
100
AcDbVisualStyle
  2
Flat
 70
     0
 71
     2
 72
     1
 73
     1
 90
        2
 40
-0.6
 41
30.0
 62
     5
 63
     7
421
 16777215
 74
     0
 91
        4
 64
     7
 65
   257
 75
     1
175
     1
 42
1.0
 92
        8
 66
     7
 43
1.0
 76
     1
 77
     6
 78
     2
 67
     7
 79
     5
170
     0
171
     0
290
     0
174
     0
 93
       13
 44
0.0
173
     0
291
     1
 45
0.0
1001
ACAD
1000
AcDbSavedByObjectVersion
1070
     0
  0
VISUALSTYLE
  5
2C
102
{ACAD_REACTORS
330
2A
102
}
102
{ACAD_XDICTIONARY
360
293
102
}
330
2A
100
AcDbVisualStyle
  2
FlatWithEdges
 70
     1
 71
     2
 72
     1
 73
     1
 90
        2
 40
-0.6
 41
30.0
 62
     5
 63
     7
421
 16777215
 74
     1
 91
        4
 64
     7
 65
   257
 75
     1
175
     1
 42
1.0
 92
        0
 66
   257
 43
1.0
 76
     1
 77
     6
 78
     2
 67
     7
 79
     5
170
     0
171
     0
290
     0
174
     0
 93
       13
 44
0.0
173
     0
291
     1
 45
0.0
1001
ACAD
1000
AcDbSavedByObjectVersion
1070
     0
  0
VISUALSTYLE
  5
2D
102
{ACAD_REACTORS
330
2A
102
}
102
{ACAD_XDICTIONARY
360
295
102
}
330
2A
100
AcDbVisualStyle
  2
Gouraud
 70
     2
 71
     2
 72
     2
 73
     1
 90
        2
 40
-0.6
 41
30.0
 62
     5
 63
     7
421
 16777215
 74
     0
 91
        4
 64
     7
 65
   257
 75
     1
175
     1
 42
1.0
 92
        0
 66
     7
 43
1.0
 76
     1
 77
     6
 78
     2
 67
     7
 79
     5
170
     0
171
     0
290
     0
174
     0
 93
       13
 44
0.0
173
     0
291
     1
 45
0.0
1001
ACAD
1000
AcDbSavedByObjectVersion
1070
     0
  0
VISUALSTYLE
  5
2E
102
{ACAD_REACTORS
330
2A
102
}
102
{ACAD_XDICTIONARY
360
297
102
}
330
2A
100
AcDbVisualStyle
  2
GouraudWithEdges
 70
     3
 71
     2
 72
     2
 73
     1
 90
        2
 40
-0.6
 41
30.0
 62
     5
 63
     7
421
 16777215
 74
     1
 91
        4
 64
     7
 65
   257
 75
     1
175
     1
 42
1.0
 92
        0
 66
   257
 43
1.0
 76
     1
 77
     6
 78
     2
 67
     7
 79
     5
170
     0
171
     0
290
     0
174
     0
 93
       13
 44
0.0
173
     0
291
     1
 45
0.0
1001
ACAD
1000
AcDbSavedByObjectVersion
1070
     0
  0
VISUALSTYLE
  5
38
102
{ACAD_REACTORS
330
2A
102
}
102
{ACAD_XDICTIONARY
360
2AB
102
}
330
2A
100
AcDbVisualStyle
  2
Linepattern
 70
    14
 71
     2
 72
     2
 73
     0
 90
        0
 40
-0.6
 41
-30.0
 62
     5
 63
     7
421
 16777215
 74
     1
 91
        4
 64
     7
 65
   257
 75
     7
175
     7
 42
1.0
 92
        8
 66
     7
 43
1.0
 76
     1
 77
     6
 78
     2
 67
     7
 79
     5
170
     0
171
     0
290
     0
174
     0
 93
        1
 44
0.0
173
     0
291
     1
 45
0.0
1001
ACAD
1000
AcDbSavedByObjectVersion
1070
     0
  0
VISUALSTYLE
  5
33
102
{ACAD_REACTORS
330
2A
102
}
102
{ACAD_XDICTIONARY
360
2A1
102
}
330
2A
100
AcDbVisualStyle
  2
Realistic
 70
     8
 71
     2
 72
     2
 73
     0
 90
        0
 40
-0.6
 41
-30.0
 62
     5
 63
     7
421
 16777215
 74
     1
 91
        0
 64
     7
 65
   257
 75
     1
175
     1
 42
1.0
 92
        8
 66
     8
424
  7895160
 43
1.0
 76
     1
 77
     6
 78
     2
 67
     7
 79
     5
170
     0
171
     0
290
     0
174
     0
 93
       13
 44
0.0
173
     0
291
     0
 45
0.0
1001
ACAD
1000
AcDbSavedByObjectVersion
1070
     0
  0
VISUALSTYLE
  5
37
102
{ACAD_REACTORS
330
2A
102
}
102
{ACAD_XDICTIONARY
360
2A9
102
}
330
2A
100
AcDbVisualStyle
  2
Thicken
 70
    13
 71
     2
 72
     2
 73
     0
 90
        0
 40
-0.6
 41
-30.0
 62
     5
 63
     7
421
 16777215
 74
     1
 91
        4
 64
     7
 65
   257
 75
     1
175
     1
 42
1.0
 92
       12
 66
     7
 43
1.0
 76
     1
 77
     6
 78
     2
 67
     7
 79
     5
170
     0
171
     0
290
     0
174
     0
 93
        1
 44
0.0
173
     0
291
     1
 45
0.0
1001
ACAD
1000
AcDbSavedByObjectVersion
1070
     0
  0
DICTIONARY
  5
2B3
330
3D
100
AcDbDictionary
280
     1
281
     1
  3
ACAD_XREC_ROUNDTRIP
360
2B4
  0
DICTIONARY
  5
2B1
330
3C
100
AcDbDictionary
280
     1
281
     1
  3
ACAD_XREC_ROUNDTRIP
360
2B2
  0
DICTIONARY
  5
2B5
330
3E
100
AcDbDictionary
280
     1
281
     1
  3
ACAD_XREC_ROUNDTRIP
360
2B6
  0
DICTIONARY
  5
299
330
2F
100
AcDbDictionary
280
     1
281
     1
  3
ACAD_XREC_ROUNDTRIP
360
29A
  0
DICTIONARY
  5
29D
330
31
100
AcDbDictionary
280
     1
281
     1
  3
ACAD_XREC_ROUNDTRIP
360
29E
  0
DICTIONARY
  5
29B
330
30
100
AcDbDictionary
280
     1
281
     1
  3
ACAD_XREC_ROUNDTRIP
360
29C
  0
DICTIONARY
  5
29F
330
32
100
AcDbDictionary
280
     1
281
     1
  3
ACAD_XREC_ROUNDTRIP
360
2A0
  0
DICTIONARY
  5
2A7
330
36
100
AcDbDictionary
280
     1
281
     1
  3
ACAD_XREC_ROUNDTRIP
360
2A8
  0
DICTIONARY
  5
2AF
330
3A
100
AcDbDictionary
280
     1
281
     1
  3
ACAD_XREC_ROUNDTRIP
360
2B0
  0
DICTIONARY
  5
2A3
330
34
100
AcDbDictionary
280
     1
281
     1
  3
ACAD_XREC_ROUNDTRIP
360
2A4
  0
DICTIONARY
  5
2A5
330
35
100
AcDbDictionary
280
     1
281
     1
  3
ACAD_XREC_ROUNDTRIP
360
2A6
  0
DICTIONARY
  5
2AD
330
39
100
AcDbDictionary
280
     1
281
     1
  3
ACAD_XREC_ROUNDTRIP
360
2AE
  0
DICTIONARY
  5
291
330
2B
100
AcDbDictionary
280
     1
281
     1
  3
ACAD_XREC_ROUNDTRIP
360
292
  0
DICTIONARY
  5
293
330
2C
100
AcDbDictionary
280
     1
281
     1
  3
ACAD_XREC_ROUNDTRIP
360
294
  0
DICTIONARY
  5
295
330
2D
100
AcDbDictionary
280
     1
281
     1
  3
ACAD_XREC_ROUNDTRIP
360
296
  0
DICTIONARY
  5
297
330
2E
100
AcDbDictionary
280
     1
281
     1
  3
ACAD_XREC_ROUNDTRIP
360
298
  0
DICTIONARY
  5
2AB
330
38
100
AcDbDictionary
280
     1
281
     1
  3
ACAD_XREC_ROUNDTRIP
360
2AC
  0
DICTIONARY
  5
2A1
330
33
100
AcDbDictionary
280
     1
281
     1
  3
ACAD_XREC_ROUNDTRIP
360
2A2
  0
DICTIONARY
  5
2A9
330
37
100
AcDbDictionary
280
     1
281
     1
  3
ACAD_XREC_ROUNDTRIP
360
2AA
  0
XRECORD
  5
2B4
102
{ACAD_REACTORS
330
2B3
102
}
330
2B3
100
AcDbXrecord
280
     1
102
MATERIAL
148
0.0
149
0.0
149
0.0
 93
        0
 94
      127
282
     0
 72
     1
 77
     1
171
     1
175
     1
179
     1
273
     0
  0
XRECORD
  5
2B2
102
{ACAD_REACTORS
330
2B1
102
}
330
2B1
100
AcDbXrecord
280
     1
102
MATERIAL
148
0.0
149
0.0
149
0.0
 93
        0
 94
      127
282
     0
 72
     1
 77
     1
171
     1
175
     1
179
     1
273
     0
  0
XRECORD
  5
2B6
102
{ACAD_REACTORS
330
2B5
102
}
330
2B5
100
AcDbXrecord
280
     1
102
MATERIAL
148
0.0
149
0.0
149
0.0
 93
        0
 94
      127
282
     0
 72
     1
 77
     1
171
     1
175
     1
179
     1
273
     0
  0
XRECORD
  5
29A
102
{ACAD_REACTORS
330
299
102
}
330
299
100
AcDbXrecord
280
     1
102
RTVSPropertyOp0
 70
     1
102
RTVSPropertyOp1
 70
     1
102
RTVSPropertyOp2
 70
     1
102
RTVSPropertyOp3
 70
     1
102
RTVSPropertyOp4
 70
     1
102
RTVSPropertyOp5
 70
     1
102
RTVSPropertyOp6
 70
     1
102
RTVSPropertyOp7
 70
     1
102
RTVSPropertyOp8
 70
     1
102
RTVSPropertyOp9
 70
     1
102
RTVSPropertyOp10
 70
     1
102
RTVSPropertyOp11
 70
     1
102
RTVSPropertyOp12
 70
     1
102
RTVSPropertyOp13
 70
     1
102
RTVSPropertyOp14
 70
     1
102
RTVSPropertyOp15
 70
     1
102
RTVSPropertyOp16
 70
     1
102
RTVSPropertyOp17
 70
     1
102
RTVSPropertyOp18
 70
     1
102
RTVSPropertyOp19
 70
     1
102
RTVSPropertyOp20
 70
     1
102
RTVSPropertyOp21
 70
     1
102
RTVSPropertyOp22
 70
     1
102
RTVSPropertyOp23
 70
     1
102
RTVSPropertyOp24
 70
     1
102
RTVSPropertyOp25
 70
     1
102
RTVSPropertyOp26
 70
     1
102
RTVSPropertyOp27
 70
     1
102
RTVSPropertyOp28
 70
     1
102
RTVSPropertyOp29
 70
     1
102
RTVSPropertyOp30
 70
     1
102
RTVSPropertyOp31
 70
     1
102
RTVSPropertyOp32
 70
     1
  0
XRECORD
  5
29E
102
{ACAD_REACTORS
330
29D
102
}
330
29D
100
AcDbXrecord
280
     1
102
RTVSPropertyOp0
 70
     1
102
RTVSPropertyOp1
 70
     1
102
RTVSPropertyOp2
 70
     1
102
RTVSPropertyOp3
 70
     1
102
RTVSPropertyOp4
 70
     1
102
RTVSPropertyOp5
 70
     1
102
RTVSPropertyOp6
 70
     1
102
RTVSPropertyOp7
 70
     1
102
RTVSPropertyOp8
 70
     1
102
RTVSPropertyOp9
 70
     1
102
RTVSPropertyOp10
 70
     1
102
RTVSPropertyOp11
 70
     1
102
RTVSPropertyOp12
 70
     1
102
RTVSPropertyOp13
 70
     1
102
RTVSPropertyOp14
 70
     1
102
RTVSPropertyOp15
 70
     1
102
RTVSPropertyOp16
 70
     1
102
RTVSPropertyOp17
 70
     1
102
RTVSPropertyOp18
 70
     1
102
RTVSPropertyOp19
 70
     1
102
RTVSPropertyOp20
 70
     1
102
RTVSPropertyOp21
 70
     1
102
RTVSPropertyOp22
 70
     1
102
RTVSPropertyOp23
 70
     1
102
RTVSPropertyOp24
 70
     1
102
RTVSPropertyOp25
 70
     1
102
RTVSPropertyOp26
 70
     1
102
RTVSPropertyOp27
 70
     1
102
RTVSPropertyOp28
 70
     1
102
RTVSPropertyOp29
 70
     1
102
RTVSPropertyOp30
 70
     1
102
RTVSPropertyOp31
 70
     1
102
RTVSPropertyOp32
 70
     1
  0
XRECORD
  5
29C
102
{ACAD_REACTORS
330
29B
102
}
330
29B
100
AcDbXrecord
280
     1
102
RTVSPropertyOp0
 70
     1
102
RTVSPropertyOp1
 70
     1
102
RTVSPropertyOp2
 70
     1
102
RTVSPropertyOp3
 70
     1
102
RTVSPropertyOp4
 70
     1
102
RTVSPropertyOp5
 70
     1
102
RTVSPropertyOp6
 70
     1
102
RTVSPropertyOp7
 70
     1
102
RTVSPropertyOp8
 70
     1
102
RTVSPropertyOp9
 70
     1
102
RTVSPropertyOp10
 70
     1
102
RTVSPropertyOp11
 70
     1
102
RTVSPropertyOp12
 70
     1
102
RTVSPropertyOp13
 70
     1
102
RTVSPropertyOp14
 70
     1
102
RTVSPropertyOp15
 70
     1
102
RTVSPropertyOp16
 70
     1
102
RTVSPropertyOp17
 70
     1
102
RTVSPropertyOp18
 70
     1
102
RTVSPropertyOp19
 70
     1
102
RTVSPropertyOp20
 70
     1
102
RTVSPropertyOp21
 70
     1
102
RTVSPropertyOp22
 70
     1
102
RTVSPropertyOp23
 70
     1
102
RTVSPropertyOp24
 70
     1
102
RTVSPropertyOp25
 70
     1
102
RTVSPropertyOp26
 70
     1
102
RTVSPropertyOp27
 70
     1
102
RTVSPropertyOp28
 70
     1
102
RTVSPropertyOp29
 70
     1
102
RTVSPropertyOp30
 70
     1
102
RTVSPropertyOp31
 70
     1
102
RTVSPropertyOp32
 70
     1
  0
XRECORD
  5
2A0
102
{ACAD_REACTORS
330
29F
102
}
330
29F
100
AcDbXrecord
280
     1
102
RTVSPropertyOp0
 70
     1
102
RTVSPropertyOp1
 70
     1
102
RTVSPropertyOp2
 70
     1
102
RTVSPropertyOp3
 70
     1
102
RTVSPropertyOp4
 70
     1
102
RTVSPropertyOp5
 70
     1
102
RTVSPropertyOp6
 70
     1
102
RTVSPropertyOp7
 70
     1
102
RTVSPropertyOp8
 70
     1
102
RTVSPropertyOp9
 70
     1
102
RTVSPropertyOp10
 70
     1
102
RTVSPropertyOp11
 70
     1
102
RTVSPropertyOp12
 70
     1
102
RTVSPropertyOp13
 70
     1
102
RTVSPropertyOp14
 70
     1
102
RTVSPropertyOp15
 70
     1
102
RTVSPropertyOp16
 70
     1
102
RTVSPropertyOp17
 70
     1
102
RTVSPropertyOp18
 70
     1
102
RTVSPropertyOp19
 70
     1
102
RTVSPropertyOp20
 70
     1
102
RTVSPropertyOp21
 70
     1
102
RTVSPropertyOp22
 70
     1
102
RTVSPropertyOp23
 70
     1
102
RTVSPropertyOp24
 70
     1
102
RTVSPropertyOp25
 70
     1
102
RTVSPropertyOp26
 70
     1
102
RTVSPropertyOp27
 70
     1
102
RTVSPropertyOp28
 70
     1
102
RTVSPropertyOp29
 70
     1
102
RTVSPropertyOp30
 70
     1
102
RTVSPropertyOp31
 70
     1
102
RTVSPropertyOp32
 70
     1
  0
XRECORD
  5
2A8
102
{ACAD_REACTORS
330
2A7
102
}
330
2A7
100
AcDbXrecord
280
     1
102
RTVSPropertyOp0
 70
     1
102
RTVSPropertyOp1
 70
     1
102
RTVSPropertyOp2
 70
     1
102
RTVSPropertyOp3
 70
     1
102
RTVSPropertyOp4
 70
     1
102
RTVSPropertyOp5
 70
     1
102
RTVSPropertyOp6
 70
     1
102
RTVSPropertyOp7
 70
     1
102
RTVSPropertyOp8
 70
     1
102
RTVSPropertyOp9
 70
     1
102
RTVSPropertyOp10
 70
     1
102
RTVSPropertyOp11
 70
     1
102
RTVSPropertyOp12
 70
     1
102
RTVSPropertyOp13
 70
     1
102
RTVSPropertyOp14
 70
     1
102
RTVSPropertyOp15
 70
     1
102
RTVSPropertyOp16
 70
     1
102
RTVSPropertyOp17
 70
     1
102
RTVSPropertyOp18
 70
     1
102
RTVSPropertyOp19
 70
     1
102
RTVSPropertyOp20
 70
     1
102
RTVSPropertyOp21
 70
     1
102
RTVSPropertyOp22
 70
     1
102
RTVSPropertyOp23
 70
     1
102
RTVSPropertyOp24
 70
     1
102
RTVSPropertyOp25
 70
     1
102
RTVSPropertyOp26
 70
     1
102
RTVSPropertyOp27
 70
     1
102
RTVSPropertyOp28
 70
     1
102
RTVSPropertyOp29
 70
     1
102
RTVSPropertyOp30
 70
     1
102
RTVSPropertyOp31
 70
     1
102
RTVSPropertyOp32
 70
     1
  0
XRECORD
  5
2B0
102
{ACAD_REACTORS
330
2AF
102
}
330
2AF
100
AcDbXrecord
280
     1
102
RTVSPropertyOp0
 70
     1
102
RTVSPropertyOp1
 70
     1
102
RTVSPropertyOp2
 70
     1
102
RTVSPropertyOp3
 70
     1
102
RTVSPropertyOp4
 70
     1
102
RTVSPropertyOp5
 70
     1
102
RTVSPropertyOp6
 70
     1
102
RTVSPropertyOp7
 70
     1
102
RTVSPropertyOp8
 70
     1
102
RTVSPropertyOp9
 70
     1
102
RTVSPropertyOp10
 70
     1
102
RTVSPropertyOp11
 70
     1
102
RTVSPropertyOp12
 70
     1
102
RTVSPropertyOp13
 70
     1
102
RTVSPropertyOp14
 70
     1
102
RTVSPropertyOp15
 70
     1
102
RTVSPropertyOp16
 70
     1
102
RTVSPropertyOp17
 70
     1
102
RTVSPropertyOp18
 70
     1
102
RTVSPropertyOp19
 70
     1
102
RTVSPropertyOp20
 70
     1
102
RTVSPropertyOp21
 70
     1
102
RTVSPropertyOp22
 70
     1
102
RTVSPropertyOp23
 70
     1
102
RTVSPropertyOp24
 70
     1
102
RTVSPropertyOp25
 70
     1
102
RTVSPropertyOp26
 70
     1
102
RTVSPropertyOp27
 70
     1
102
RTVSPropertyOp28
 70
     1
102
RTVSPropertyOp29
 70
     1
102
RTVSPropertyOp30
 70
     1
102
RTVSPropertyOp31
 70
     1
102
RTVSPropertyOp32
 70
     1
  0
XRECORD
  5
2A4
102
{ACAD_REACTORS
330
2A3
102
}
330
2A3
100
AcDbXrecord
280
     1
102
RTVSPropertyOp0
 70
     1
102
RTVSPropertyOp1
 70
     1
102
RTVSPropertyOp2
 70
     1
102
RTVSPropertyOp3
 70
     1
102
RTVSPropertyOp4
 70
     1
102
RTVSPropertyOp5
 70
     1
102
RTVSPropertyOp6
 70
     1
102
RTVSPropertyOp7
 70
     1
102
RTVSPropertyOp8
 70
     1
102
RTVSPropertyOp9
 70
     1
102
RTVSPropertyOp10
 70
     1
102
RTVSPropertyOp11
 70
     1
102
RTVSPropertyOp12
 70
     1
102
RTVSPropertyOp13
 70
     1
102
RTVSPropertyOp14
 70
     1
102
RTVSPropertyOp15
 70
     1
102
RTVSPropertyOp16
 70
     1
102
RTVSPropertyOp17
 70
     1
102
RTVSPropertyOp18
 70
     1
102
RTVSPropertyOp19
 70
     1
102
RTVSPropertyOp20
 70
     1
102
RTVSPropertyOp21
 70
     1
102
RTVSPropertyOp22
 70
     1
102
RTVSPropertyOp23
 70
     1
102
RTVSPropertyOp24
 70
     1
102
RTVSPropertyOp25
 70
     1
102
RTVSPropertyOp26
 70
     1
102
RTVSPropertyOp27
 70
     1
102
RTVSPropertyOp28
 70
     1
102
RTVSPropertyOp29
 70
     1
102
RTVSPropertyOp30
 70
     1
102
RTVSPropertyOp31
 70
     1
102
RTVSPropertyOp32
 70
     1
  0
XRECORD
  5
2A6
102
{ACAD_REACTORS
330
2A5
102
}
330
2A5
100
AcDbXrecord
280
     1
102
RTVSPropertyOp0
 70
     1
102
RTVSPropertyOp1
 70
     1
102
RTVSPropertyOp2
 70
     1
102
RTVSPropertyOp3
 70
     1
102
RTVSPropertyOp4
 70
     1
102
RTVSPropertyOp5
 70
     1
102
RTVSPropertyOp6
 70
     1
102
RTVSPropertyOp7
 70
     1
102
RTVSPropertyOp8
 70
     1
102
RTVSPropertyOp9
 70
     1
102
RTVSPropertyOp10
 70
     1
102
RTVSPropertyOp11
 70
     1
102
RTVSPropertyOp12
 70
     1
102
RTVSPropertyOp13
 70
     1
102
RTVSPropertyOp14
 70
     1
102
RTVSPropertyOp15
 70
     1
102
RTVSPropertyOp16
 70
     1
102
RTVSPropertyOp17
 70
     1
102
RTVSPropertyOp18
 70
     1
102
RTVSPropertyOp19
 70
     1
102
RTVSPropertyOp20
 70
     1
102
RTVSPropertyOp21
 70
     1
102
RTVSPropertyOp22
 70
     1
102
RTVSPropertyOp23
 70
     1
102
RTVSPropertyOp24
 70
     1
102
RTVSPropertyOp25
 70
     1
102
RTVSPropertyOp26
 70
     1
102
RTVSPropertyOp27
 70
     1
102
RTVSPropertyOp28
 70
     1
102
RTVSPropertyOp29
 70
     1
102
RTVSPropertyOp30
 70
     1
102
RTVSPropertyOp31
 70
     1
102
RTVSPropertyOp32
 70
     1
  0
XRECORD
  5
2AE
102
{ACAD_REACTORS
330
2AD
102
}
330
2AD
100
AcDbXrecord
280
     1
102
RTVSPropertyOp0
 70
     1
102
RTVSPropertyOp1
 70
     1
102
RTVSPropertyOp2
 70
     1
102
RTVSPropertyOp3
 70
     1
102
RTVSPropertyOp4
 70
     1
102
RTVSPropertyOp5
 70
     1
102
RTVSPropertyOp6
 70
     1
102
RTVSPropertyOp7
 70
     1
102
RTVSPropertyOp8
 70
     1
102
RTVSPropertyOp9
 70
     1
102
RTVSPropertyOp10
 70
     1
102
RTVSPropertyOp11
 70
     1
102
RTVSPropertyOp12
 70
     1
102
RTVSPropertyOp13
 70
     1
102
RTVSPropertyOp14
 70
     1
102
RTVSPropertyOp15
 70
     1
102
RTVSPropertyOp16
 70
     1
102
RTVSPropertyOp17
 70
     1
102
RTVSPropertyOp18
 70
     1
102
RTVSPropertyOp19
 70
     1
102
RTVSPropertyOp20
 70
     1
102
RTVSPropertyOp21
 70
     1
102
RTVSPropertyOp22
 70
     1
102
RTVSPropertyOp23
 70
     1
102
RTVSPropertyOp24
 70
     1
102
RTVSPropertyOp25
 70
     1
102
RTVSPropertyOp26
 70
     1
102
RTVSPropertyOp27
 70
     1
102
RTVSPropertyOp28
 70
     1
102
RTVSPropertyOp29
 70
     1
102
RTVSPropertyOp30
 70
     1
102
RTVSPropertyOp31
 70
     1
102
RTVSPropertyOp32
 70
     1
  0
XRECORD
  5
292
102
{ACAD_REACTORS
330
291
102
}
330
291
100
AcDbXrecord
280
     1
102
RTVSPropertyOp0
 70
     1
102
RTVSPropertyOp1
 70
     1
102
RTVSPropertyOp2
 70
     1
102
RTVSPropertyOp3
 70
     1
102
RTVSPropertyOp4
 70
     1
102
RTVSPropertyOp5
 70
     1
102
RTVSPropertyOp6
 70
     1
102
RTVSPropertyOp7
 70
     1
102
RTVSPropertyOp8
 70
     1
102
RTVSPropertyOp9
 70
     1
102
RTVSPropertyOp10
 70
     1
102
RTVSPropertyOp11
 70
     1
102
RTVSPropertyOp12
 70
     1
102
RTVSPropertyOp13
 70
     1
102
RTVSPropertyOp14
 70
     1
102
RTVSPropertyOp15
 70
     1
102
RTVSPropertyOp16
 70
     1
102
RTVSPropertyOp17
 70
     1
102
RTVSPropertyOp18
 70
     1
102
RTVSPropertyOp19
 70
     1
102
RTVSPropertyOp20
 70
     1
102
RTVSPropertyOp21
 70
     1
102
RTVSPropertyOp22
 70
     1
102
RTVSPropertyOp23
 70
     1
102
RTVSPropertyOp24
 70
     1
102
RTVSPropertyOp25
 70
     1
102
RTVSPropertyOp26
 70
     1
102
RTVSPropertyOp27
 70
     1
102
RTVSPropertyOp28
 70
     1
102
RTVSPropertyOp29
 70
     1
102
RTVSPropertyOp30
 70
     1
102
RTVSPropertyOp31
 70
     1
102
RTVSPropertyOp32
 70
     1
  0
XRECORD
  5
294
102
{ACAD_REACTORS
330
293
102
}
330
293
100
AcDbXrecord
280
     1
102
RTVSPropertyOp0
 70
     1
102
RTVSPropertyOp1
 70
     1
102
RTVSPropertyOp2
 70
     1
102
RTVSPropertyOp3
 70
     1
102
RTVSPropertyOp4
 70
     1
102
RTVSPropertyOp5
 70
     1
102
RTVSPropertyOp6
 70
     1
102
RTVSPropertyOp7
 70
     1
102
RTVSPropertyOp8
 70
     1
102
RTVSPropertyOp9
 70
     1
102
RTVSPropertyOp10
 70
     1
102
RTVSPropertyOp11
 70
     1
102
RTVSPropertyOp12
 70
     1
102
RTVSPropertyOp13
 70
     1
102
RTVSPropertyOp14
 70
     1
102
RTVSPropertyOp15
 70
     1
102
RTVSPropertyOp16
 70
     1
102
RTVSPropertyOp17
 70
     1
102
RTVSPropertyOp18
 70
     1
102
RTVSPropertyOp19
 70
     1
102
RTVSPropertyOp20
 70
     1
102
RTVSPropertyOp21
 70
     1
102
RTVSPropertyOp22
 70
     1
102
RTVSPropertyOp23
 70
     1
102
RTVSPropertyOp24
 70
     1
102
RTVSPropertyOp25
 70
     1
102
RTVSPropertyOp26
 70
     1
102
RTVSPropertyOp27
 70
     1
102
RTVSPropertyOp28
 70
     1
102
RTVSPropertyOp29
 70
     1
102
RTVSPropertyOp30
 70
     1
102
RTVSPropertyOp31
 70
     1
102
RTVSPropertyOp32
 70
     1
  0
XRECORD
  5
296
102
{ACAD_REACTORS
330
295
102
}
330
295
100
AcDbXrecord
280
     1
102
RTVSPropertyOp0
 70
     1
102
RTVSPropertyOp1
 70
     1
102
RTVSPropertyOp2
 70
     1
102
RTVSPropertyOp3
 70
     1
102
RTVSPropertyOp4
 70
     1
102
RTVSPropertyOp5
 70
     1
102
RTVSPropertyOp6
 70
     1
102
RTVSPropertyOp7
 70
     1
102
RTVSPropertyOp8
 70
     1
102
RTVSPropertyOp9
 70
     1
102
RTVSPropertyOp10
 70
     1
102
RTVSPropertyOp11
 70
     1
102
RTVSPropertyOp12
 70
     1
102
RTVSPropertyOp13
 70
     1
102
RTVSPropertyOp14
 70
     1
102
RTVSPropertyOp15
 70
     1
102
RTVSPropertyOp16
 70
     1
102
RTVSPropertyOp17
 70
     1
102
RTVSPropertyOp18
 70
     1
102
RTVSPropertyOp19
 70
     1
102
RTVSPropertyOp20
 70
     1
102
RTVSPropertyOp21
 70
     1
102
RTVSPropertyOp22
 70
     1
102
RTVSPropertyOp23
 70
     1
102
RTVSPropertyOp24
 70
     1
102
RTVSPropertyOp25
 70
     1
102
RTVSPropertyOp26
 70
     1
102
RTVSPropertyOp27
 70
     1
102
RTVSPropertyOp28
 70
     1
102
RTVSPropertyOp29
 70
     1
102
RTVSPropertyOp30
 70
     1
102
RTVSPropertyOp31
 70
     1
102
RTVSPropertyOp32
 70
     1
  0
XRECORD
  5
298
102
{ACAD_REACTORS
330
297
102
}
330
297
100
AcDbXrecord
280
     1
102
RTVSPropertyOp0
 70
     1
102
RTVSPropertyOp1
 70
     1
102
RTVSPropertyOp2
 70
     1
102
RTVSPropertyOp3
 70
     1
102
RTVSPropertyOp4
 70
     1
102
RTVSPropertyOp5
 70
     1
102
RTVSPropertyOp6
 70
     1
102
RTVSPropertyOp7
 70
     1
102
RTVSPropertyOp8
 70
     1
102
RTVSPropertyOp9
 70
     1
102
RTVSPropertyOp10
 70
     1
102
RTVSPropertyOp11
 70
     1
102
RTVSPropertyOp12
 70
     1
102
RTVSPropertyOp13
 70
     1
102
RTVSPropertyOp14
 70
     1
102
RTVSPropertyOp15
 70
     1
102
RTVSPropertyOp16
 70
     1
102
RTVSPropertyOp17
 70
     1
102
RTVSPropertyOp18
 70
     1
102
RTVSPropertyOp19
 70
     1
102
RTVSPropertyOp20
 70
     1
102
RTVSPropertyOp21
 70
     1
102
RTVSPropertyOp22
 70
     1
102
RTVSPropertyOp23
 70
     1
102
RTVSPropertyOp24
 70
     1
102
RTVSPropertyOp25
 70
     1
102
RTVSPropertyOp26
 70
     1
102
RTVSPropertyOp27
 70
     1
102
RTVSPropertyOp28
 70
     1
102
RTVSPropertyOp29
 70
     1
102
RTVSPropertyOp30
 70
     1
102
RTVSPropertyOp31
 70
     1
102
RTVSPropertyOp32
 70
     1
  0
XRECORD
  5
2AC
102
{ACAD_REACTORS
330
2AB
102
}
330
2AB
100
AcDbXrecord
280
     1
102
RTVSPropertyOp0
 70
     1
102
RTVSPropertyOp1
 70
     1
102
RTVSPropertyOp2
 70
     1
102
RTVSPropertyOp3
 70
     1
102
RTVSPropertyOp4
 70
     1
102
RTVSPropertyOp5
 70
     1
102
RTVSPropertyOp6
 70
     1
102
RTVSPropertyOp7
 70
     1
102
RTVSPropertyOp8
 70
     1
102
RTVSPropertyOp9
 70
     1
102
RTVSPropertyOp10
 70
     1
102
RTVSPropertyOp11
 70
     1
102
RTVSPropertyOp12
 70
     1
102
RTVSPropertyOp13
 70
     1
102
RTVSPropertyOp14
 70
     1
102
RTVSPropertyOp15
 70
     1
102
RTVSPropertyOp16
 70
     1
102
RTVSPropertyOp17
 70
     1
102
RTVSPropertyOp18
 70
     1
102
RTVSPropertyOp19
 70
     1
102
RTVSPropertyOp20
 70
     1
102
RTVSPropertyOp21
 70
     1
102
RTVSPropertyOp22
 70
     1
102
RTVSPropertyOp23
 70
     1
102
RTVSPropertyOp24
 70
     1
102
RTVSPropertyOp25
 70
     1
102
RTVSPropertyOp26
 70
     1
102
RTVSPropertyOp27
 70
     1
102
RTVSPropertyOp28
 70
     1
102
RTVSPropertyOp29
 70
     1
102
RTVSPropertyOp30
 70
     1
102
RTVSPropertyOp31
 70
     1
102
RTVSPropertyOp32
 70
     1
  0
XRECORD
  5
2A2
102
{ACAD_REACTORS
330
2A1
102
}
330
2A1
100
AcDbXrecord
280
     1
102
RTVSPropertyOp0
 70
     1
102
RTVSPropertyOp1
 70
     1
102
RTVSPropertyOp2
 70
     1
102
RTVSPropertyOp3
 70
     1
102
RTVSPropertyOp4
 70
     1
102
RTVSPropertyOp5
 70
     1
102
RTVSPropertyOp6
 70
     1
102
RTVSPropertyOp7
 70
     1
102
RTVSPropertyOp8
 70
     1
102
RTVSPropertyOp9
 70
     1
102
RTVSPropertyOp10
 70
     1
102
RTVSPropertyOp11
 70
     1
102
RTVSPropertyOp12
 70
     1
102
RTVSPropertyOp13
 70
     1
102
RTVSPropertyOp14
 70
     1
102
RTVSPropertyOp15
 70
     1
102
RTVSPropertyOp16
 70
     1
102
RTVSPropertyOp17
 70
     1
102
RTVSPropertyOp18
 70
     1
102
RTVSPropertyOp19
 70
     1
102
RTVSPropertyOp20
 70
     1
102
RTVSPropertyOp21
 70
     1
102
RTVSPropertyOp22
 70
     1
102
RTVSPropertyOp23
 70
     1
102
RTVSPropertyOp24
 70
     1
102
RTVSPropertyOp25
 70
     1
102
RTVSPropertyOp26
 70
     1
102
RTVSPropertyOp27
 70
     1
102
RTVSPropertyOp28
 70
     1
102
RTVSPropertyOp29
 70
     1
102
RTVSPropertyOp30
 70
     1
102
RTVSPropertyOp31
 70
     1
102
RTVSPropertyOp32
 70
     1
  0
XRECORD
  5
2AA
102
{ACAD_REACTORS
330
2A9
102
}
330
2A9
100
AcDbXrecord
280
     1
102
RTVSPropertyOp0
 70
     1
102
RTVSPropertyOp1
 70
     1
102
RTVSPropertyOp2
 70
     1
102
RTVSPropertyOp3
 70
     1
102
RTVSPropertyOp4
 70
     1
102
RTVSPropertyOp5
 70
     1
102
RTVSPropertyOp6
 70
     1
102
RTVSPropertyOp7
 70
     1
102
RTVSPropertyOp8
 70
     1
102
RTVSPropertyOp9
 70
     1
102
RTVSPropertyOp10
 70
     1
102
RTVSPropertyOp11
 70
     1
102
RTVSPropertyOp12
 70
     1
102
RTVSPropertyOp13
 70
     1
102
RTVSPropertyOp14
 70
     1
102
RTVSPropertyOp15
 70
     1
102
RTVSPropertyOp16
 70
     1
102
RTVSPropertyOp17
 70
     1
102
RTVSPropertyOp18
 70
     1
102
RTVSPropertyOp19
 70
     1
102
RTVSPropertyOp20
 70
     1
102
RTVSPropertyOp21
 70
     1
102
RTVSPropertyOp22
 70
     1
102
RTVSPropertyOp23
 70
     1
102
RTVSPropertyOp24
 70
     1
102
RTVSPropertyOp25
 70
     1
102
RTVSPropertyOp26
 70
     1
102
RTVSPropertyOp27
 70
     1
102
RTVSPropertyOp28
 70
     1
102
RTVSPropertyOp29
 70
     1
102
RTVSPropertyOp30
 70
     1
102
RTVSPropertyOp31
 70
     1
102
RTVSPropertyOp32
 70
     1
  0
ENDSEC
  0
EOF
