  0
SECTION
  2
HEADER
  9
$ACADVER
  1
AC1018
  9
$ACADMAINTVER
 70
     0
  9
$DWGCODEPAGE
  3
ANSI_1252
  9
$INSBASE
 10
0.0
 20
0.0
 30
0.0
  9
$EXTMIN
 10
-229.9976874243569
 20
-132.267654434602
 30
0.0
  9
$EXTMAX
 10
224.237704369848
 20
122.6006344436558
 30
0.0
  9
$LIMMIN
 10
0.0
 20
0.0
  9
$LIMMAX
 10
12.0
 20
9.0
  9
$ORTHOMODE
 70
     0
  9
$REGENMODE
 70
     1
  9
$FILLMODE
 70
     1
  9
$QTEXTMODE
 70
     0
  9
$MIRRTEXT
 70
     1
  9
$LTSCALE
 40
1.0
  9
$ATTMODE
 70
     1
  9
$TEXTSIZE
 40
0.2
  9
$TRACEWID
 40
0.05
  9
$TEXTSTYLE
  7
Standard
  9
$CLAYER
  8
0
  9
$CELTYPE
  6
ByLayer
  9
$CECOLOR
 62
   256
  9
$CELTSCALE
 40
1.0
  9
$DISPSILH
 70
     0
  9
$DIMSCALE
 40
1.0
  9
$DIMASZ
 40
0.18
  9
$DIMEXO
 40
0.0625
  9
$DIMDLI
 40
0.38
  9
$DIMRND
 40
0.0
  9
$DIMDLE
 40
0.0
  9
$DIMEXE
 40
0.18
  9
$DIMTP
 40
0.0
  9
$DIMTM
 40
0.0
  9
$DIMTXT
 40
0.18
  9
$DIMCEN
 40
0.09
  9
$DIMTSZ
 40
0.0
  9
$DIMTOL
 70
     0
  9
$DIMLIM
 70
     0
  9
$DIMTIH
 70
     1
  9
$DIMTOH
 70
     1
  9
$DIMSE1
 70
     0
  9
$DIMSE2
 70
     0
  9
$DIMTAD
 70
     0
  9
$DIMZIN
 70
     0
  9
$DIMBLK
  1

  9
$DIMASO
 70
     1
  9
$DIMSHO
 70
     1
  9
$DIMPOST
  1

  9
$DIMAPOST
  1

  9
$DIMALT
 70
     0
  9
$DIMALTD
 70
     2
  9
$DIMALTF
 40
25.4
  9
$DIMLFAC
 40
1.0
  9
$DIMTOFL
 70
     0
  9
$DIMTVP
 40
0.0
  9
$DIMTIX
 70
     0
  9
$DIMSOXD
 70
     0
  9
$DIMSAH
 70
     0
  9
$DIMBLK1
  1

  9
$DIMBLK2
  1

  9
$DIMSTYLE
  2
Standard
  9
$DIMCLRD
 70
     0
  9
$DIMCLRE
 70
     0
  9
$DIMCLRT
 70
     0
  9
$DIMTFAC
 40
1.0
  9
$DIMGAP
 40
0.09
  9
$DIMJUST
 70
     0
  9
$DIMSD1
 70
     0
  9
$DIMSD2
 70
     0
  9
$DIMTOLJ
 70
     1
  9
$DIMTZIN
 70
     0
  9
$DIMALTZ
 70
     0
  9
$DIMALTTZ
 70
     0
  9
$DIMUPT
 70
     0
  9
$DIMDEC
 70
     4
  9
$DIMTDEC
 70
     4
  9
$DIMALTU
 70
     2
  9
$DIMALTTD
 70
     2
  9
$DIMTXSTY
  7
Standard
  9
$DIMAUNIT
 70
     0
  9
$DIMADEC
 70
     0
  9
$DIMALTRND
 40
0.0
  9
$DIMAZIN
 70
     0
  9
$DIMDSEP
 70
    46
  9
$DIMATFIT
 70
     3
  9
$DIMFRAC
 70
     0
  9
$DIMLDRBLK
  1

  9
$DIMLUNIT
 70
     2
  9
$DIMLWD
 70
    -2
  9
$DIMLWE
 70
    -2
  9
$DIMTMOVE
 70
     0
  9
$LUNITS
 70
     2
  9
$LUPREC
 70
     4
  9
$SKETCHINC
 40
0.1
  9
$FILLETRAD
 40
0.5
  9
$AUNITS
 70
     0
  9
$AUPREC
 70
     0
  9
$MENU
  1
.
  9
$ELEVATION
 40
0.0
  9
$PELEVATION
 40
0.0
  9
$THICKNESS
 40
0.0
  9
$LIMCHECK
 70
     0
  9
$CHAMFERA
 40
0.5
  9
$CHAMFERB
 40
0.5
  9
$CHAMFERC
 40
1.0
  9
$CHAMFERD
 40
0.0
  9
$SKPOLY
 70
     0
  9
$TDCREATE
 40
2456434.344789861
  9
$TDUCREATE
 40
2456434.261456528
  9
$TDUPDATE
 40
2456434.344789873
  9
$TDUUPDATE
 40
2456434.261456539
  9
$TDINDWG
 40
0.0000000116
  9
$TDUSRTIMER
 40
0.0000000116
  9
$USRTIMER
 70
     1
  9
$ANGBASE
 50
0.0
  9
$ANGDIR
 70
     0
  9
$PDMODE
 70
     0
  9
$PDSIZE
 40
0.0
  9
$PLINEWID
 40
0.0
  9
$SPLFRAME
 70
     0
  9
$SPLINETYPE
 70
     6
  9
$SPLINESEGS
 70
     8
  9
$HANDSEED
  5
249
  9
$SURFTAB1
 70
     6
  9
$SURFTAB2
 70
     6
  9
$SURFTYPE
 70
     6
  9
$SURFU
 70
     6
  9
$SURFV
 70
     6
  9
$UCSBASE
  2

  9
$UCSNAME
  2

  9
$UCSORG
 10
0.0
 20
0.0
 30
0.0
  9
$UCSXDIR
 10
1.0
 20
0.0
 30
0.0
  9
$UCSYDIR
 10
0.0
 20
1.0
 30
0.0
  9
$UCSORTHOREF
  2

  9
$UCSORTHOVIEW
 70
     0
  9
$UCSORGTOP
 10
0.0
 20
0.0
 30
0.0
  9
$UCSORGBOTTOM
 10
0.0
 20
0.0
 30
0.0
  9
$UCSORGLEFT
 10
0.0
 20
0.0
 30
0.0
  9
$UCSORGRIGHT
 10
0.0
 20
0.0
 30
0.0
  9
$UCSORGFRONT
 10
0.0
 20
0.0
 30
0.0
  9
$UCSORGBACK
 10
0.0
 20
0.0
 30
0.0
  9
$PUCSBASE
  2

  9
$PUCSNAME
  2

  9
$PUCSORG
 10
0.0
 20
0.0
 30
0.0
  9
$PUCSXDIR
 10
1.0
 20
0.0
 30
0.0
  9
$PUCSYDIR
 10
0.0
 20
1.0
 30
0.0
  9
$PUCSORTHOREF
  2

  9
$PUCSORTHOVIEW
 70
     0
  9
$PUCSORGTOP
 10
0.0
 20
0.0
 30
0.0
  9
$PUCSORGBOTTOM
 10
0.0
 20
0.0
 30
0.0
  9
$PUCSORGLEFT
 10
0.0
 20
0.0
 30
0.0
  9
$PUCSORGRIGHT
 10
0.0
 20
0.0
 30
0.0
  9
$PUCSORGFRONT
 10
0.0
 20
0.0
 30
0.0
  9
$PUCSORGBACK
 10
0.0
 20
0.0
 30
0.0
  9
$USERI1
 70
     0
  9
$USERI2
 70
     0
  9
$USERI3
 70
     0
  9
$USERI4
 70
     0
  9
$USERI5
 70
     0
  9
$USERR1
 40
16.5
  9
$USERR2
 40
0.0
  9
$USERR3
 40
0.0
  9
$USERR4
 40
0.0
  9
$USERR5
 40
0.0
  9
$WORLDVIEW
 70
     1
  9
$SHADEDGE
 70
     3
  9
$SHADEDIF
 70
    70
  9
$TILEMODE
 70
     1
  9
$MAXACTVP
 70
    64
  9
$PINSBASE
 10
0.0
 20
0.0
 30
0.0
  9
$PLIMCHECK
 70
     0
  9
$PEXTMIN
 10
1.00000000000000E+20
 20
1.00000000000000E+20
 30
1.00000000000000E+20
  9
$PEXTMAX
 10
-1.00000000000000E+20
 20
-1.00000000000000E+20
 30
-1.00000000000000E+20
  9
$PLIMMIN
 10
0.0
 20
0.0
  9
$PLIMMAX
 10
12.0
 20
9.0
  9
$UNITMODE
 70
     0
  9
$VISRETAIN
 70
     1
  9
$PLINEGEN
 70
     0
  9
$PSLTSCALE
 70
     1
  9
$TREEDEPTH
 70
  3020
  9
$CMLSTYLE
  2
Standard
  9
$CMLJUST
 70
     0
  9
$CMLSCALE
 40
1.0
  9
$PROXYGRAPHICS
 70
     1
  9
$MEASUREMENT
 70
     1
  9
$CELWEIGHT
370
    -1
  9
$ENDCAPS
280
     0
  9
$JOINSTYLE
280
     0
  9
$LWDISPLAY
290
     0
  9
$INSUNITS
 70
     1
  9
$HYPERLINKBASE
  1

  9
$STYLESHEET
  1

  9
$XEDIT
290
     1
  9
$CEPSNTYPE
380
     0
  9
$PSTYLEMODE
290
     1
  9
$FINGERPRINTGUID
  2
{ED2286E7-D9AA-4417-8A36-A9E9642A5010}
  9
$VERSIONGUID
  2
{FAEB1C32-E019-11D5-929B-00C0DF256EC4}
  9
$EXTNAMES
290
     1
  9
$PSVPSCALE
 40
0.0
  9
$OLESTARTUP
290
     0
  9
$SORTENTS
280
   127
  9
$INDEXCTL
280
     0
  9
$HIDETEXT
280
     1
  9
$XCLIPFRAME
290
     0
  9
$HALOGAP
280
     0
  9
$OBSCOLOR
 70
   257
  9
$OBSLTYPE
280
     0
  9
$INTERSECTIONDISPLAY
280
     0
  9
$INTERSECTIONCOLOR
 70
   257
  9
$DIMASSOC
280
     2
  9
$PROJECTNAME
  1

  0
ENDSEC
  0
SECTION
  2
CLASSES
  0
CLASS
  1
ACDBDICTIONARYWDFLT
  2
AcDbDictionaryWithDefault
  3
ObjectDBX Classes
 90
        0
 91
        4
280
     0
281
     0
  0
CLASS
  1
VISUALSTYLE
  2
AcDbVisualStyle
  3
ObjectDBX Classes
 90
     4095
 91
        4
280
     0
281
     0
  0
CLASS
  1

  2
exOdDbCircle
  3

 90
        0
 91
        4
280
     0
281
     1
  0
CLASS
  1
SCALE
  2
AcDbScale
  3
ObjectDBX Classes
 90
     1153
 91
        4
280
     0
281
     0
  0
CLASS
  1
DICTIONARYVAR
  2
AcDbDictionaryVar
  3
ObjectDBX Classes
 90
        0
 91
        4
280
     0
281
     0
  0
ENDSEC
  0
SECTION
  2
TABLES
  0
TABLE
  2
VPORT
  5
8
330
0
100
AcDbSymbolTable
 70
     1
  0
VPORT
  5
29
330
8
100
AcDbSymbolTableRecord
100
AcDbViewportTableRecord
  2
*Active
 70
     0
 10
0.0
 20
0.0
 11
1.0
 21
1.0
 12
-2.87999152725446
 22
-4.8335099954731
 13
0.0
 23
0.0
 14
0.5
 24
0.5
 15
0.5
 25
0.5
 16
0.0
 26
0.0
 36
1.0
 17
0.0
 27
0.0
 37
0.0
 40
311.7649040058276
 41
1.60267857142857
 42
50.0
 43
0.0
 44
0.0
 50
0.0
 51
0.0
 71
     0
 72
   100
 73
     1
 74
     3
 75
     0
 76
     0
 77
     0
 78
     0
281
     0
 65
     1
110
0.0
120
0.0
130
0.0
111
1.0
121
0.0
131
0.0
112
0.0
122
1.0
132
0.0
 79
     0
146
0.0
  0
ENDTAB
  0
TABLE
  2
LTYPE
  5
5
330
0
100
AcDbSymbolTable
 70
     8
  0
LTYPE
  5
14
330
5
100
AcDbSymbolTableRecord
100
AcDbLinetypeTableRecord
  2
ByBlock
 70
     0
  3

 72
    65
 73
     0
 40
0.0
  0
LTYPE
  5
15
330
5
100
AcDbSymbolTableRecord
100
AcDbLinetypeTableRecord
  2
ByLayer
 70
     0
  3

 72
    65
 73
     0
 40
0.0
  0
LTYPE
  5
16
330
5
100
AcDbSymbolTableRecord
100
AcDbLinetypeTableRecord
  2
Continuous
 70
     0
  3
Solid line
 72
    65
 73
     0
 40
0.0
  0
LTYPE
  5
3B
330
5
100
AcDbSymbolTableRecord
100
AcDbLinetypeTableRecord
  2
DASHED
 70
     0
  3
Dashed
 72
    65
 73
     2
 40
15.0
 49
7.0
 74
     0
 49
-8.0
 74
     0
  0
LTYPE
  5
3C
330
5
100
AcDbSymbolTableRecord
100
AcDbLinetypeTableRecord
  2
DOTTED
 70
     0
  3
Dotted
 72
    65
 73
     2
 40
1.0
 49
0.0
 74
     0
 49
-1.0
 74
     0
  0
LTYPE
  5
3D
330
5
100
AcDbSymbolTableRecord
100
AcDbLinetypeTableRecord
  2
DOT_CENTER
 70
     0
  3
Dot_Center
 72
    65
 73
     4
 40
14.0
 49
12.0
 74
     0
 49
-1.0
 74
     0
 49
0.0
 74
     0
 49
-1.0
 74
     0
  0
LTYPE
  5
3E
330
5
100
AcDbSymbolTableRecord
100
AcDbLinetypeTableRecord
  2
LONG_DASHED
 70
     0
  3
Long_Dashed
 72
    65
 73
     2
 40
15.0
 49
10.0
 74
     0
 49
-5.0
 74
     0
  0
LTYPE
  5
3F
330
5
100
AcDbSymbolTableRecord
100
AcDbLinetypeTableRecord
  2
DASH_CENTER
 70
     0
  3
Dash_Center
 72
    65
 73
     4
 40
14.0
 49
11.0
 74
     0
 49
-1.0
 74
     0
 49
1.0
 74
     0
 49
-1.0
 74
     0
  0
LTYPE
  5
40
330
5
100
AcDbSymbolTableRecord
100
AcDbLinetypeTableRecord
  2
PHANTOM
 70
     0
  3
Phantom
 72
    65
 73
     6
 40
13.0
 49
10.0
 74
     0
 49
-1.0
 74
     0
 49
0.0
 74
     0
 49
-1.0
 74
     0
 49
0.0
 74
     0
 49
-1.0
 74
     0
  0
LTYPE
  5
41
330
5
100
AcDbSymbolTableRecord
100
AcDbLinetypeTableRecord
  2
CENTER_DASH_DASH
 70
     0
  3
Center_Dash_Dash
 72
    65
 73
     6
 40
14.0
 49
9.0
 74
     0
 49
-1.0
 74
     0
 49
1.0
 74
     0
 49
-1.0
 74
     0
 49
1.0
 74
     0
 49
-1.0
 74
     0
  0
ENDTAB
  0
TABLE
  2
LAYER
  5
2
330
0
100
AcDbSymbolTable
 70
     2
  0
LAYER
  5
10
330
2
100
AcDbSymbolTableRecord
100
AcDbLayerTableRecord
  2
0
 70
     0
 62
     7
  6
Continuous
370
    -3
390
F
  0
LAYER
  5
42
330
2
100
AcDbSymbolTableRecord
100
AcDbLayerTableRecord
  2
1
 70
     0
 62
     7
  6
Continuous
370
    -3
390
F
  0
ENDTAB
  0
TABLE
  2
STYLE
  5
3
330
0
100
AcDbSymbolTable
 70
     2
  0
STYLE
  5
11
330
3
100
AcDbSymbolTableRecord
100
AcDbTextStyleTableRecord
  2
Standard
 70
     0
 40
0.0
 41
1.0
 50
0.0
 71
     0
 42
0.2
  3
txt
  4

  0
STYLE
  5
111
330
3
100
AcDbSymbolTableRecord
100
AcDbTextStyleTableRecord
  2
CONVERTER_11
 70
     0
 40
0.0
 41
0.9
 50
0.0
 71
     0
 42
0.2
  3
txt.shx
  4

  0
ENDTAB
  0
TABLE
  2
VIEW
  5
6
330
0
100
AcDbSymbolTable
 70
     0
  0
ENDTAB
  0
TABLE
  2
UCS
  5
7
330
0
100
AcDbSymbolTable
 70
     0
  0
ENDTAB
  0
TABLE
  2
APPID
  5
9
330
0
100
AcDbSymbolTable
 70
     1
  0
APPID
  5
12
330
9
100
AcDbSymbolTableRecord
100
AcDbRegAppTableRecord
  2
ACAD
 70
     0
  0
ENDTAB
  0
TABLE
  2
DIMSTYLE
  5
A
330
0
100
AcDbSymbolTable
 70
    20
100
AcDbDimStyleTable
  0
DIMSTYLE
105
27
330
A
100
AcDbSymbolTableRecord
100
AcDbDimStyleTableRecord
  2
Standard
 70
     0
340
11
  0
DIMSTYLE
105
140
102
{ACAD_REACTORS
330
141
102
}
330
A
100
AcDbSymbolTableRecord
100
AcDbDimStyleTableRecord
  2
ME10_DIM_10
 70
     0
  3
155mm (<>``)
 41
3.5
 42
0.0
 44
2.0
 73
     0
 74
     0
 77
     1
 78
     4
140
3.5
144
0.03937007874016
147
2.0
172
     1
173
     1
176
     2
177
     2
178
     2
271
     3
340
111
  0
DIMSTYLE
105
14B
102
{ACAD_REACTORS
330
14C
102
}
330
A
100
AcDbSymbolTableRecord
100
AcDbDimStyleTableRecord
  2
ME10_DIM_11
 70
     0
  3
137mm (<>``)
 41
3.5
 42
0.0
 44
2.0
 73
     0
 74
     0
 77
     1
 78
     4
140
3.5
144
0.03937007874016
147
2.0
172
     1
173
     1
176
     2
177
     2
178
     2
271
     3
340
111
  0
DIMSTYLE
105
156
102
{ACAD_REACTORS
330
157
102
}
330
A
100
AcDbSymbolTableRecord
100
AcDbDimStyleTableRecord
  2
ME10_DIM_12
 70
     0
  3
120mm (<>``)
 41
3.5
 42
0.0
 44
2.0
 73
     0
 74
     0
 77
     1
 78
     4
140
3.5
144
0.03937007874016
147
2.0
172
     1
173
     1
176
     2
177
     2
178
     2
271
     3
340
111
  0
DIMSTYLE
105
163
102
{ACAD_REACTORS
330
164
102
}
330
A
100
AcDbSymbolTableRecord
100
AcDbDimStyleTableRecord
  2
ME10_DIM_13
 70
     0
  3
3mm (<>``)
 41
3.5
 42
0.0
 44
2.0
 73
     0
 74
     0
 77
     1
 78
     4
140
3.5
144
0.03937007874016
147
2.0
172
     1
173
     1
176
     2
177
     2
178
     2
271
     3
340
111
  0
DIMSTYLE
105
16F
102
{ACAD_REACTORS
330
170
102
}
330
A
100
AcDbSymbolTableRecord
100
AcDbDimStyleTableRecord
  2
ME10_DIM_14
 70
     0
  3
24mm (<>``)
 41
3.5
 42
0.0
 44
2.0
 73
     0
 74
     0
 77
     1
 78
     4
140
3.5
144
0.03937007874016
147
2.0
172
     1
173
     1
176
     2
177
     2
178
     2
271
     3
340
111
  0
DIMSTYLE
105
17C
102
{ACAD_REACTORS
330
17D
102
}
330
A
100
AcDbSymbolTableRecord
100
AcDbDimStyleTableRecord
  2
ME10_DIM_15
 70
     0
  3
4mm (<>``)
 41
3.5
 42
0.0
 44
2.0
 73
     0
 74
     0
 77
     1
 78
     4
140
3.5
144
0.03937007874016
147
2.0
172
     1
173
     1
176
     2
177
     2
178
     2
271
     3
340
111
  0
DIMSTYLE
105
188
102
{ACAD_REACTORS
330
189
102
}
330
A
100
AcDbSymbolTableRecord
100
AcDbDimStyleTableRecord
  2
ME10_DIM_16
 70
     0
  3
27mm (<>``)
 41
3.5
 42
0.0
 44
2.0
 73
     0
 74
     0
 77
     1
 78
     4
140
3.5
144
0.03937007874016
147
2.0
172
     1
173
     1
176
     2
177
     2
178
     2
271
     3
340
111
  0
DIMSTYLE
105
194
102
{ACAD_REACTORS
330
195
102
}
330
A
100
AcDbSymbolTableRecord
100
AcDbDimStyleTableRecord
  2
ME10_DIM_17
 70
     0
  3
10mm (<>``)
 41
3.5
 42
0.0
 44
2.0
 73
     0
 74
     0
 77
     1
 78
     4
140
3.5
144
0.03937007874016
147
2.0
172
     1
173
     1
176
     2
177
     2
178
     2
271
     3
340
111
  0
DIMSTYLE
105
1A0
102
{ACAD_REACTORS
330
1A1
102
}
330
A
100
AcDbSymbolTableRecord
100
AcDbDimStyleTableRecord
  2
ME10_DIM_18
 70
     0
  3
10mm (<>``)
 41
3.5
 42
0.0
 44
2.0
 73
     0
 74
     0
 77
     1
 78
     4
140
3.5
144
0.03937007874016
147
2.0
172
     1
173
     1
176
     2
177
     2
178
     2
271
     3
340
111
  0
DIMSTYLE
105
1AD
102
{ACAD_REACTORS
330
1AE
102
}
330
A
100
AcDbSymbolTableRecord
100
AcDbDimStyleTableRecord
  2
ME10_DIM_19
 70
     0
  3
24mm (<>``)
 41
3.5
 42
0.0
 44
2.0
 73
     0
 74
     0
 77
     1
 78
     4
140
3.5
144
0.03937007874016
147
2.0
172
     1
173
     1
176
     2
177
     2
178
     2
271
     3
340
111
  0
DIMSTYLE
105
1B9
102
{ACAD_REACTORS
330
1BA
102
}
330
A
100
AcDbSymbolTableRecord
100
AcDbDimStyleTableRecord
  2
ME10_DIM_20
 70
     0
  3
16mm (<>``)
 41
3.5
 42
0.0
 44
2.0
 73
     0
 74
     0
 77
     1
 78
     4
140
3.5
144
0.03937007874016
147
2.0
172
     1
173
     1
176
     2
177
     2
178
     2
271
     3
340
111
  0
DIMSTYLE
105
1C5
102
{ACAD_REACTORS
330
1C6
102
}
330
A
100
AcDbSymbolTableRecord
100
AcDbDimStyleTableRecord
  2
ME10_DIM_21
 70
     0
  3
18mm (<>``)
 41
3.5
 42
0.0
 44
2.0
 73
     0
 74
     0
 77
     1
 78
     4
140
3.5
144
0.03937007874016
147
2.0
172
     1
173
     1
176
     2
177
     2
178
     2
271
     3
340
111
  0
DIMSTYLE
105
1D2
102
{ACAD_REACTORS
330
1D3
102
}
330
A
100
AcDbSymbolTableRecord
100
AcDbDimStyleTableRecord
  2
ME10_DIM_22
 70
     0
  3
4mm (<>``)
 41
3.5
 42
0.0
 44
2.0
 73
     0
 74
     0
 77
     1
 78
     4
140
3.5
144
0.03937007874016
147
2.0
172
     1
173
     1
176
     2
177
     2
178
     2
271
     3
340
111
  0
DIMSTYLE
105
1DE
102
{ACAD_REACTORS
330
1DF
102
}
330
A
100
AcDbSymbolTableRecord
100
AcDbDimStyleTableRecord
  2
ME10_DIM_23
 70
     0
  3
21mm (<>``)
 41
3.5
 42
0.0
 44
2.0
 73
     0
 74
     0
 77
     1
 78
     4
140
3.5
144
0.03937007874016
147
2.0
172
     1
173
     1
176
     2
177
     2
178
     2
271
     3
340
111
  0
DIMSTYLE
105
1EA
102
{ACAD_REACTORS
330
1EB
102
}
330
A
100
AcDbSymbolTableRecord
100
AcDbDimStyleTableRecord
  2
ME10_DIM_24
 70
     0
  3
18mm (<>``)
 41
3.5
 42
0.0
 44
2.0
 73
     0
 74
     0
 77
     1
 78
     4
140
3.5
144
0.03937007874016
147
2.0
172
     1
173
     1
176
     2
177
     2
178
     2
271
     3
340
111
  0
DIMSTYLE
105
1F5
102
{ACAD_REACTORS
330
1F6
102
}
330
A
100
AcDbSymbolTableRecord
100
AcDbDimStyleTableRecord
  2
ME10_DIM_25
 70
     0
  3
155mm (<>``)
 41
3.5
 42
0.0
 44
2.0
 73
     0
 74
     0
 77
     1
 78
     4
140
3.5
144
0.03937007874016
147
2.0
172
     1
173
     1
176
     2
177
     2
178
     2
271
     3
340
111
  0
DIMSTYLE
105
200
102
{ACAD_REACTORS
330
201
102
}
330
A
100
AcDbSymbolTableRecord
100
AcDbDimStyleTableRecord
  2
ME10_DIM_26
 70
     0
  3
132mm (<>``)
 41
3.5
 42
0.0
 44
2.0
 73
     0
 74
     0
 77
     1
 78
     4
140
3.5
144
0.03937007874016
147
2.0
172
     1
173
     1
176
     2
177
     2
178
     2
271
     3
340
111
  0
DIMSTYLE
105
20D
102
{ACAD_REACTORS
330
20E
102
}
330
A
100
AcDbSymbolTableRecord
100
AcDbDimStyleTableRecord
  2
ME10_DIM_27
 70
     0
  3
3mm (<>``)
 41
3.5
 42
0.0
 44
2.0
 73
     0
 74
     0
 77
     1
 78
     4
140
3.5
144
0.03937007874016
147
2.0
172
     1
173
     1
176
     2
177
     2
178
     2
271
     3
340
111
  0
DIMSTYLE
105
218
102
{ACAD_REACTORS
330
219
102
}
330
A
100
AcDbSymbolTableRecord
100
AcDbDimStyleTableRecord
  2
ME10_DIM_28
 70
     0
  3
142mm (<>``)
 41
3.5
 42
0.0
 44
2.0
 73
     0
 74
     0
 77
     1
 78
     4
140
3.5
144
0.03937007874016
147
2.0
172
     1
173
     1
176
     2
177
     2
178
     2
271
     3
340
111
  0
ENDTAB
  0
TABLE
  2
BLOCK_RECORD
  5
1
330
0
100
AcDbSymbolTable
 70
    25
  0
BLOCK_RECORD
  5
1F
330
1
100
AcDbSymbolTableRecord
100
AcDbBlockTableRecord
  2
*Model_Space
340
22
  0
BLOCK_RECORD
  5
1B
330
1
100
AcDbSymbolTableRecord
100
AcDbBlockTableRecord
  2
*Paper_Space
340
1E
  0
BLOCK_RECORD
  5
23
330
1
100
AcDbSymbolTableRecord
100
AcDbBlockTableRecord
  2
*Paper_Space0
340
26
  0
BLOCK_RECORD
  5
137
330
1
100
AcDbSymbolTableRecord
100
AcDbBlockTableRecord
  2
*D1
340
0
  0
BLOCK_RECORD
  5
142
330
1
100
AcDbSymbolTableRecord
100
AcDbBlockTableRecord
  2
*D2
340
0
  0
BLOCK_RECORD
  5
14D
330
1
100
AcDbSymbolTableRecord
100
AcDbBlockTableRecord
  2
*D3
340
0
  0
BLOCK_RECORD
  5
158
330
1
100
AcDbSymbolTableRecord
100
AcDbBlockTableRecord
  2
*D4
340
0
  0
BLOCK_RECORD
  5
165
330
1
100
AcDbSymbolTableRecord
100
AcDbBlockTableRecord
  2
*D5
340
0
  0
BLOCK_RECORD
  5
171
330
1
100
AcDbSymbolTableRecord
100
AcDbBlockTableRecord
  2
*D6
340
0
  0
BLOCK_RECORD
  5
17E
330
1
100
AcDbSymbolTableRecord
100
AcDbBlockTableRecord
  2
*D7
340
0
  0
BLOCK_RECORD
  5
18A
330
1
100
AcDbSymbolTableRecord
100
AcDbBlockTableRecord
  2
*D8
340
0
  0
BLOCK_RECORD
  5
196
330
1
100
AcDbSymbolTableRecord
100
AcDbBlockTableRecord
  2
*D9
340
0
  0
BLOCK_RECORD
  5
1A2
330
1
100
AcDbSymbolTableRecord
100
AcDbBlockTableRecord
  2
*D10
340
0
  0
BLOCK_RECORD
  5
1AF
330
1
100
AcDbSymbolTableRecord
100
AcDbBlockTableRecord
  2
*D11
340
0
  0
BLOCK_RECORD
  5
1BB
330
1
100
AcDbSymbolTableRecord
100
AcDbBlockTableRecord
  2
*D12
340
0
  0
BLOCK_RECORD
  5
1C7
330
1
100
AcDbSymbolTableRecord
100
AcDbBlockTableRecord
  2
*D13
340
0
  0
BLOCK_RECORD
  5
1D4
330
1
100
AcDbSymbolTableRecord
100
AcDbBlockTableRecord
  2
*D14
340
0
  0
BLOCK_RECORD
  5
1E0
330
1
100
AcDbSymbolTableRecord
100
AcDbBlockTableRecord
  2
*D15
340
0
  0
BLOCK_RECORD
  5
1EC
330
1
100
AcDbSymbolTableRecord
100
AcDbBlockTableRecord
  2
*D16
340
0
  0
BLOCK_RECORD
  5
1F7
330
1
100
AcDbSymbolTableRecord
100
AcDbBlockTableRecord
  2
*D17
340
0
  0
BLOCK_RECORD
  5
202
330
1
100
AcDbSymbolTableRecord
100
AcDbBlockTableRecord
  2
*D18
340
0
  0
BLOCK_RECORD
  5
20F
330
1
100
AcDbSymbolTableRecord
100
AcDbBlockTableRecord
  2
*D19
340
0
  0
BLOCK_RECORD
  5
21A
330
1
100
AcDbSymbolTableRecord
100
AcDbBlockTableRecord
  2
*D20
340
0
102
{BLKREFS
331
220
102
}
  0
BLOCK_RECORD
  5
221
330
1
100
AcDbSymbolTableRecord
100
AcDbBlockTableRecord
  2
*D21
340
0
102
{BLKREFS
331
229
102
}
  0
BLOCK_RECORD
  5
22A
330
1
100
AcDbSymbolTableRecord
100
AcDbBlockTableRecord
  2
*D22
340
0
102
{BLKREFS
331
232
102
}
  0
BLOCK_RECORD
  5
233
330
1
100
AcDbSymbolTableRecord
100
AcDbBlockTableRecord
  2
*D23
340
0
102
{BLKREFS
331
23B
102
}
  0
BLOCK_RECORD
  5
23C
330
1
100
AcDbSymbolTableRecord
100
AcDbBlockTableRecord
  2
*D24
340
0
102
{BLKREFS
331
244
102
}
  0
ENDTAB
  0
ENDSEC
  0
SECTION
  2
BLOCKS
  0
BLOCK
  5
20
330
1F
100
AcDbEntity
  8
0
100
AcDbBlockBegin
  2
*Model_Space
 70
     0
 10
0.0
 20
0.0
 30
0.0
  3
*Model_Space
  1

  0
ENDBLK
  5
21
330
1F
100
AcDbEntity
  8
0
100
AcDbBlockEnd
  0
BLOCK
  5
1C
330
1B
100
AcDbEntity
 67
     1
  8
0
100
AcDbBlockBegin
  2
*Paper_Space
 70
     0
 10
0.0
 20
0.0
 30
0.0
  3
*Paper_Space
  1

  0
ENDBLK
  5
1D
330
1B
100
AcDbEntity
 67
     1
  8
0
100
AcDbBlockEnd
  0
BLOCK
  5
24
330
23
100
AcDbEntity
  8
0
100
AcDbBlockBegin
  2
*Paper_Space0
 70
     0
 10
0.0
 20
0.0
 30
0.0
  3
*Paper_Space0
  1

  0
ENDBLK
  5
25
330
23
100
AcDbEntity
  8
0
100
AcDbBlockEnd
  0
BLOCK
  5
13E
330
137
100
AcDbEntity
  8
0
100
AcDbBlockBegin
  2
*D1
 70
     1
 10
0.0
 20
0.0
 30
0.0
  3
*D1
  1

  0
LINE
  5
138
330
137
100
AcDbEntity
  8
1
  6
Continuous
 62
     2
100
AcDbLine
 10
117.726890102643
 20
82.87660009231135
 30
0.0
 11
117.726890102643
 21
-72.12339990768865
 31
0.0
  0
LINE
  5
139
330
137
100
AcDbEntity
  8
1
  6
Continuous
 62
     2
100
AcDbLine
 10
170.9119338369392
 20
82.87660009231135
 30
0.0
 11
115.726890102643
 21
82.87660009231135
 31
0.0
  0
LINE
  5
13A
330
137
100
AcDbEntity
  8
1
  6
Continuous
 62
     2
100
AcDbLine
 10
170.9119338369392
 20
-72.12339990768865
 30
0.0
 11
115.726890102643
 21
-72.12339990768865
 31
0.0
  0
SOLID
  5
13B
330
137
100
AcDbEntity
  8
1
 62
     2
100
AcDbTrace
 10
118.1876738441989
 20
79.37660009231135
 30
0.0
 11
117.2661063610871
 21
79.37660009231135
 31
0.0
 12
117.726890102643
 22
82.87660009231135
 32
0.0
 13
117.726890102643
 23
82.87660009231135
 33
0.0
  0
SOLID
  5
13C
330
137
100
AcDbEntity
  8
1
 62
     2
100
AcDbTrace
 10
117.2661063610871
 20
-68.62339990768865
 30
0.0
 11
118.1876738441989
 21
-68.62339990768865
 31
0.0
 12
117.726890102643
 22
-72.12339990768865
 32
0.0
 13
117.726890102643
 23
-72.12339990768865
 33
0.0
  0
MTEXT
  5
13D
330
137
100
AcDbEntity
  8
1
 62
     2
100
AcDbMText
 10
115.726890102643
 20
-12.78742955723578
 30
0.0
 40
3.5
 41
0.0
 71
     7
 72
     1
  1
\C2;155mm (\C2;6.102\C2;``)
  7
CONVERTER_11
 11
0.0
 21
1.0
 31
0.0
 73
     1
 44
0.60024009603842
  0
ENDBLK
  5
13F
330
137
100
AcDbEntity
  8
0
100
AcDbBlockEnd
  0
BLOCK
  5
149
330
142
100
AcDbEntity
  8
0
100
AcDbBlockBegin
  2
*D2
 70
     1
 10
0.0
 20
0.0
 30
0.0
  3
*D2
  1

  0
LINE
  5
143
330
142
100
AcDbEntity
  8
1
  6
Continuous
 62
     2
100
AcDbLine
 10
125.370386594335
 20
73.87660009231135
 30
0.0
 11
125.370386594335
 21
-63.12339990768865
 31
0.0
  0
LINE
  5
144
330
142
100
AcDbEntity
  8
1
  6
Continuous
 62
     2
100
AcDbLine
 10
155.2482796794875
 20
73.87660009231136
 30
0.0
 11
123.370386594335
 21
73.87660009231136
 31
0.0
  0
LINE
  5
145
330
142
100
AcDbEntity
  8
1
  6
Continuous
 62
     2
100
AcDbLine
 10
155.2482796794875
 20
-63.12339990768865
 30
0.0
 11
123.370386594335
 21
-63.12339990768865
 31
0.0
  0
SOLID
  5
146
330
142
100
AcDbEntity
  8
1
 62
     2
100
AcDbTrace
 10
125.8311703358909
 20
70.37660009231135
 30
0.0
 11
124.9096028527791
 21
70.37660009231135
 31
0.0
 12
125.370386594335
 22
73.87660009231135
 32
0.0
 13
125.370386594335
 23
73.87660009231135
 33
0.0
  0
SOLID
  5
147
330
142
100
AcDbEntity
  8
1
 62
     2
100
AcDbTrace
 10
124.9096028527791
 20
-59.62339990768865
 30
0.0
 11
125.8311703358909
 21
-59.62339990768865
 31
0.0
 12
125.370386594335
 22
-63.12339990768865
 32
0.0
 13
125.370386594335
 23
-63.12339990768865
 33
0.0
  0
MTEXT
  5
148
330
142
100
AcDbEntity
  8
1
 62
     2
100
AcDbMText
 10
123.370386594335
 20
-14.19781226794353
 30
0.0
 40
3.5
 41
0.0
 71
     7
 72
     1
  1
\C2;137mm (\C2;5.394\C2;``)
  7
CONVERTER_11
 11
0.0
 21
1.0
 31
0.0
 73
     1
 44
0.60024009603842
  0
ENDBLK
  5
14A
330
142
100
AcDbEntity
  8
0
100
AcDbBlockEnd
  0
BLOCK
  5
154
330
14D
100
AcDbEntity
  8
0
100
AcDbBlockBegin
  2
*D3
 70
     1
 10
0.0
 20
0.0
 30
0.0
  3
*D3
  1

  0
LINE
  5
14E
330
14D
100
AcDbEntity
  8
1
  6
Continuous
 62
     2
100
AcDbLine
 10
134.703482943496
 20
65.37660009231135
 30
0.0
 11
134.703482943496
 21
-54.62339990768865
 31
0.0
  0
LINE
  5
14F
330
14D
100
AcDbEntity
  8
1
  6
Continuous
 62
     2
100
AcDbLine
 10
169.9119338369392
 20
65.37660009231135
 30
0.0
 11
132.703482943496
 21
65.37660009231135
 31
0.0
  0
LINE
  5
150
330
14D
100
AcDbEntity
  8
1
  6
Continuous
 62
     2
100
AcDbLine
 10
169.9119338369392
 20
-54.62339990768865
 30
0.0
 11
132.703482943496
 21
-54.62339990768865
 31
0.0
  0
SOLID
  5
151
330
14D
100
AcDbEntity
  8
1
 62
     2
100
AcDbTrace
 10
135.1642666850519
 20
61.87660009231135
 30
0.0
 11
134.2426992019401
 21
61.87660009231135
 31
0.0
 12
134.703482943496
 22
65.37660009231135
 32
0.0
 13
134.703482943496
 23
65.37660009231135
 33
0.0
  0
SOLID
  5
152
330
14D
100
AcDbEntity
  8
1
 62
     2
100
AcDbTrace
 10
134.2426992019401
 20
-51.12339990768865
 30
0.0
 11
135.1642666850519
 21
-51.12339990768865
 31
0.0
 12
134.703482943496
 22
-54.62339990768865
 32
0.0
 13
134.703482943496
 23
-54.62339990768865
 33
0.0
  0
MTEXT
  5
153
330
14D
100
AcDbEntity
  8
1
 62
     2
100
AcDbMText
 10
132.703482943496
 20
-14.71692004119975
 30
0.0
 40
3.5
 41
0.0
 71
     7
 72
     1
  1
\C2;120mm (\C2;4.724\C2;``)
  7
CONVERTER_11
 11
0.0
 21
1.0
 31
0.0
 73
     1
 44
0.60024009603842
  0
ENDBLK
  5
155
330
14D
100
AcDbEntity
  8
0
100
AcDbBlockEnd
  0
BLOCK
  5
161
330
158
100
AcDbEntity
  8
0
100
AcDbBlockBegin
  2
*D4
 70
     1
 10
0.0
 20
0.0
 30
0.0
  3
*D4
  1

  0
LINE
  5
159
330
158
100
AcDbEntity
  8
1
  6
Continuous
 62
     2
100
AcDbLine
 10
-7.155817394035
 20
-56.69793997026324
 30
0.0
 11
-7.155817394035
 21
-63.69793997026324
 31
0.0
  0
LINE
  5
15A
330
158
100
AcDbEntity
  8
1
  6
Continuous
 62
     2
100
AcDbLine
 10
-7.155817394035
 20
-63.69793997026324
 30
0.0
 11
-7.155817394035
 21
-66.6979399702632
 31
0.0
  0
LINE
  5
15B
330
158
100
AcDbEntity
  8
1
  6
Continuous
 62
     2
100
AcDbLine
 10
-7.155817394035
 20
-66.6979399702632
 30
0.0
 11
-7.155817394035
 21
-100.9171012587725
 31
0.0
  0
LINE
  5
15C
330
158
100
AcDbEntity
  8
1
  6
Continuous
 62
     2
100
AcDbLine
 10
-11.11320632733307
 20
-63.69793997026324
 30
0.0
 11
-5.155817394035
 21
-63.69793997026324
 31
0.0
  0
LINE
  5
15D
330
158
100
AcDbEntity
  8
1
  6
Continuous
 62
     2
100
AcDbLine
 10
-1.11320632733314
 20
-66.6979399702632
 30
0.0
 11
-9.155817394035
 21
-66.6979399702632
 31
0.0
  0
SOLID
  5
15E
330
158
100
AcDbEntity
  8
1
 62
     2
100
AcDbTrace
 10
-7.61660113559088
 20
-60.19793997026324
 30
0.0
 11
-6.69503365247911
 21
-60.19793997026324
 31
0.0
 12
-7.155817394035
 22
-63.69793997026324
 32
0.0
 13
-7.155817394035
 23
-63.69793997026324
 33
0.0
  0
SOLID
  5
15F
330
158
100
AcDbEntity
  8
1
 62
     2
100
AcDbTrace
 10
-6.69503365247911
 20
-70.1979399702632
 30
0.0
 11
-7.61660113559088
 21
-70.1979399702632
 31
0.0
 12
-7.155817394035
 22
-66.6979399702632
 32
0.0
 13
-7.155817394035
 23
-66.6979399702632
 33
0.0
  0
MTEXT
  5
160
330
158
100
AcDbEntity
  8
1
 62
     2
100
AcDbMText
 10
-9.155817394035
 20
-100.0421012587725
 30
0.0
 40
3.5
 41
0.0
 71
     7
 72
     1
  1
\C2;3mm (\C2;0.118\C2;``)
  7
CONVERTER_11
 11
0.0
 21
1.0
 31
0.0
 73
     1
 44
0.60024009603842
  0
ENDBLK
  5
162
330
158
100
AcDbEntity
  8
0
100
AcDbBlockEnd
  0
BLOCK
  5
16D
330
165
100
AcDbEntity
  8
0
100
AcDbBlockBegin
  2
*D5
 70
     1
 10
0.0
 20
0.0
 30
0.0
  3
*D5
  1

  0
LINE
  5
166
330
165
100
AcDbEntity
  8
1
  6
Continuous
 62
     2
100
AcDbLine
 10
56.5158341698211
 20
-5.8289279503028
 30
0.0
 11
56.5158341698211
 21
-42.6979399702632
 31
0.0
  0
LINE
  5
167
330
165
100
AcDbEntity
  8
1
  6
Continuous
 62
     2
100
AcDbLine
 10
56.5158341698211
 20
-42.6979399702632
 30
0.0
 11
56.5158341698211
 21
-66.69793997026319
 31
0.0
  0
LINE
  5
168
330
165
100
AcDbEntity
  8
1
  6
Continuous
 62
     2
100
AcDbLine
 10
15.38679367266695
 20
-42.6979399702632
 30
0.0
 11
58.5158341698211
 21
-42.6979399702632
 31
0.0
  0
LINE
  5
169
330
165
100
AcDbEntity
  8
1
  6
Continuous
 62
     2
100
AcDbLine
 10
47.38679367266684
 20
-66.69793997026319
 30
0.0
 11
58.5158341698211
 21
-66.69793997026319
 31
0.0
  0
SOLID
  5
16A
330
165
100
AcDbEntity
  8
1
 62
     2
100
AcDbTrace
 10
56.97661791137698
 20
-46.1979399702632
 30
0.0
 11
56.05505042826521
 21
-46.1979399702632
 31
0.0
 12
56.5158341698211
 22
-42.6979399702632
 32
0.0
 13
56.5158341698211
 23
-42.6979399702632
 33
0.0
  0
SOLID
  5
16B
330
165
100
AcDbEntity
  8
1
 62
     2
100
AcDbTrace
 10
56.05505042826521
 20
-63.19793997026319
 30
0.0
 11
56.97661791137698
 21
-63.19793997026319
 31
0.0
 12
56.5158341698211
 22
-66.69793997026319
 32
0.0
 13
56.5158341698211
 23
-66.69793997026319
 33
0.0
  0
MTEXT
  5
16C
330
165
100
AcDbEntity
  8
1
 62
     2
100
AcDbMText
 10
54.5158341698211
 20
-40.4614279503028
 30
0.0
 40
3.5
 41
0.0
 71
     7
 72
     1
  1
\C2;24mm (\C2;0.945\C2;``)
  7
CONVERTER_11
 11
0.0
 21
1.0
 31
0.0
 73
     1
 44
0.60024009603842
  0
ENDBLK
  5
16E
330
165
100
AcDbEntity
  8
0
100
AcDbBlockEnd
  0
BLOCK
  5
17A
330
171
100
AcDbEntity
  8
0
100
AcDbBlockBegin
  2
*D6
 70
     1
 10
0.0
 20
0.0
 30
0.0
  3
*D6
  1

  0
LINE
  5
172
330
171
100
AcDbEntity
  8
1
  6
Continuous
 62
     2
100
AcDbLine
 10
9.63953091356274
 20
-55.69793997026319
 30
0.0
 11
9.63953091356274
 21
-62.69793997026319
 31
0.0
  0
LINE
  5
173
330
171
100
AcDbEntity
  8
1
  6
Continuous
 62
     2
100
AcDbLine
 10
9.63953091356274
 20
-62.69793997026319
 30
0.0
 11
9.63953091356274
 21
-66.6979399702632
 31
0.0
  0
LINE
  5
174
330
171
100
AcDbEntity
  8
1
  6
Continuous
 62
     2
100
AcDbLine
 10
9.63953091356274
 20
-66.6979399702632
 30
0.0
 11
9.63953091356274
 21
-102.4823954488453
 31
0.0
  0
LINE
  5
175
330
171
100
AcDbEntity
  8
1
  6
Continuous
 62
     2
100
AcDbLine
 10
12.38679367266663
 20
-62.69793997026319
 30
0.0
 11
7.63953091356274
 21
-62.69793997026319
 31
0.0
  0
LINE
  5
176
330
171
100
AcDbEntity
  8
1
  6
Continuous
 62
     2
100
AcDbLine
 10
2.38679367266664
 20
-66.6979399702632
 30
0.0
 11
11.63953091356274
 21
-66.6979399702632
 31
0.0
  0
SOLID
  5
177
330
171
100
AcDbEntity
  8
1
 62
     2
100
AcDbTrace
 10
9.17874717200685
 20
-59.19793997026319
 30
0.0
 11
10.10031465511863
 21
-59.19793997026319
 31
0.0
 12
9.63953091356274
 22
-62.69793997026319
 32
0.0
 13
9.63953091356274
 23
-62.69793997026319
 33
0.0
  0
SOLID
  5
178
330
171
100
AcDbEntity
  8
1
 62
     2
100
AcDbTrace
 10
10.10031465511863
 20
-70.1979399702632
 30
0.0
 11
9.17874717200685
 21
-70.1979399702632
 31
0.0
 12
9.63953091356274
 22
-66.6979399702632
 32
0.0
 13
9.63953091356274
 23
-66.6979399702632
 33
0.0
  0
MTEXT
  5
179
330
171
100
AcDbEntity
  8
1
 62
     2
100
AcDbMText
 10
7.63953091356274
 20
-101.6073954488453
 30
0.0
 40
3.5
 41
0.0
 71
     7
 72
     1
  1
\C2;4mm (\C2;0.157\C2;``)
  7
CONVERTER_11
 11
0.0
 21
1.0
 31
0.0
 73
     1
 44
0.60024009603842
  0
ENDBLK
  5
17B
330
171
100
AcDbEntity
  8
0
100
AcDbBlockEnd
  0
BLOCK
  5
186
330
17E
100
AcDbEntity
  8
0
100
AcDbBlockBegin
  2
*D7
 70
     1
 10
0.0
 20
0.0
 30
0.0
  3
*D7
  1

  0
LINE
  5
17F
330
17E
100
AcDbEntity
  8
1
  6
Continuous
 62
     2
100
AcDbLine
 10
22.37236234376288
 20
-118.622960427562
 30
0.0
 11
61.1986003432113
 21
-118.622960427562
 31
0.0
  0
LINE
  5
180
330
17E
100
AcDbEntity
  8
1
  6
Continuous
 62
     2
100
AcDbLine
 10
61.1986003432113
 20
-118.622960427562
 30
0.0
 11
88.1986003432113
 21
-118.622960427562
 31
0.0
  0
LINE
  5
181
330
17E
100
AcDbEntity
  8
1
  6
Continuous
 62
     2
100
AcDbLine
 10
61.1986003432113
 20
-72.12339990768865
 30
0.0
 11
61.1986003432113
 21
-120.622960427562
 31
0.0
  0
LINE
  5
182
330
17E
100
AcDbEntity
  8
1
  6
Continuous
 62
     2
100
AcDbLine
 10
88.1986003432113
 20
-54.62339990768866
 30
0.0
 11
88.1986003432113
 21
-120.622960427562
 31
0.0
  0
SOLID
  5
183
330
17E
100
AcDbEntity
  8
1
 62
     2
100
AcDbTrace
 10
64.6986003432113
 20
-118.1621766860061
 30
0.0
 11
64.6986003432113
 21
-119.0837441691179
 31
0.0
 12
61.1986003432113
 22
-118.622960427562
 32
0.0
 13
61.1986003432113
 23
-118.622960427562
 33
0.0
  0
SOLID
  5
184
330
17E
100
AcDbEntity
  8
1
 62
     2
100
AcDbTrace
 10
84.6986003432113
 20
-119.0837441691179
 30
0.0
 11
84.6986003432113
 21
-118.1621766860061
 31
0.0
 12
88.1986003432113
 22
-118.622960427562
 32
0.0
 13
88.1986003432113
 23
-118.622960427562
 33
0.0
  0
MTEXT
  5
185
330
17E
100
AcDbEntity
  8
1
 62
     2
100
AcDbMText
 10
23.52736234381349
 20
-116.6230021700199
 30
0.0
 40
3.5
 41
0.0
 71
     7
 72
     1
  1
\C2;27mm (\C2;1.063\C2;``)
  7
CONVERTER_11
 11
0.9999999999970619
 21
2.424068405545306E-6
 31
0.0
 73
     1
 44
0.60024009603842
  0
ENDBLK
  5
187
330
17E
100
AcDbEntity
  8
0
100
AcDbBlockEnd
  0
BLOCK
  5
192
330
18A
100
AcDbEntity
  8
0
100
AcDbBlockBegin
  2
*D8
 70
     1
 10
0.0
 20
0.0
 30
0.0
  3
*D8
  1

  0
LINE
  5
18B
330
18A
100
AcDbEntity
  8
1
  6
Continuous
 62
     2
100
AcDbLine
 10
71.1986003432113
 20
-105.785670014645
 30
0.0
 11
61.1986003432113
 21
-105.785670014645
 31
0.0
  0
LINE
  5
18C
330
18A
100
AcDbEntity
  8
1
  6
Continuous
 62
     2
100
AcDbLine
 10
61.1986003432113
 20
-105.785670014645
 30
0.0
 11
24.31136200720149
 21
-105.785670014645
 31
0.0
  0
LINE
  5
18D
330
18A
100
AcDbEntity
  8
1
  6
Continuous
 62
     2
100
AcDbLine
 10
71.1986003432113
 20
-72.12339990768865
 30
0.0
 11
71.1986003432113
 21
-107.785670014645
 31
0.0
  0
LINE
  5
18E
330
18A
100
AcDbEntity
  8
1
  6
Continuous
 62
     2
100
AcDbLine
 10
61.1986003432113
 20
-94.62339990768866
 30
0.0
 11
61.1986003432113
 21
-107.785670014645
 31
0.0
  0
SOLID
  5
18F
330
18A
100
AcDbEntity
  8
1
 62
     2
100
AcDbTrace
 10
67.6986003432113
 20
-106.2464537562009
 30
0.0
 11
67.6986003432113
 21
-105.3248862730891
 31
0.0
 12
71.1986003432113
 22
-105.785670014645
 32
0.0
 13
71.1986003432113
 23
-105.785670014645
 33
0.0
  0
SOLID
  5
190
330
18A
100
AcDbEntity
  8
1
 62
     2
100
AcDbTrace
 10
64.6986003432113
 20
-105.3248862730891
 30
0.0
 11
64.6986003432113
 21
-106.2464537562009
 31
0.0
 12
61.1986003432113
 22
-105.785670014645
 32
0.0
 13
61.1986003432113
 23
-105.785670014645
 33
0.0
  0
MTEXT
  5
191
330
18A
100
AcDbEntity
  8
1
 62
     2
100
AcDbMText
 10
24.41636200725209
 20
-103.7857117571029
 30
0.0
 40
3.5
 41
0.0
 71
     7
 72
     1
  1
\C2;10mm (\C2;0.394\C2;``)
  7
CONVERTER_11
 11
0.9999999999970619
 21
2.424068405545306E-6
 31
0.0
 73
     1
 44
0.60024009603842
  0
ENDBLK
  5
193
330
18A
100
AcDbEntity
  8
0
100
AcDbBlockEnd
  0
BLOCK
  5
19E
330
196
100
AcDbEntity
  8
0
100
AcDbBlockBegin
  2
*D9
 70
     1
 10
0.0
 20
0.0
 30
0.0
  3
*D9
  1

  0
LINE
  5
197
330
196
100
AcDbEntity
  8
1
  6
Continuous
 62
     2
100
AcDbLine
 10
-114.1028948268131
 20
-106.2653824624736
 30
0.0
 11
-78.80177865188125
 21
-106.2653824624736
 31
0.0
  0
LINE
  5
198
330
196
100
AcDbEntity
  8
1
  6
Continuous
 62
     2
100
AcDbLine
 10
-78.80177865188125
 20
-106.2653824624736
 30
0.0
 11
-68.80177865188125
 21
-106.2653824624736
 31
0.0
  0
LINE
  5
199
330
196
100
AcDbEntity
  8
1
  6
Continuous
 62
     2
100
AcDbLine
 10
-78.80177865188125
 20
-72.12339990768865
 30
0.0
 11
-78.80177865188125
 21
-108.2653824624736
 31
0.0
  0
LINE
  5
19A
330
196
100
AcDbEntity
  8
1
  6
Continuous
 62
     2
100
AcDbLine
 10
-68.80177865188125
 20
-94.62339990768865
 30
0.0
 11
-68.80177865188125
 21
-108.2653824624736
 31
0.0
  0
SOLID
  5
19B
330
196
100
AcDbEntity
  8
1
 62
     2
100
AcDbTrace
 10
-75.30177865188125
 20
-105.8045987209177
 30
0.0
 11
-75.30177865188125
 21
-106.7261662040295
 31
0.0
 12
-78.80177865188125
 22
-106.2653824624736
 32
0.0
 13
-78.80177865188125
 23
-106.2653824624736
 33
0.0
  0
SOLID
  5
19C
330
196
100
AcDbEntity
  8
1
 62
     2
100
AcDbTrace
 10
-72.30177865188125
 20
-106.7261662040295
 30
0.0
 11
-72.30177865188125
 21
-105.8045987209177
 31
0.0
 12
-68.80177865188125
 22
-106.2653824624736
 32
0.0
 13
-68.80177865188125
 23
-106.2653824624736
 33
0.0
  0
MTEXT
  5
19D
330
196
100
AcDbEntity
  8
1
 62
     2
100
AcDbMText
 10
-113.9978948267625
 20
-104.2654242049315
 30
0.0
 40
3.5
 41
0.0
 71
     7
 72
     1
  1
\C2;10mm (\C2;0.394\C2;``)
  7
CONVERTER_11
 11
0.9999999999970619
 21
2.424068405545306E-6
 31
0.0
 73
     1
 44
0.60024009603842
  0
ENDBLK
  5
19F
330
196
100
AcDbEntity
  8
0
100
AcDbBlockEnd
  0
BLOCK
  5
1AB
330
1A2
100
AcDbEntity
  8
0
100
AcDbBlockBegin
  2
*D10
 70
     1
 10
0.0
 20
0.0
 30
0.0
  3
*D10
  1

  0
LINE
  5
1A3
330
1A2
100
AcDbEntity
  8
1
  6
Continuous
 62
     2
100
AcDbLine
 10
-68.80177865188128
 20
-118.2833961103276
 30
0.0
 11
-92.80488390961865
 21
-118.2833961103276
 31
0.0
  0
LINE
  5
1A4
330
1A2
100
AcDbEntity
  8
1
  6
Continuous
 62
     2
100
AcDbLine
 10
-92.80488390961865
 20
-118.2833961103276
 30
0.0
 11
-129.8697441980756
 21
-118.2833961103276
 31
0.0
  0
LINE
  5
1A5
330
1A2
100
AcDbEntity
  8
1
  6
Continuous
 62
     2
100
AcDbLine
 10
-68.80177865188128
 20
-72.12339990768865
 30
0.0
 11
-68.80177865188128
 21
-120.2833961103276
 31
0.0
  0
LINE
  5
1A6
330
1A2
100
AcDbEntity
  8
1
  6
Continuous
 62
     2
100
AcDbLine
 10
-92.80488390961865
 20
-109.003953587995
 30
0.0
 11
-92.80488390961865
 21
-120.2833961103276
 31
0.0
  0
LINE
  5
1A7
330
1A2
100
AcDbEntity
  8
1
  6
Continuous
 62
     2
100
AcDbLine
 10
-92.80488390961865
 20
-60.62339990768861
 30
0.0
 11
-92.80488390961865
 21
-98.2218692705297
 31
0.0
  0
SOLID
  5
1A8
330
1A2
100
AcDbEntity
  8
1
 62
     2
100
AcDbTrace
 10
-72.30177865188128
 20
-118.7441798518835
 30
0.0
 11
-72.30177865188128
 21
-117.8226123687717
 31
0.0
 12
-68.80177865188128
 22
-118.2833961103276
 32
0.0
 13
-68.80177865188128
 23
-118.2833961103276
 33
0.0
  0
SOLID
  5
1A9
330
1A2
100
AcDbEntity
  8
1
 62
     2
100
AcDbTrace
 10
-89.30488390961865
 20
-117.8226123687717
 30
0.0
 11
-89.30488390961865
 21
-118.7441798518835
 31
0.0
 12
-92.80488390961865
 22
-118.2833961103276
 32
0.0
 13
-92.80488390961865
 23
-118.2833961103276
 33
0.0
  0
MTEXT
  5
1AA
330
1A2
100
AcDbEntity
  8
1
 62
     2
100
AcDbMText
 10
-128.714744198025
 20
-116.2834378527855
 30
0.0
 40
3.5
 41
0.0
 71
     7
 72
     1
  1
\C2;24mm (\C2;0.945\C2;``)
  7
CONVERTER_11
 11
0.9999999999970619
 21
2.424068405545306E-6
 31
0.0
 73
     1
 44
0.60024009603842
  0
ENDBLK
  5
1AC
330
1A2
100
AcDbEntity
  8
0
100
AcDbBlockEnd
  0
BLOCK
  5
1B7
330
1AF
100
AcDbEntity
  8
0
100
AcDbBlockBegin
  2
*D11
 70
     1
 10
0.0
 20
0.0
 30
0.0
  3
*D11
  1

  0
LINE
  5
1B0
330
1AF
100
AcDbEntity
  8
1
  6
Continuous
 62
     2
100
AcDbLine
 10
221.7841646002617
 20
18.3048182481224
 30
0.0
 11
177.9119338369392
 21
18.3048182481224
 31
0.0
  0
LINE
  5
1B1
330
1AF
100
AcDbEntity
  8
1
  6
Continuous
 62
     2
100
AcDbLine
 10
177.9119338369392
 20
18.3048182481224
 30
0.0
 11
161.9119338369392
 21
18.3048182481224
 31
0.0
  0
LINE
  5
1B2
330
1AF
100
AcDbEntity
  8
1
  6
Continuous
 62
     2
100
AcDbLine
 10
177.9119338369392
 20
-46.62339990768865
 30
0.0
 11
177.9119338369392
 21
20.3048182481224
 31
0.0
  0
LINE
  5
1B3
330
1AF
100
AcDbEntity
  8
1
  6
Continuous
 62
     2
100
AcDbLine
 10
161.9119338369392
 20
5.37660009231135
 30
0.0
 11
161.9119338369392
 21
20.3048182481224
 31
0.0
  0
SOLID
  5
1B4
330
1AF
100
AcDbEntity
  8
1
 62
     2
100
AcDbTrace
 10
174.4119338369392
 20
17.84403450656652
 30
0.0
 11
174.4119338369392
 21
18.76560198967829
 31
0.0
 12
177.9119338369392
 22
18.3048182481224
 32
0.0
 13
177.9119338369392
 23
18.3048182481224
 33
0.0
  0
SOLID
  5
1B5
330
1AF
100
AcDbEntity
  8
1
 62
     2
100
AcDbTrace
 10
165.4119338369392
 20
18.76560198967829
 30
0.0
 11
165.4119338369392
 21
17.84403450656652
 31
0.0
 12
161.9119338369392
 22
18.3048182481224
 32
0.0
 13
161.9119338369392
 23
18.3048182481224
 33
0.0
  0
MTEXT
  5
1B6
330
1AF
100
AcDbEntity
  8
1
 62
     2
100
AcDbMText
 10
187.1516646003123
 20
20.30477650566446
 30
0.0
 40
3.5
 41
0.0
 71
     7
 72
     1
  1
\C2;16mm (\C2;0.630\C2;``)
  7
CONVERTER_11
 11
0.9999999999970619
 21
2.424068405545306E-6
 31
0.0
 73
     1
 44
0.60024009603842
  0
ENDBLK
  5
1B8
330
1AF
100
AcDbEntity
  8
0
100
AcDbBlockEnd
  0
BLOCK
  5
1C3
330
1BB
100
AcDbEntity
  8
0
100
AcDbBlockBegin
  2
*D12
 70
     1
 10
0.0
 20
0.0
 30
0.0
  3
*D12
  1

  0
LINE
  5
1BC
330
1BB
100
AcDbEntity
  8
1
  6
Continuous
 62
     2
100
AcDbLine
 10
222.9729517945569
 20
-116.781584343866
 30
0.0
 11
179.9119338369392
 21
-116.781584343866
 31
0.0
  0
LINE
  5
1BD
330
1BB
100
AcDbEntity
  8
1
  6
Continuous
 62
     2
100
AcDbLine
 10
179.9119338369392
 20
-116.781584343866
 30
0.0
 11
161.9119338369392
 21
-116.781584343866
 31
0.0
  0
LINE
  5
1BE
330
1BB
100
AcDbEntity
  8
1
  6
Continuous
 62
     2
100
AcDbLine
 10
179.9119338369392
 20
-63.12339990768865
 30
0.0
 11
179.9119338369392
 21
-118.781584343866
 31
0.0
  0
LINE
  5
1BF
330
1BB
100
AcDbEntity
  8
1
  6
Continuous
 62
     2
100
AcDbLine
 10
161.9119338369392
 20
-63.12339990768867
 30
0.0
 11
161.9119338369392
 21
-118.781584343866
 31
0.0
  0
SOLID
  5
1C0
330
1BB
100
AcDbEntity
  8
1
 62
     2
100
AcDbTrace
 10
176.4119338369392
 20
-117.2423680854219
 30
0.0
 11
176.4119338369392
 21
-116.3208006023101
 31
0.0
 12
179.9119338369392
 22
-116.781584343866
 32
0.0
 13
179.9119338369392
 23
-116.781584343866
 33
0.0
  0
SOLID
  5
1C1
330
1BB
100
AcDbEntity
  8
1
 62
     2
100
AcDbTrace
 10
165.4119338369392
 20
-116.3208006023101
 30
0.0
 11
165.4119338369392
 21
-117.2423680854219
 31
0.0
 12
161.9119338369392
 22
-116.781584343866
 32
0.0
 13
161.9119338369392
 23
-116.781584343866
 33
0.0
  0
MTEXT
  5
1C2
330
1BB
100
AcDbEntity
  8
1
 62
     2
100
AcDbMText
 10
188.3404517946075
 20
-114.7816260863239
 30
0.0
 40
3.5
 41
0.0
 71
     7
 72
     1
  1
\C2;18mm (\C2;0.709\C2;``)
  7
CONVERTER_11
 11
0.9999999999970619
 21
2.424068405545306E-6
 31
0.0
 73
     1
 44
0.60024009603842
  0
ENDBLK
  5
1C4
330
1BB
100
AcDbEntity
  8
0
100
AcDbBlockEnd
  0
BLOCK
  5
1D0
330
1C7
100
AcDbEntity
  8
0
100
AcDbBlockBegin
  2
*D13
 70
     1
 10
0.0
 20
0.0
 30
0.0
  3
*D13
  1

  0
LINE
  5
1C8
330
1C7
100
AcDbEntity
  8
1
  6
Continuous
 62
     2
100
AcDbLine
 10
222.0976225289399
 20
-105.781584343866
 30
0.0
 11
183.9119338369392
 21
-105.781584343866
 31
0.0
  0
LINE
  5
1C9
330
1C7
100
AcDbEntity
  8
1
  6
Continuous
 62
     2
100
AcDbLine
 10
183.9119338369392
 20
-105.781584343866
 30
0.0
 11
179.9119338369392
 21
-105.781584343866
 31
0.0
  0
LINE
  5
1CA
330
1C7
100
AcDbEntity
  8
1
  6
Continuous
 62
     2
100
AcDbLine
 10
179.9119338369392
 20
-105.781584343866
 30
0.0
 11
172.9119338369392
 21
-105.781584343866
 31
0.0
  0
LINE
  5
1CB
330
1C7
100
AcDbEntity
  8
1
  6
Continuous
 62
     2
100
AcDbLine
 10
183.9119338369392
 20
-94.62339990768866
 30
0.0
 11
183.9119338369392
 21
-107.781584343866
 31
0.0
  0
LINE
  5
1CC
330
1C7
100
AcDbEntity
  8
1
  6
Continuous
 62
     2
100
AcDbLine
 10
179.9119338369392
 20
-63.12339990768859
 30
0.0
 11
179.9119338369392
 21
-107.781584343866
 31
0.0
  0
SOLID
  5
1CD
330
1C7
100
AcDbEntity
  8
1
 62
     2
100
AcDbTrace
 10
187.4119338369392
 20
-105.3208006023101
 30
0.0
 11
187.4119338369392
 21
-106.2423680854219
 31
0.0
 12
183.9119338369392
 22
-105.781584343866
 32
0.0
 13
183.9119338369392
 23
-105.781584343866
 33
0.0
  0
SOLID
  5
1CE
330
1C7
100
AcDbEntity
  8
1
 62
     2
100
AcDbTrace
 10
176.4119338369392
 20
-106.2423680854219
 30
0.0
 11
176.4119338369392
 21
-105.3208006023101
 31
0.0
 12
179.9119338369392
 22
-105.781584343866
 32
0.0
 13
179.9119338369392
 23
-105.781584343866
 33
0.0
  0
MTEXT
  5
1CF
330
1C7
100
AcDbEntity
  8
1
 62
     2
100
AcDbMText
 10
191.3851225289821
 20
-103.7816191292476
 30
0.0
 40
3.5
 41
0.0
 71
     7
 72
     1
  1
\C2;4mm (\C2;0.157\C2;``)
  7
CONVERTER_11
 11
0.9999999999970619
 21
2.424068405545306E-6
 31
0.0
 73
     1
 44
0.60024009603842
  0
ENDBLK
  5
1D1
330
1C7
100
AcDbEntity
  8
0
100
AcDbBlockEnd
  0
BLOCK
  5
1DC
330
1D4
100
AcDbEntity
  8
0
100
AcDbBlockBegin
  2
*D14
 70
     1
 10
0.0
 20
0.0
 30
0.0
  3
*D14
  1

  0
LINE
  5
1D5
330
1D4
100
AcDbEntity
  8
1
  6
Continuous
 62
     2
100
AcDbLine
 10
-168.1092983114338
 20
-119.5759847602375
 30
0.0
 11
-189.1092983114338
 21
-119.5759847602375
 31
0.0
  0
LINE
  5
1D6
330
1D4
100
AcDbEntity
  8
1
  6
Continuous
 62
     2
100
AcDbLine
 10
-189.1092983114338
 20
-119.5759847602375
 30
0.0
 11
-225.2139842178087
 21
-119.5759847602375
 31
0.0
  0
LINE
  5
1D7
330
1D4
100
AcDbEntity
  8
1
  6
Continuous
 62
     2
100
AcDbLine
 10
-168.1092983114338
 20
-61.62339990768865
 30
0.0
 11
-168.1092983114338
 21
-121.5759847602375
 31
0.0
  0
LINE
  5
1D8
330
1D4
100
AcDbEntity
  8
1
  6
Continuous
 62
     2
100
AcDbLine
 10
-189.1092983114338
 20
-61.62339990768865
 30
0.0
 11
-189.1092983114338
 21
-121.5759847602375
 31
0.0
  0
SOLID
  5
1D9
330
1D4
100
AcDbEntity
  8
1
 62
     2
100
AcDbTrace
 10
-171.6092983114338
 20
-120.0367685017934
 30
0.0
 11
-171.6092983114338
 21
-119.1152010186816
 31
0.0
 12
-168.1092983114338
 22
-119.5759847602375
 32
0.0
 13
-168.1092983114338
 23
-119.5759847602375
 33
0.0
  0
SOLID
  5
1DA
330
1D4
100
AcDbEntity
  8
1
 62
     2
100
AcDbTrace
 10
-185.6092983114338
 20
-119.1152010186816
 30
0.0
 11
-185.6092983114338
 21
-120.0367685017934
 31
0.0
 12
-189.1092983114338
 22
-119.5759847602375
 32
0.0
 13
-189.1092983114338
 23
-119.5759847602375
 33
0.0
  0
MTEXT
  5
1DB
330
1D4
100
AcDbEntity
  8
1
 62
     2
100
AcDbMText
 10
-225.1089842177581
 20
-117.5760265026954
 30
0.0
 40
3.5
 41
0.0
 71
     7
 72
     1
  1
\C2;21mm (\C2;0.827\C2;``)
  7
CONVERTER_11
 11
0.9999999999970619
 21
2.424068405545306E-6
 31
0.0
 73
     1
 44
0.60024009603842
  0
ENDBLK
  5
1DD
330
1D4
100
AcDbEntity
  8
0
100
AcDbBlockEnd
  0
BLOCK
  5
1E8
330
1E0
100
AcDbEntity
  8
0
100
AcDbBlockBegin
  2
*D15
 70
     1
 10
0.0
 20
0.0
 30
0.0
  3
*D15
  1

  0
LINE
  5
1E1
330
1E0
100
AcDbEntity
  8
1
  6
Continuous
 62
     2
100
AcDbLine
 10
-229.9202973033972
 20
28.4188748070954
 30
0.0
 11
-186.1092983114338
 21
28.4188748070954
 31
0.0
  0
LINE
  5
1E2
330
1E0
100
AcDbEntity
  8
1
  6
Continuous
 62
     2
100
AcDbLine
 10
-186.1092983114338
 20
28.4188748070954
 30
0.0
 11
-168.1092983114338
 21
28.4188748070954
 31
0.0
  0
LINE
  5
1E3
330
1E0
100
AcDbEntity
  8
1
  6
Continuous
 62
     2
100
AcDbLine
 10
-186.1092983114338
 20
62.37660009231134
 30
0.0
 11
-186.1092983114338
 21
26.4188748070954
 31
0.0
  0
LINE
  5
1E4
330
1E0
100
AcDbEntity
  8
1
  6
Continuous
 62
     2
100
AcDbLine
 10
-168.1092983114338
 20
72.37660009231135
 30
0.0
 11
-168.1092983114338
 21
26.4188748070954
 31
0.0
  0
SOLID
  5
1E5
330
1E0
100
AcDbEntity
  8
1
 62
     2
100
AcDbTrace
 10
-182.6092983114338
 20
28.87965854865129
 30
0.0
 11
-182.6092983114338
 21
27.95809106553951
 31
0.0
 12
-186.1092983114338
 22
28.4188748070954
 32
0.0
 13
-186.1092983114338
 23
28.4188748070954
 33
0.0
  0
SOLID
  5
1E6
330
1E0
100
AcDbEntity
  8
1
 62
     2
100
AcDbTrace
 10
-171.6092983114338
 20
27.95809106553951
 30
0.0
 11
-171.6092983114338
 21
28.87965854865129
 31
0.0
 12
-168.1092983114338
 22
28.4188748070954
 32
0.0
 13
-168.1092983114338
 23
28.4188748070954
 33
0.0
  0
MTEXT
  5
1E7
330
1E0
100
AcDbEntity
  8
1
 62
     2
100
AcDbMText
 10
-229.8152973033466
 20
30.41883306463746
 30
0.0
 40
3.5
 41
0.0
 71
     7
 72
     1
  1
\C2;18mm (\C2;0.709\C2;``)
  7
CONVERTER_11
 11
0.9999999999970619
 21
2.424068405545306E-6
 31
0.0
 73
     1
 44
0.60024009603842
  0
ENDBLK
  5
1E9
330
1E0
100
AcDbEntity
  8
0
100
AcDbBlockEnd
  0
BLOCK
  5
1F3
330
1EC
100
AcDbEntity
  8
0
100
AcDbBlockBegin
  2
*D16
 70
     1
 10
0.0
 20
0.0
 30
0.0
  3
*D16
  1

  0
LINE
  5
1ED
330
1EC
100
AcDbEntity
  8
1
  6
Continuous
 62
     2
100
AcDbLine
 10
-119.887717566138
 20
82.87660009231135
 30
0.0
 11
-119.887717566138
 21
-72.12339990768865
 31
0.0
  0
LINE
  5
1EE
330
1EC
100
AcDbEntity
  8
1
  6
Continuous
 62
     2
100
AcDbLine
 10
-178.6092983114338
 20
82.87660009231135
 30
0.0
 11
-117.887717566138
 21
82.87660009231135
 31
0.0
  0
LINE
  5
1EF
330
1EC
100
AcDbEntity
  8
1
  6
Continuous
 62
     2
100
AcDbLine
 10
-178.6092983114338
 20
-72.12339990768865
 30
0.0
 11
-117.887717566138
 21
-72.12339990768865
 31
0.0
  0
SOLID
  5
1F0
330
1EC
100
AcDbEntity
  8
1
 62
     2
100
AcDbTrace
 10
-119.4269338245821
 20
79.37660009231135
 30
0.0
 11
-120.3485013076939
 21
79.37660009231135
 31
0.0
 12
-119.887717566138
 22
82.87660009231135
 32
0.0
 13
-119.887717566138
 23
82.87660009231135
 33
0.0
  0
SOLID
  5
1F1
330
1EC
100
AcDbEntity
  8
1
 62
     2
100
AcDbTrace
 10
-120.3485013076939
 20
-68.62339990768865
 30
0.0
 11
-119.4269338245821
 21
-68.62339990768865
 31
0.0
 12
-119.887717566138
 22
-72.12339990768865
 32
0.0
 13
-119.887717566138
 23
-72.12339990768865
 33
0.0
  0
MTEXT
  5
1F2
330
1EC
100
AcDbEntity
  8
1
 62
     2
100
AcDbMText
 10
-121.887717566138
 20
-11.21388769335792
 30
0.0
 40
3.5
 41
0.0
 71
     7
 72
     1
  1
\C2;155mm (\C2;6.102\C2;``)
  7
CONVERTER_11
 11
0.0
 21
1.0
 31
0.0
 73
     1
 44
0.60024009603842
  0
ENDBLK
  5
1F4
330
1EC
100
AcDbEntity
  8
0
100
AcDbBlockEnd
  0
BLOCK
  5
1FE
330
1F7
100
AcDbEntity
  8
0
100
AcDbBlockBegin
  2
*D17
 70
     1
 10
0.0
 20
0.0
 30
0.0
  3
*D17
  1

  0
LINE
  5
1F8
330
1F7
100
AcDbEntity
  8
1
  6
Continuous
 62
     2
100
AcDbLine
 10
-151.908988527876
 20
71.37660009231135
 30
0.0
 11
-151.908988527876
 21
-60.62339990768865
 31
0.0
  0
LINE
  5
1F9
330
1F7
100
AcDbEntity
  8
1
  6
Continuous
 62
     2
100
AcDbLine
 10
-177.1092983114338
 20
71.37660009231135
 30
0.0
 11
-149.908988527876
 21
71.37660009231135
 31
0.0
  0
LINE
  5
1FA
330
1F7
100
AcDbEntity
  8
1
  6
Continuous
 62
     2
100
AcDbLine
 10
-177.1092983114338
 20
-60.62339990768865
 30
0.0
 11
-149.908988527876
 21
-60.62339990768865
 31
0.0
  0
SOLID
  5
1FB
330
1F7
100
AcDbEntity
  8
1
 62
     2
100
AcDbTrace
 10
-151.4482047863201
 20
67.87660009231135
 30
0.0
 11
-152.3697722694319
 21
67.87660009231135
 31
0.0
 12
-151.908988527876
 22
71.37660009231135
 32
0.0
 13
-151.908988527876
 23
71.37660009231135
 33
0.0
  0
SOLID
  5
1FC
330
1F7
100
AcDbEntity
  8
1
 62
     2
100
AcDbTrace
 10
-152.3697722694319
 20
-57.12339990768865
 30
0.0
 11
-151.4482047863201
 21
-57.12339990768865
 31
0.0
 12
-151.908988527876
 22
-60.62339990768865
 32
0.0
 13
-151.908988527876
 23
-60.62339990768865
 33
0.0
  0
MTEXT
  5
1FD
330
1F7
100
AcDbEntity
  8
1
 62
     2
100
AcDbMText
 10
-153.908988527876
 20
-13.40874256378124
 30
0.0
 40
3.5
 41
0.0
 71
     7
 72
     1
  1
\C2;132mm (\C2;5.197\C2;``)
  7
CONVERTER_11
 11
0.0
 21
1.0
 31
0.0
 73
     1
 44
0.60024009603842
  0
ENDBLK
  5
1FF
330
1F7
100
AcDbEntity
  8
0
100
AcDbBlockEnd
  0
BLOCK
  5
20B
330
202
100
AcDbEntity
  8
0
100
AcDbBlockBegin
  2
*D18
 70
     1
 10
0.0
 20
0.0
 30
0.0
  3
*D18
  1

  0
LINE
  5
203
330
202
100
AcDbEntity
  8
1
  6
Continuous
 62
     2
100
AcDbLine
 10
-224.888007011963
 20
-107.635225276103
 30
0.0
 11
-192.1092983114338
 21
-107.635225276103
 31
0.0
  0
LINE
  5
204
330
202
100
AcDbEntity
  8
1
  6
Continuous
 62
     2
100
AcDbLine
 10
-192.1092983114338
 20
-107.635225276103
 30
0.0
 11
-189.1092983114338
 21
-107.635225276103
 31
0.0
  0
LINE
  5
205
330
202
100
AcDbEntity
  8
1
  6
Continuous
 62
     2
100
AcDbLine
 10
-189.1092983114338
 20
-107.635225276103
 30
0.0
 11
-182.1092983114338
 21
-107.635225276103
 31
0.0
  0
LINE
  5
206
330
202
100
AcDbEntity
  8
1
  6
Continuous
 62
     2
100
AcDbLine
 10
-192.1092983114338
 20
-94.62339990768865
 30
0.0
 11
-192.1092983114338
 21
-109.635225276103
 31
0.0
  0
LINE
  5
207
330
202
100
AcDbEntity
  8
1
  6
Continuous
 62
     2
100
AcDbLine
 10
-189.1092983114338
 20
-61.62339990768865
 30
0.0
 11
-189.1092983114338
 21
-109.635225276103
 31
0.0
  0
SOLID
  5
208
330
202
100
AcDbEntity
  8
1
 62
     2
100
AcDbTrace
 10
-195.6092983114338
 20
-108.0960090176589
 30
0.0
 11
-195.6092983114338
 21
-107.1744415345471
 31
0.0
 12
-192.1092983114338
 22
-107.635225276103
 32
0.0
 13
-192.1092983114338
 23
-107.635225276103
 33
0.0
  0
SOLID
  5
209
330
202
100
AcDbEntity
  8
1
 62
     2
100
AcDbTrace
 10
-185.6092983114338
 20
-107.1744415345471
 30
0.0
 11
-185.6092983114338
 21
-108.0960090176589
 31
0.0
 12
-189.1092983114338
 22
-107.635225276103
 32
0.0
 13
-189.1092983114338
 23
-107.635225276103
 33
0.0
  0
MTEXT
  5
20A
330
202
100
AcDbEntity
  8
1
 62
     2
100
AcDbMText
 10
-224.0130070119208
 20
-105.6352600614846
 30
0.0
 40
3.5
 41
0.0
 71
     7
 72
     1
  1
\C2;3mm (\C2;0.118\C2;``)
  7
CONVERTER_11
 11
0.9999999999970619
 21
2.424068405545306E-6
 31
0.0
 73
     1
 44
0.60024009603842
  0
ENDBLK
  5
20C
330
202
100
AcDbEntity
  8
0
100
AcDbBlockEnd
  0
BLOCK
  5
216
330
20F
100
AcDbEntity
  8
0
100
AcDbBlockBegin
  2
*D19
 70
     1
 10
0.0
 20
0.0
 30
0.0
  3
*D19
  1

  0
LINE
  5
210
330
20F
100
AcDbEntity
  8
1
  6
Continuous
 62
     2
100
AcDbLine
 10
-129.185402709083
 20
76.37660009231135
 30
0.0
 11
-129.185402709083
 21
-65.62339990768865
 31
0.0
  0
LINE
  5
211
330
20F
100
AcDbEntity
  8
1
  6
Continuous
 62
     2
100
AcDbLine
 10
-176.8592983114338
 20
76.37660009231135
 30
0.0
 11
-127.185402709083
 21
76.37660009231135
 31
0.0
  0
LINE
  5
212
330
20F
100
AcDbEntity
  8
1
  6
Continuous
 62
     2
100
AcDbLine
 10
-176.8592983114338
 20
-65.62339990768865
 30
0.0
 11
-127.185402709083
 21
-65.62339990768865
 31
0.0
  0
SOLID
  5
213
330
20F
100
AcDbEntity
  8
1
 62
     2
100
AcDbTrace
 10
-128.7246189675271
 20
72.87660009231135
 30
0.0
 11
-129.6461864506389
 21
72.87660009231135
 31
0.0
 12
-129.185402709083
 22
76.37660009231135
 32
0.0
 13
-129.185402709083
 23
76.37660009231135
 33
0.0
  0
SOLID
  5
214
330
20F
100
AcDbEntity
  8
1
 62
     2
100
AcDbTrace
 10
-129.6461864506389
 20
-62.12339990768865
 30
0.0
 11
-128.7246189675271
 21
-62.12339990768865
 31
0.0
 12
-129.185402709083
 22
-65.62339990768865
 32
0.0
 13
-129.185402709083
 23
-65.62339990768865
 33
0.0
  0
MTEXT
  5
215
330
20F
100
AcDbEntity
  8
1
 62
     2
100
AcDbMText
 10
-131.185402709083
 20
-10.3998635358775
 30
0.0
 40
3.5
 41
0.0
 71
     7
 72
     1
  1
\C2;142mm (\C2;5.591\C2;``)
  7
CONVERTER_11
 11
0.0
 21
1.0
 31
0.0
 73
     1
 44
0.60024009603842
  0
ENDBLK
  5
217
330
20F
100
AcDbEntity
  8
0
100
AcDbBlockEnd
  0
BLOCK
  5
21E
330
21A
100
AcDbEntity
  8
0
100
AcDbBlockBegin
  2
*D20
 70
     1
 10
0.0
 20
0.0
 30
0.0
  3
*D20
  1

  0
LINE
  5
21B
330
21A
100
AcDbEntity
  8
1
  6
Continuous
 62
     2
100
AcDbLine
 10
-185.2463774385907
 20
66.22210958760415
 30
0.0
 11
-229.9976874243569
 21
87.37117115967513
 31
0.0
  0
SOLID
  5
21C
330
21A
100
AcDbEntity
  8
1
 62
     2
100
AcDbTrace
 10
-188.6076802384217
 20
67.30098175071275
 30
0.0
 11
-188.2139139598818
 21
68.13418925416778
 31
0.0
 12
-185.2463774385907
 22
66.22210958760415
 32
0.0
 13
-185.2463774385907
 23
66.22210958760415
 33
0.0
  0
MTEXT
  5
21D
330
21A
100
AcDbEntity
  8
1
 62
     2
100
AcDbMText
 10
-227.7824293046951
 20
88.53635632233048
 30
0.0
 40
3.5
 41
0.0
 71
     7
 72
     1
  1
\C2;R9mm (\C2;0.354\C2;``)
  7
CONVERTER_11
 11
0.9041199030174363
 21
-0.4272788328103109
 31
0.0
 73
     1
 44
0.60024009603842
  0
ENDBLK
  5
21F
330
21A
100
AcDbEntity
  8
0
100
AcDbBlockEnd
  0
BLOCK
  5
227
330
221
100
AcDbEntity
  8
0
100
AcDbBlockBegin
  2
*D21
 70
     1
 10
0.0
 20
0.0
 30
0.0
  3
*D21
  1

  0
LINE
  5
222
330
221
100
AcDbEntity
  8
1
  6
Continuous
 62
     2
100
AcDbLine
 10
118.8471069751245
 20
-100.9221226813702
 30
0.0
 11
163.2098835904779
 21
-66.95347736537484
 31
0.0
  0
LINE
  5
223
330
221
100
AcDbEntity
  8
1
  6
Continuous
 62
     2
100
AcDbLine
 10
173.2139840834006
 20
-59.29332245000248
 30
0.0
 11
177.382359288785
 21
-56.101591235264
 31
0.0
  0
SOLID
  5
224
330
221
100
AcDbEntity
  8
1
 62
     2
100
AcDbTrace
 10
160.7110997109202
 20
-69.44714951298066
 30
0.0
 11
160.1508338628562
 21
-68.71544683742034
 31
0.0
 12
163.2098835904779
 22
-66.95347736537484
 32
0.0
 13
163.2098835904779
 23
-66.95347736537484
 33
0.0
  0
SOLID
  5
225
330
221
100
AcDbEntity
  8
1
 62
     2
100
AcDbTrace
 10
175.7127679629582
 20
-56.79965030239666
 30
0.0
 11
176.2730338110222
 21
-57.53135297795698
 31
0.0
 12
173.2139840834006
 22
-59.29332245000248
 32
0.0
 13
173.2139840834006
 23
-59.29332245000248
 33
0.0
  0
MTEXT
  5
226
330
221
100
AcDbEntity
  8
1
 62
     2
100
AcDbMText
 10
117.6312093695099
 20
-99.3341702221761
 30
0.0
 40
3.5
 41
0.0
 71
     7
 72
     1
  1
cutter\U+00f81/2``
  7
CONVERTER_11
 11
0.7939762295970404
 21
0.6079488028073319
 31
0.0
 73
     1
 44
0.60024009603842
  0
ENDBLK
  5
228
330
221
100
AcDbEntity
  8
0
100
AcDbBlockEnd
  0
BLOCK
  5
230
330
22A
100
AcDbEntity
  8
0
100
AcDbBlockBegin
  2
*D22
 70
     1
 10
0.0
 20
0.0
 30
0.0
  3
*D22
  1

  0
LINE
  5
22B
330
22A
100
AcDbEntity
  8
1
  6
Continuous
 62
     2
100
AcDbLine
 10
-127.8666433823792
 20
-98.71144205176748
 30
0.0
 11
-169.4816757426716
 21
-65.56068221354658
 31
0.0
  0
LINE
  5
22C
330
22A
100
AcDbEntity
  8
1
  6
Continuous
 62
     2
100
AcDbLine
 10
-179.336920880196
 20
-57.70994063842769
 30
0.0
 11
-183.4432730208312
 21
-54.43879831546147
 31
0.0
  0
SOLID
  5
22D
330
22A
100
AcDbEntity
  8
1
 62
     2
100
AcDbTrace
 10
-166.4570049443932
 20
-67.38103608533204
 30
0.0
 11
-167.0312103534363
 21
-68.10185143904936
 31
0.0
 12
-169.4816757426716
 22
-65.56068221354658
 32
0.0
 13
-169.4816757426716
 23
-65.56068221354658
 33
0.0
  0
SOLID
  5
22E
330
22A
100
AcDbEntity
  8
1
 62
     2
100
AcDbTrace
 10
-182.3615916784744
 20
-55.88958676664221
 30
0.0
 11
-181.7873862694313
 21
-55.16877141292491
 31
0.0
 12
-179.336920880196
 22
-57.70994063842769
 32
0.0
 13
-179.336920880196
 23
-57.70994063842769
 33
0.0
  0
MTEXT
  5
22F
330
22A
100
AcDbEntity
  8
1
 62
     2
100
AcDbMText
 10
-150.5057755440391
 20
-78.1199729148434
 30
0.0
 40
3.5
 41
0.0
 71
     7
 72
     1
  1
cutter \U+00f81/2``
  7
CONVERTER_11
 11
0.78216231250194
 21
-0.6230747281840417
 31
0.0
 73
     1
 44
0.60024009603842
  0
ENDBLK
  5
231
330
22A
100
AcDbEntity
  8
0
100
AcDbBlockEnd
  0
BLOCK
  5
239
330
233
100
AcDbEntity
  8
0
100
AcDbBlockBegin
  2
*D23
 70
     1
 10
0.0
 20
0.0
 30
0.0
  3
*D23
  1

  0
LINE
  5
234
330
233
100
AcDbEntity
  8
1
  6
Continuous
 62
     2
100
AcDbLine
 10
218.4698338696126
 20
101.3454157379563
 30
0.0
 11
172.2400201388353
 21
77.0738710401616
 31
0.0
  0
LINE
  5
235
330
233
100
AcDbEntity
  8
1
  6
Continuous
 62
     2
100
AcDbLine
 10
169.5838475350431
 20
75.6793291444611
 30
0.0
 11
164.9355454784068
 21
73.23888082698522
 31
0.0
  0
SOLID
  5
236
330
233
100
AcDbEntity
  8
1
 62
     2
100
AcDbTrace
 10
175.124694099107
 20
79.10881030201008
 30
0.0
 11
175.5530822540786
 21
78.29286286828102
 31
0.0
 12
172.2400201388353
 22
77.0738710401616
 32
0.0
 13
172.2400201388353
 23
77.0738710401616
 33
0.0
  0
SOLID
  5
237
330
233
100
AcDbEntity
  8
1
 62
     2
100
AcDbTrace
 10
166.6991735747714
 20
73.64438988261261
 30
0.0
 11
166.2707854197998
 21
74.46033731634168
 31
0.0
 12
169.5838475350431
 22
75.6793291444611
 32
0.0
 13
169.5838475350431
 23
75.6793291444611
 33
0.0
  0
MTEXT
  5
238
330
233
100
AcDbEntity
  8
1
 62
     2
100
AcDbMText
 10
186.1950890705616
 20
86.65944098630538
 30
0.0
 40
3.5
 41
0.0
 71
     7
 72
     1
  1
\C2;\U+00f83mm (\C2;0.118\C2;``)
  7
CONVERTER_11
 11
0.8853908679307223
 21
0.4648472985668332
 31
0.0
 73
     1
 44
0.60024009603842
  0
ENDBLK
  5
23A
330
233
100
AcDbEntity
  8
0
100
AcDbBlockEnd
  0
BLOCK
  5
242
330
23C
100
AcDbEntity
  8
0
100
AcDbBlockBegin
  2
*D24
 70
     1
 10
0.0
 20
0.0
 30
0.0
  3
*D24
  1

  0
LINE
  5
23D
330
23C
100
AcDbEntity
  8
1
  6
Continuous
 62
     2
100
AcDbLine
 10
-158.0085659205448
 20
120.215270359122
 30
0.0
 11
-178.4587444701973
 21
77.72818423680714
 31
0.0
  0
LINE
  5
23E
330
23C
100
AcDbEntity
  8
1
  6
Continuous
 62
     2
100
AcDbLine
 10
-179.7598521526703
 20
75.02501594781556
 30
0.0
 11
-182.0367905969981
 21
70.29447144208027
 31
0.0
  0
SOLID
  5
23F
330
23C
100
AcDbEntity
  8
1
 62
     2
100
AcDbTrace
 10
-177.355977506731
 20
81.081723662663
 30
0.0
 11
-176.5255935078931
 21
80.68203748526497
 31
0.0
 12
-178.4587444701973
 22
77.72818423680714
 32
0.0
 13
-178.4587444701973
 23
77.72818423680714
 33
0.0
  0
SOLID
  5
240
330
23C
100
AcDbEntity
  8
1
 62
     2
100
AcDbTrace
 10
-180.8626191161366
 20
71.6714765219597
 30
0.0
 11
-181.6930031149744
 21
72.07116269935773
 31
0.0
 12
-179.7598521526703
 22
75.02501594781556
 32
0.0
 13
-179.7598521526703
 23
75.02501594781556
 33
0.0
  0
MTEXT
  5
241
330
23C
100
AcDbEntity
  8
1
 62
     2
100
AcDbMText
 10
-175.1648330227895
 20
89.18303703042912
 30
0.0
 40
3.5
 41
0.0
 71
     7
 72
     1
  1
\C2;\U+00f83mm (\C2;0.118\C2;``)
  7
CONVERTER_11
 11
0.4337025608243391
 21
0.9010560963305284
 31
0.0
 73
     1
 44
0.60024009603842
  0
ENDBLK
  5
243
330
23C
100
AcDbEntity
  8
0
100
AcDbBlockEnd
  0
ENDSEC
  0
SECTION
  2
ENTITIES
  0
POINT
  5
43
330
1F
100
AcDbEntity
  8
1
 62
     3
 60
     1
100
AcDbPoint
 10
168.2119338369392
 20
-71.12339990768865
 30
0.0
  0
POINT
  5
44
330
1F
100
AcDbEntity
  8
1
 62
     3
 60
     1
100
AcDbPoint
 10
168.2119338369392
 20
-55.12339990768866
 30
0.0
  0
POINT
  5
45
330
1F
100
AcDbEntity
  8
1
 62
     3
 60
     1
100
AcDbPoint
 10
168.2119338369392
 20
-63.12339990768866
 30
0.0
  0
POINT
  5
46
330
1F
100
AcDbEntity
  8
1
 62
     3
 60
     1
100
AcDbPoint
 10
-174.4092983114338
 20
-69.63531142598714
 30
0.0
  0
POINT
  5
47
330
1F
100
AcDbEntity
  8
1
 62
     3
 60
     1
100
AcDbPoint
 10
-174.4092983114338
 20
-53.63531142598714
 30
0.0
  0
POINT
  5
48
330
1F
100
AcDbEntity
  8
1
 62
     3
 60
     1
100
AcDbPoint
 10
-174.4092983114338
 20
-61.63531142598714
 30
0.0
  0
POINT
  5
49
330
1F
100
AcDbEntity
  8
1
 62
     3
 60
     1
100
AcDbPoint
 10
-179.1092983114338
 20
-65.62339990768865
 30
0.0
  0
POINT
  5
4A
330
1F
100
AcDbEntity
  8
1
 62
     3
 60
     1
100
AcDbPoint
 10
-179.1092983114338
 20
76.37660009231135
 30
0.0
  0
POINT
  5
4B
330
1F
100
AcDbEntity
  8
1
 62
     3
 60
     1
100
AcDbPoint
 10
177.9119338369392
 20
57.37660009231134
 30
0.0
  0
POINT
  5
4C
330
1F
100
AcDbEntity
  8
1
 62
     3
 60
     1
100
AcDbPoint
 10
170.9119338369392
 20
73.87660009231138
 30
0.0
  0
POINT
  5
4D
330
1F
100
AcDbEntity
  8
1
 62
     3
 60
     1
100
AcDbPoint
 10
29.3867936726667
 20
-60.69793997026319
 30
0.0
  0
POINT
  5
4E
330
1F
100
AcDbEntity
  8
1
 62
     3
 60
     1
100
AcDbPoint
 10
12.38679367266665
 20
-60.69793997026319
 30
0.0
  0
POINT
  5
4F
330
1F
100
AcDbEntity
  8
1
 62
     3
 60
     1
100
AcDbPoint
 10
177.9119338369392
 20
5.37660009231135
 30
0.0
  0
POINT
  5
50
330
1F
100
AcDbEntity
  8
1
 62
     3
 60
     1
100
AcDbPoint
 10
183.9119338369392
 20
73.87660009231138
 30
0.0
  0
POINT
  5
51
330
1F
100
AcDbEntity
  8
1
 62
     3
 60
     1
100
AcDbPoint
 10
155.2482796794875
 20
73.87660009231136
 30
0.0
  0
POINT
  5
52
330
1F
100
AcDbEntity
  8
1
 62
     3
 60
     1
100
AcDbPoint
 10
15.38679367266695
 20
-26.69793997026321
 30
0.0
  0
POINT
  5
53
330
1F
100
AcDbEntity
  8
1
 62
     3
 60
     1
100
AcDbPoint
 10
15.38679367266695
 20
-42.69793997026321
 30
0.0
  0
POINT
  5
54
330
1F
100
AcDbEntity
  8
1
 62
     3
 60
     1
100
AcDbPoint
 10
11.88679367266695
 20
-42.69793997026321
 30
0.0
  0
POINT
  5
55
330
1F
100
AcDbEntity
  8
1
 62
     3
 60
     1
100
AcDbPoint
 10
-11.1132063273331
 20
-59.6979399702632
 30
0.0
  0
POINT
  5
56
330
1F
100
AcDbEntity
  8
1
 62
     3
 60
     1
100
AcDbPoint
 10
-25.11320632733309
 20
-59.6979399702632
 30
0.0
  0
LINE
  5
57
330
1F
100
AcDbEntity
  8
1
  6
DOT_CENTER
 62
     2
100
AcDbLine
 10
168.2119338369392
 20
-63.12339990768866
 30
0.0
 11
168.2119338369392
 21
-71.12339990768865
 31
0.0
  0
LINE
  5
58
330
1F
100
AcDbEntity
  8
1
  6
DOT_CENTER
 62
     2
100
AcDbLine
 10
168.2119338369392
 20
-63.12339990768866
 30
0.0
 11
168.2119338369392
 21
-55.12339990768866
 31
0.0
  0
LINE
  5
59
330
1F
100
AcDbEntity
  8
1
  6
DOT_CENTER
 62
     2
100
AcDbLine
 10
-174.4092983114338
 20
-61.63531142598714
 30
0.0
 11
-174.4092983114338
 21
-69.63531142598714
 31
0.0
  0
LINE
  5
5A
330
1F
100
AcDbEntity
  8
1
  6
DOT_CENTER
 62
     2
100
AcDbLine
 10
-174.4092983114338
 20
-61.63531142598714
 30
0.0
 11
-170.8092983114338
 21
-61.63531142598714
 31
0.0
  0
LINE
  5
5B
330
1F
100
AcDbEntity
  8
1
  6
DOT_CENTER
 62
     2
100
AcDbLine
 10
-174.4092983114338
 20
-61.63531142598714
 30
0.0
 11
-174.4092983114338
 21
-53.63531142598714
 31
0.0
  0
LINE
  5
5C
330
1F
100
AcDbEntity
  8
1
  6
DOT_CENTER
 62
     2
100
AcDbLine
 10
-170.8092983114338
 20
-61.63531142598714
 30
0.0
 11
-166.18830624847
 21
-61.63531142598714
 31
0.0
  0
LINE
  5
5D
330
1F
100
AcDbEntity
  8
1
  6
DOT_CENTER
 62
     2
100
AcDbLine
 10
170.9119338369392
 20
13.7329803655398
 30
0.0
 11
170.9119338369392
 21
5.37660009231135
 31
0.0
  0
LINE
  5
5E
330
1F
100
AcDbEntity
  8
1
  6
DOT_CENTER
 62
     2
100
AcDbLine
 10
170.9119338369392
 20
88.4334180606021
 30
0.0
 11
170.9119338369392
 21
23.7953625217101
 31
0.0
  0
LINE
  5
5F
330
1F
100
AcDbEntity
  8
1
  6
DOT_CENTER
 62
     2
100
AcDbLine
 10
169.9119338369392
 20
23.9064781914974
 30
0.0
 11
169.9119338369392
 21
69.88724435850082
 31
0.0
  0
LINE
  5
60
330
1F
100
AcDbEntity
  8
1
  6
DOT_CENTER
 62
     2
100
AcDbLine
 10
168.6619338369392
 20
-65.62339990768865
 30
0.0
 11
173.1619338369392
 21
-65.62339990768865
 31
0.0
  0
LINE
  5
61
330
1F
100
AcDbEntity
  8
1
  6
DOT_CENTER
 62
     2
100
AcDbLine
 10
168.6619338369392
 20
76.37660009231135
 30
0.0
 11
173.1619338369392
 21
76.37660009231135
 31
0.0
  0
LINE
  5
62
330
1F
100
AcDbEntity
  8
1
  6
Continuous
 62
     7
100
AcDbLine
 10
179.9119338369392
 20
73.87660009231138
 30
0.0
 11
179.9119338369392
 21
5.37660009231135
 31
0.0
  0
LINE
  5
63
330
1F
100
AcDbEntity
  8
1
  6
Continuous
 62
     7
100
AcDbLine
 10
2.38679367266664
 20
-62.69793997026319
 30
0.0
 11
2.38679367266681
 21
-44.69793997026316
 31
0.0
  0
LINE
  5
64
330
1F
100
AcDbEntity
  8
1
  6
Continuous
 62
     7
100
AcDbLine
 10
71.1986003432113
 20
65.37660009231138
 30
0.0
 11
71.1986003432113
 21
56.87660009231138
 31
0.0
  0
LINE
  5
65
330
1F
100
AcDbEntity
  8
1
  6
DOT_CENTER
 62
     2
100
AcDbLine
 10
30.99343703560656
 20
-52.69793997026323
 30
0.0
 11
10.2442424891523
 21
-52.69793997026323
 31
0.0
  0
LINE
  5
66
330
1F
100
AcDbEntity
  8
1
  6
DOT_CENTER
 62
     2
100
AcDbLine
 10
58.9664330541595
 20
5.37660009231135
 30
0.0
 11
110.3030600059606
 21
5.37660009231135
 31
0.0
  0
LINE
  5
67
330
1F
100
AcDbEntity
  8
1
  6
DOT_CENTER
 62
     2
100
AcDbLine
 10
106.1986003432113
 20
109.4193999621323
 30
0.0
 11
106.1986003432113
 21
105.3766000923114
 31
0.0
  0
LINE
  5
68
330
1F
100
AcDbEntity
  8
1
  6
DOT_CENTER
 62
     2
100
AcDbLine
 10
106.1986003432113
 20
-104.1112895265787
 30
0.0
 11
106.1986003432113
 21
-94.62339990768866
 31
0.0
  0
LINE
  5
69
330
1F
100
AcDbEntity
  8
1
  6
DOT_CENTER
 62
     2
100
AcDbLine
 10
106.1986003432113
 20
-94.62339990768866
 30
0.0
 11
106.1986003432113
 21
105.3766000923114
 31
0.0
  0
LINE
  5
6A
330
1F
100
AcDbEntity
  8
1
  6
Continuous
 62
     7
100
AcDbLine
 10
61.1986003432113
 20
-94.62339990768866
 30
0.0
 11
61.1986003432113
 21
-72.12339990768865
 31
0.0
  0
LINE
  5
6B
330
1F
100
AcDbEntity
  8
1
  6
Continuous
 62
     7
100
AcDbLine
 10
61.1986003432113
 20
-72.12339990768865
 30
0.0
 11
71.1986003432113
 21
-72.12339990768865
 31
0.0
  0
LINE
  5
6C
330
1F
100
AcDbEntity
  8
1
  6
Continuous
 62
     7
100
AcDbLine
 10
71.1986003432113
 20
-72.12339990768865
 30
0.0
 11
71.1986003432113
 21
-54.62339990768865
 31
0.0
  0
LINE
  5
6D
330
1F
100
AcDbEntity
  8
1
  6
Continuous
 62
     7
100
AcDbLine
 10
71.1986003432113
 20
-54.62339990768865
 30
0.0
 11
88.1986003432113
 21
-54.62339990768866
 31
0.0
  0
LINE
  5
6E
330
1F
100
AcDbEntity
  8
1
  6
Continuous
 62
     7
100
AcDbLine
 10
88.1986003432113
 20
-54.62339990768866
 30
0.0
 11
88.1986003432113
 21
65.37660009231135
 31
0.0
  0
LINE
  5
6F
330
1F
100
AcDbEntity
  8
1
  6
Continuous
 62
     7
100
AcDbLine
 10
88.1986003432113
 20
65.37660009231135
 30
0.0
 11
71.1986003432113
 21
65.37660009231138
 31
0.0
  0
LINE
  5
70
330
1F
100
AcDbEntity
  8
1
  6
Continuous
 62
     7
100
AcDbLine
 10
71.1986003432113
 20
65.37660009231138
 30
0.0
 11
71.1986003432113
 21
82.87660009231135
 31
0.0
  0
LINE
  5
71
330
1F
100
AcDbEntity
  8
1
  6
Continuous
 62
     7
100
AcDbLine
 10
61.1986003432113
 20
-72.12339990768865
 30
0.0
 11
61.1986003432113
 21
82.87660009231132
 31
0.0
  0
LINE
  5
72
330
1F
100
AcDbEntity
  8
1
  6
Continuous
 62
     7
100
AcDbLine
 10
71.1986003432113
 20
82.87660009231135
 30
0.0
 11
61.1986003432113
 21
82.87660009231132
 31
0.0
  0
LINE
  5
73
330
1F
100
AcDbEntity
  8
1
  6
Continuous
 62
     7
100
AcDbLine
 10
61.1986003432113
 20
82.87660009231132
 30
0.0
 11
61.1986003432113
 21
105.3766000923114
 31
0.0
  0
LINE
  5
74
330
1F
100
AcDbEntity
  8
1
  6
DOT_CENTER
 62
     2
100
AcDbLine
 10
59.13367838314849
 20
-94.62339990768866
 30
0.0
 11
61.1986003432113
 21
-94.62339990768866
 31
0.0
  0
LINE
  5
75
330
1F
100
AcDbEntity
  8
1
  6
DOT_CENTER
 62
     2
100
AcDbLine
 10
61.1986003432113
 20
-94.62339990768866
 30
0.0
 11
106.1986003432113
 21
-94.62339990768866
 31
0.0
  0
LINE
  5
76
330
1F
100
AcDbEntity
  8
1
  6
DOT_CENTER
 62
     2
100
AcDbLine
 10
101.1986003432113
 20
-94.62339990768866
 30
0.0
 11
107.337762755277
 21
-94.62339990768866
 31
0.0
  0
LINE
  5
77
330
1F
100
AcDbEntity
  8
1
  6
DOT_CENTER
 62
     2
100
AcDbLine
 10
59.13367838314849
 20
105.3766000923114
 30
0.0
 11
61.1986003432113
 21
105.3766000923114
 31
0.0
  0
LINE
  5
78
330
1F
100
AcDbEntity
  8
1
  6
DOT_CENTER
 62
     2
100
AcDbLine
 10
61.1986003432113
 20
105.3766000923114
 30
0.0
 11
106.1986003432113
 21
105.3766000923114
 31
0.0
  0
LINE
  5
79
330
1F
100
AcDbEntity
  8
1
  6
DOT_CENTER
 62
     2
100
AcDbLine
 10
101.1986003432113
 20
105.3766000923114
 30
0.0
 11
107.337762755277
 21
105.3766000923114
 31
0.0
  0
LINE
  5
7A
330
1F
100
AcDbEntity
  8
1
  6
Continuous
 62
     7
100
AcDbLine
 10
12.38679367266682
 20
-44.69793997026319
 30
0.0
 11
2.38679367266681
 21
-44.69793997026316
 31
0.0
  0
LINE
  5
7B
330
1F
100
AcDbEntity
  8
1
  6
Continuous
 62
     7
100
AcDbLine
 10
12.38679367266682
 20
-44.69793997026319
 30
0.0
 11
12.38679367266665
 21
-60.69793997026319
 31
0.0
  0
LINE
  5
7C
330
1F
100
AcDbEntity
  8
1
  6
DOT_CENTER
 62
     2
100
AcDbLine
 10
137.7727714248735
 20
5.37660009231135
 30
0.0
 11
170.9119338369392
 21
5.37660009231135
 31
0.0
  0
LINE
  5
7D
330
1F
100
AcDbEntity
  8
1
  6
DOT_CENTER
 62
     2
100
AcDbLine
 10
183.9119338369392
 20
-94.62339990768871
 30
0.0
 11
190.5946427794926
 21
-94.62339990768871
 31
0.0
  0
LINE
  5
7E
330
1F
100
AcDbEntity
  8
1
  6
DOT_CENTER
 62
     2
100
AcDbLine
 10
183.9119338369392
 20
105.3766000923114
 30
0.0
 11
190.5946427794926
 21
105.3766000923114
 31
0.0
  0
LINE
  5
7F
330
1F
100
AcDbEntity
  8
1
  6
Continuous
 62
     7
100
AcDbLine
 10
183.9119338369392
 20
-94.62339990768871
 30
0.0
 11
183.9119338369392
 21
73.87660009231138
 31
0.0
  0
LINE
  5
80
330
1F
100
AcDbEntity
  8
1
  6
DOT_CENTER
 62
     2
100
AcDbLine
 10
159.9119338369392
 20
-94.62339990768871
 30
0.0
 11
183.9119338369392
 21
-94.62339990768871
 31
0.0
  0
LINE
  5
81
330
1F
100
AcDbEntity
  8
1
  6
DOT_CENTER
 62
     2
100
AcDbLine
 10
159.9119338369392
 20
105.3766000923114
 30
0.0
 11
183.9119338369392
 21
105.3766000923114
 31
0.0
  0
LINE
  5
82
330
1F
100
AcDbEntity
  8
1
  6
Continuous
 62
     7
100
AcDbLine
 10
159.9119338369392
 20
-94.62339990768871
 30
0.0
 11
159.9119338369392
 21
105.3766000923114
 31
0.0
  0
LINE
  5
83
330
1F
100
AcDbEntity
  8
1
  6
DOT_CENTER
 62
     2
100
AcDbLine
 10
141.4034493333616
 20
-94.62339990768871
 30
0.0
 11
143.9119338369392
 21
-94.62339990768871
 31
0.0
  0
LINE
  5
84
330
1F
100
AcDbEntity
  8
1
  6
DOT_CENTER
 62
     2
100
AcDbLine
 10
141.4034493333616
 20
105.3766000923114
 30
0.0
 11
143.9119338369392
 21
105.3766000923114
 31
0.0
  0
LINE
  5
85
330
1F
100
AcDbEntity
  8
1
  6
Continuous
 62
     7
100
AcDbLine
 10
47.38679367266684
 20
-66.6979399702632
 30
0.0
 11
2.38679367266664
 21
-66.6979399702632
 31
0.0
  0
LINE
  5
86
330
1F
100
AcDbEntity
  8
1
  6
Continuous
 62
     7
100
AcDbLine
 10
2.38679367266664
 20
-66.6979399702632
 30
0.0
 11
2.38679367266664
 21
-62.69793997026319
 31
0.0
  0
LINE
  5
87
330
1F
100
AcDbEntity
  8
1
  6
Continuous
 62
     7
100
AcDbLine
 10
2.38679367266664
 20
-62.69793997026319
 30
0.0
 11
12.38679367266663
 21
-62.69793997026319
 31
0.0
  0
LINE
  5
88
330
1F
100
AcDbEntity
  8
1
  6
Continuous
 62
     7
100
AcDbLine
 10
29.3867936726667
 20
-44.69793997026326
 30
0.0
 11
12.38679367266682
 21
-44.69793997026319
 31
0.0
  0
LINE
  5
89
330
1F
100
AcDbEntity
  8
1
  6
Continuous
 62
     7
100
AcDbLine
 10
2.38679367266681
 20
-44.69793997026316
 30
0.0
 11
2.38679367266684
 21
-42.69793997026321
 31
0.0
  0
LINE
  5
8A
330
1F
100
AcDbEntity
  8
1
  6
PHANTOM
 62
     2
100
AcDbLine
 10
47.38679367266684
 20
-66.6979399702632
 30
0.0
 11
47.38679367266684
 21
-26.69793997026321
 31
0.0
  0
LINE
  5
8B
330
1F
100
AcDbEntity
  8
1
  6
PHANTOM
 62
     2
100
AcDbLine
 10
47.38679367266684
 20
-68.47367057736668
 30
0.0
 11
47.38679367266684
 21
-66.6979399702632
 31
0.0
  0
LINE
  5
8C
330
1F
100
AcDbEntity
  8
1
  6
Continuous
 62
     7
100
AcDbLine
 10
2.38679367266684
 20
-42.69793997026321
 30
0.0
 11
11.88679367266695
 21
-42.69793997026321
 31
0.0
  0
LINE
  5
8D
330
1F
100
AcDbEntity
  8
1
  6
Continuous
 62
     7
100
AcDbLine
 10
11.88679367266695
 20
-42.69793997026321
 30
0.0
 11
15.38679367266695
 21
-42.69793997026321
 31
0.0
  0
LINE
  5
8E
330
1F
100
AcDbEntity
  8
1
  6
Continuous
 62
     7
100
AcDbLine
 10
15.38679367266695
 20
-42.69793997026321
 30
0.0
 11
15.38679367266695
 21
-26.69793997026321
 31
0.0
  0
LINE
  5
8F
330
1F
100
AcDbEntity
  8
1
  6
Continuous
 62
     7
100
AcDbLine
 10
15.38679367266695
 20
-26.69793997026321
 30
0.0
 11
47.38679367266684
 21
-26.69793997026321
 31
0.0
  0
LINE
  5
90
330
1F
100
AcDbEntity
  8
1
  6
PHANTOM
 62
     2
100
AcDbLine
 10
47.38679367266684
 20
-26.69793997026321
 30
0.0
 11
47.38679367266686
 21
-23.65515166616186
 31
0.0
  0
LINE
  5
91
330
1F
100
AcDbEntity
  8
1
  6
Continuous
 62
     7
100
AcDbLine
 10
161.9119338369392
 20
73.87660009231138
 30
0.0
 11
161.9119338369392
 21
5.37660009231135
 31
0.0
  0
LINE
  5
92
330
1F
100
AcDbEntity
  8
1
  6
DOT_CENTER
 62
     2
100
AcDbLine
 10
155.2482796794875
 20
73.87660009231136
 30
0.0
 11
183.9119338369392
 21
73.87660009231138
 31
0.0
  0
LINE
  5
93
330
1F
100
AcDbEntity
  8
1
  6
Continuous
 62
     7
100
AcDbLine
 10
183.9119338369392
 20
73.87660009231138
 30
0.0
 11
183.9119338369392
 21
105.3766000923114
 31
0.0
  0
LINE
  5
94
330
1F
100
AcDbEntity
  8
1
  6
DOT_CENTER
 62
     2
100
AcDbLine
 10
170.9119338369392
 20
5.37660009231135
 30
0.0
 11
177.9119338369392
 21
5.37660009231135
 31
0.0
  0
LINE
  5
95
330
1F
100
AcDbEntity
  8
1
  6
Continuous
 62
     7
100
AcDbLine
 10
177.9119338369392
 20
57.37660009231134
 30
0.0
 11
177.9119338369392
 21
5.37660009231135
 31
0.0
  0
LINE
  5
96
330
1F
100
AcDbEntity
  8
1
  6
DOT_CENTER
 62
     2
100
AcDbLine
 10
177.9119338369392
 20
5.37660009231135
 30
0.0
 11
186.5946427794926
 21
5.37660009231135
 31
0.0
  0
LINE
  5
97
330
1F
100
AcDbEntity
  8
1
  6
Continuous
 62
     7
100
AcDbLine
 10
183.9119338369392
 20
-63.12339990768865
 30
0.0
 11
183.9119338369392
 21
105.3766000923114
 31
0.0
  0
LINE
  5
98
330
1F
100
AcDbEntity
  8
1
  6
Continuous
 62
     7
100
AcDbLine
 10
177.9119338369392
 20
5.37660009231135
 30
0.0
 11
177.9119338369392
 21
-46.62339990768865
 31
0.0
  0
LINE
  5
99
330
1F
100
AcDbEntity
  8
1
  6
Continuous
 62
     7
100
AcDbLine
 10
161.9119338369392
 20
5.37660009231135
 30
0.0
 11
161.9119338369392
 21
-63.12339990768867
 31
0.0
  0
LINE
  5
9A
330
1F
100
AcDbEntity
  8
1
  6
Continuous
 62
     7
100
AcDbLine
 10
179.9119338369392
 20
5.37660009231135
 30
0.0
 11
179.9119338369392
 21
-63.12339990768865
 31
0.0
  0
LINE
  5
9B
330
1F
100
AcDbEntity
  8
1
  6
DOT_CENTER
 62
     2
100
AcDbLine
 10
170.9119338369392
 20
5.37660009231135
 30
0.0
 11
170.9119338369392
 21
-77.12339990768866
 31
0.0
  0
LINE
  5
9C
330
1F
100
AcDbEntity
  8
1
  6
DOT_CENTER
 62
     2
100
AcDbLine
 10
183.9119338369392
 20
-63.12339990768865
 30
0.0
 11
155.2482796794875
 21
-63.12339990768866
 31
0.0
  0
LINE
  5
9D
330
1F
100
AcDbEntity
  8
1
  6
Continuous
 62
     7
100
AcDbLine
 10
12.38679367266665
 20
-60.69793997026319
 30
0.0
 11
29.3867936726667
 21
-60.69793997026319
 31
0.0
  0
LINE
  5
9E
330
1F
100
AcDbEntity
  8
1
  6
Continuous
 62
     7
100
AcDbLine
 10
12.38679367266665
 20
-60.69793997026319
 30
0.0
 11
12.38679367266663
 21
-62.69793997026319
 31
0.0
  0
LINE
  5
9F
330
1F
100
AcDbEntity
  8
1
  6
Continuous
 62
     7
100
AcDbLine
 10
29.3867936726667
 20
-60.69793997026319
 30
0.0
 11
29.3867936726667
 21
-44.69793997026326
 31
0.0
  0
LINE
  5
A0
330
1F
100
AcDbEntity
  8
1
  6
Continuous
 62
     7
100
AcDbLine
 10
143.9119338369392
 20
105.3766000923114
 30
0.0
 11
143.9119338369392
 21
-94.62339990768871
 31
0.0
  0
LINE
  5
A1
330
1F
100
AcDbEntity
  8
1
  6
DOT_CENTER
 62
     2
100
AcDbLine
 10
143.9119338369392
 20
-94.62339990768871
 30
0.0
 11
159.9119338369392
 21
-94.62339990768871
 31
0.0
  0
LINE
  5
A2
330
1F
100
AcDbEntity
  8
1
  6
DOT_CENTER
 62
     2
100
AcDbLine
 10
143.9119338369392
 20
105.3766000923114
 30
0.0
 11
159.9119338369392
 21
105.3766000923114
 31
0.0
  0
LINE
  5
A3
330
1F
100
AcDbEntity
  8
1
  6
DOT_CENTER
 62
     2
100
AcDbLine
 10
14.580883670625
 20
-53.6979399702632
 30
0.0
 11
0.86388297763482
 21
-53.6979399702632
 31
0.0
  0
LINE
  5
A4
330
1F
100
AcDbEntity
  8
1
  6
DOT_CENTER
 62
     2
100
AcDbLine
 10
169.9119338369392
 20
-58.17778590641503
 30
0.0
 11
169.9119338369392
 21
13.98807882745509
 31
0.0
  0
LINE
  5
A5
330
1F
100
AcDbEntity
  8
1
  6
DOT_CENTER
 62
     2
100
AcDbLine
 10
160.6435698257925
 20
57.37660009231134
 30
0.0
 11
179.3225562623248
 21
57.37660009231134
 31
0.0
  0
LINE
  5
A6
330
1F
100
AcDbEntity
  8
1
  6
DOT_CENTER
 62
     2
100
AcDbLine
 10
160.6873616027949
 20
-46.62339990768864
 30
0.0
 11
178.967026411746
 21
-46.62339990768864
 31
0.0
  0
LINE
  5
A7
330
1F
100
AcDbEntity
  8
1
  6
Continuous
 62
     7
100
AcDbLine
 10
-1.11320632733315
 20
-63.69793997026321
 30
0.0
 11
-1.11320632733315
 21
-66.6979399702632
 31
0.0
  0
LINE
  5
A8
330
1F
100
AcDbEntity
  8
1
  6
Continuous
 62
     7
100
AcDbLine
 10
-1.11320632733323
 20
-42.6979399702632
 30
0.0
 11
-1.11320632733315
 21
-37.69793997026319
 31
0.0
  0
LINE
  5
A9
330
1F
100
AcDbEntity
  8
1
  6
DOT_CENTER
 62
     2
100
AcDbLine
 10
11.88679367266695
 20
-5.13242320594023
 30
0.0
 11
18.90126688979785
 21
-5.13242320594023
 31
0.0
  0
LINE
  5
AA
330
1F
100
AcDbEntity
  8
1
  6
DOT_CENTER
 62
     2
100
AcDbLine
 10
-44.11320632733307
 20
-5.13242320594023
 30
0.0
 11
-48.58147486355819
 21
-5.13242320594023
 31
0.0
  0
LINE
  5
AB
330
1F
100
AcDbEntity
  8
1
  6
Continuous
 62
     7
100
AcDbLine
 10
-1.11320632733315
 20
-39.69793997026321
 30
0.0
 11
0.61884448023564
 21
-42.69793997026321
 31
0.0
  0
LINE
  5
AC
330
1F
100
AcDbEntity
  8
1
  6
Continuous
 62
     7
100
AcDbLine
 10
0.61884448023564
 20
-42.69793997026321
 30
0.0
 11
10.15474286509806
 21
-42.69793997026321
 31
0.0
  0
LINE
  5
AD
330
1F
100
AcDbEntity
  8
1
  6
Continuous
 62
     7
100
AcDbLine
 10
10.15474286509806
 20
-42.69793997026321
 30
0.0
 11
11.88679367266695
 21
-39.69793997026321
 31
0.0
  0
LINE
  5
AE
330
1F
100
AcDbEntity
  8
1
  6
Continuous
 62
     7
100
AcDbLine
 10
11.88679367266695
 20
-39.69793997026321
 30
0.0
 11
11.88679367266695
 21
-37.69793997026319
 31
0.0
  0
LINE
  5
AF
330
1F
100
AcDbEntity
  8
1
  6
Continuous
 62
     7
100
AcDbLine
 10
-0.11320632733315
 20
-38.69793997026321
 30
0.0
 11
10.88679367266695
 21
-38.69793997026321
 31
0.0
  0
LINE
  5
B0
330
1F
100
AcDbEntity
  8
1
  6
Continuous
 62
     7
100
AcDbLine
 10
10.88679367266695
 20
-38.69793997026321
 30
0.0
 11
10.88679367266695
 21
-39.42999077783213
 31
0.0
  0
LINE
  5
B1
330
1F
100
AcDbEntity
  8
1
  6
Continuous
 62
     7
100
AcDbLine
 10
10.88679367266695
 20
-39.42999077783213
 30
0.0
 11
9.57739259590841
 21
-41.69793997026321
 31
0.0
  0
LINE
  5
B2
330
1F
100
AcDbEntity
  8
1
  6
Continuous
 62
     7
100
AcDbLine
 10
9.57739259590841
 20
-41.69793997026321
 30
0.0
 11
1.19619474942526
 21
-41.69793997026321
 31
0.0
  0
LINE
  5
B3
330
1F
100
AcDbEntity
  8
1
  6
Continuous
 62
     7
100
AcDbLine
 10
1.19619474942526
 20
-41.69793997026321
 30
0.0
 11
-0.11320632733315
 21
-39.42999077783213
 31
0.0
  0
LINE
  5
B4
330
1F
100
AcDbEntity
  8
1
  6
Continuous
 62
     7
100
AcDbLine
 10
-0.11320632733315
 20
-39.42999077783213
 30
0.0
 11
-0.11320632733315
 21
-38.69793997026321
 31
0.0
  0
LINE
  5
B5
330
1F
100
AcDbEntity
  8
1
  6
Continuous
 62
     7
100
AcDbLine
 10
-1.11320632733315
 20
-63.69793997026321
 30
0.0
 11
-11.11320632733307
 21
-63.69793997026324
 31
0.0
  0
LINE
  5
B6
330
1F
100
AcDbEntity
  8
1
  6
Continuous
 62
     7
100
AcDbLine
 10
-25.11320632733315
 20
-42.69793997026332
 30
0.0
 11
-11.1132063273332
 21
-42.6979399702632
 31
0.0
  0
LINE
  5
B7
330
1F
100
AcDbEntity
  8
1
  6
Continuous
 62
     7
100
AcDbLine
 10
-44.11320632733307
 20
-5.13242320594023
 30
0.0
 11
-44.11320632733307
 21
-66.69793997026322
 31
0.0
  0
LINE
  5
B8
330
1F
100
AcDbEntity
  8
1
  6
Continuous
 62
     7
100
AcDbLine
 10
-1.11320632733315
 20
-63.69793997026321
 30
0.0
 11
-1.11320632733323
 21
-42.6979399702632
 31
0.0
  0
LINE
  5
B9
330
1F
100
AcDbEntity
  8
1
  6
Continuous
 62
     7
100
AcDbLine
 10
-1.11320632733315
 20
-37.69793997026319
 30
0.0
 11
11.88679367266695
 21
-37.69793997026319
 31
0.0
  0
LINE
  5
BA
330
1F
100
AcDbEntity
  8
1
  6
Continuous
 62
     7
100
AcDbLine
 10
11.88679367266695
 20
-37.69793997026319
 30
0.0
 11
11.88679367266695
 21
-5.13242320594023
 31
0.0
  0
LINE
  5
BB
330
1F
100
AcDbEntity
  8
1
  6
DOT_CENTER
 62
     2
100
AcDbLine
 10
11.88679367266695
 20
-5.13242320594023
 30
0.0
 11
-44.11320632733307
 21
-5.13242320594023
 31
0.0
  0
LINE
  5
BC
330
1F
100
AcDbEntity
  8
1
  6
Continuous
 62
     7
100
AcDbLine
 10
-1.11320632733315
 20
-66.6979399702632
 30
0.0
 11
-44.11320632733307
 21
-66.69793997026322
 31
0.0
  0
LINE
  5
BD
330
1F
100
AcDbEntity
  8
1
  6
DOT_CENTER
 62
     2
100
AcDbLine
 10
-194.6000806359427
 20
105.3766000923113
 30
0.0
 11
-192.1092983114338
 21
105.3766000923113
 31
0.0
  0
LINE
  5
BE
330
1F
100
AcDbEntity
  8
1
  6
DOT_CENTER
 62
     2
100
AcDbLine
 10
-196.6000806359427
 20
-94.62339990768865
 30
0.0
 11
-192.1092983114338
 21
-94.62339990768865
 31
0.0
  0
LINE
  5
BF
330
1F
100
AcDbEntity
  8
1
  6
DOT_CENTER
 62
     2
100
AcDbLine
 10
-142.4897709387598
 20
105.3766000923113
 30
0.0
 11
-142.4897709387598
 21
-76.801730201106
 31
0.0
  0
LINE
  5
C0
330
1F
100
AcDbEntity
  8
1
  6
DOT_CENTER
 62
     2
100
AcDbLine
 10
-142.4897709387598
 20
105.3766000923113
 30
0.0
 11
-137.5343223151126
 21
105.3766000923113
 31
0.0
  0
LINE
  5
C1
330
1F
100
AcDbEntity
  8
1
  6
DOT_CENTER
 62
     2
100
AcDbLine
 10
-142.4897709387598
 20
-94.62339990768866
 30
0.0
 11
-137.5343223151126
 21
-94.62339990768865
 31
0.0
  0
LINE
  5
C2
330
1F
100
AcDbEntity
  8
1
  6
DOT_CENTER
 62
     2
100
AcDbLine
 10
-142.4897709387598
 20
-94.62339990768866
 30
0.0
 11
-142.4897709387598
 21
-99.90359801694666
 31
0.0
  0
LINE
  5
C3
330
1F
100
AcDbEntity
  8
1
  6
DOT_CENTER
 62
     2
100
AcDbLine
 10
-142.4897709387598
 20
105.3766000923113
 30
0.0
 11
-142.4897709387598
 21
109.761881720986
 31
0.0
  0
LINE
  5
C4
330
1F
100
AcDbEntity
  8
1
  6
Continuous
 62
     7
100
AcDbLine
 10
-192.1092983114338
 20
105.3766000923113
 30
0.0
 11
-192.1092983114338
 21
-94.62339990768865
 31
0.0
  0
LINE
  5
C5
330
1F
100
AcDbEntity
  8
1
  6
DOT_CENTER
 62
     2
100
AcDbLine
 10
-192.1092983114338
 20
105.3766000923113
 30
0.0
 11
-171.430061902057
 21
105.3766000923113
 31
0.0
  0
LINE
  5
C6
330
1F
100
AcDbEntity
  8
1
  6
DOT_CENTER
 62
     2
100
AcDbLine
 10
-192.1092983114338
 20
-94.62339990768865
 30
0.0
 11
-163.1092983114338
 21
-94.62339990768865
 31
0.0
  0
LINE
  5
C7
330
1F
100
AcDbEntity
  8
1
  6
Continuous
 62
     7
100
AcDbLine
 10
-163.1092983114338
 20
105.3766000923113
 30
0.0
 11
-163.1092983114338
 21
-94.62339990768865
 31
0.0
  0
LINE
  5
C8
330
1F
100
AcDbEntity
  8
1
  6
DOT_CENTER
 62
     2
100
AcDbLine
 10
-163.1092983114338
 20
105.3766000923113
 30
0.0
 11
-142.4897709387598
 21
105.3766000923113
 31
0.0
  0
LINE
  5
C9
330
1F
100
AcDbEntity
  8
1
  6
DOT_CENTER
 62
     2
100
AcDbLine
 10
-163.1092983114338
 20
-94.62339990768865
 30
0.0
 11
-142.4897709387598
 21
-94.62339990768866
 31
0.0
  0
LINE
  5
CA
330
1F
100
AcDbEntity
  8
1
  6
DOT_CENTER
 62
     2
100
AcDbLine
 10
-114.5635309971518
 20
105.3766000923113
 30
0.0
 11
-108.8017786518813
 21
105.3766000923113
 31
0.0
  0
LINE
  5
CB
330
1F
100
AcDbEntity
  8
1
  6
DOT_CENTER
 62
     2
100
AcDbLine
 10
-114.5635309971518
 20
5.37660009231135
 30
0.0
 11
-51.29189472598307
 21
5.37660009231135
 31
0.0
  0
LINE
  5
CC
330
1F
100
AcDbEntity
  8
1
  6
DOT_CENTER
 62
     2
100
AcDbLine
 10
-114.5635309971518
 20
-94.62339990768865
 30
0.0
 11
-108.8017786518813
 21
-94.62339990768865
 31
0.0
  0
LINE
  5
CD
330
1F
100
AcDbEntity
  8
1
  6
Continuous
 62
     7
100
AcDbLine
 10
-108.8017786518813
 20
105.3766000923113
 30
0.0
 11
-108.8017786518813
 21
-94.62339990768865
 31
0.0
  0
LINE
  5
CE
330
1F
100
AcDbEntity
  8
1
  6
DOT_CENTER
 62
     2
100
AcDbLine
 10
-108.8017786518813
 20
105.3766000923113
 30
0.0
 11
-68.80177865188125
 21
105.3766000923113
 31
0.0
  0
LINE
  5
CF
330
1F
100
AcDbEntity
  8
1
  6
DOT_CENTER
 62
     2
100
AcDbLine
 10
-108.8017786518813
 20
-94.62339990768865
 30
0.0
 11
-68.80177865188125
 21
-94.62339990768865
 31
0.0
  0
LINE
  5
D0
330
1F
100
AcDbEntity
  8
1
  6
Continuous
 62
     7
100
AcDbLine
 10
-55.80177865188119
 20
-94.62339990768865
 30
0.0
 11
-55.80177865188119
 21
105.3766000923113
 31
0.0
  0
LINE
  5
D1
330
1F
100
AcDbEntity
  8
1
  6
DOT_CENTER
 62
     2
100
AcDbLine
 10
-55.80177865188119
 20
105.3766000923113
 30
0.0
 11
-51.29189472598307
 21
105.3766000923113
 31
0.0
  0
LINE
  5
D2
330
1F
100
AcDbEntity
  8
1
  6
DOT_CENTER
 62
     2
100
AcDbLine
 10
-55.80177865188119
 20
-94.62339990768865
 30
0.0
 11
-51.29189472598307
 21
-94.62339990768865
 31
0.0
  0
LINE
  5
D3
330
1F
100
AcDbEntity
  8
1
  6
Continuous
 62
     7
100
AcDbLine
 10
-68.80177865188125
 20
105.3766000923113
 30
0.0
 11
-68.80177865188125
 21
82.87660009231135
 31
0.0
  0
LINE
  5
D4
330
1F
100
AcDbEntity
  8
1
  6
DOT_CENTER
 62
     2
100
AcDbLine
 10
-68.80177865188125
 20
105.3766000923113
 30
0.0
 11
-55.80177865188119
 21
105.3766000923113
 31
0.0
  0
LINE
  5
D5
330
1F
100
AcDbEntity
  8
1
  6
DOT_CENTER
 62
     2
100
AcDbLine
 10
-68.80177865188125
 20
-94.62339990768865
 30
0.0
 11
-55.80177865188119
 21
-94.62339990768865
 31
0.0
  0
LINE
  5
D6
330
1F
100
AcDbEntity
  8
1
  6
Continuous
 62
     7
100
AcDbLine
 10
-68.80177865188125
 20
82.87660009231135
 30
0.0
 11
-78.80177865188125
 21
82.87660009231135
 31
0.0
  0
LINE
  5
D7
330
1F
100
AcDbEntity
  8
1
  6
Continuous
 62
     7
100
AcDbLine
 10
-68.80177865188125
 20
82.87660009231135
 30
0.0
 11
-68.80177865188125
 21
-72.12339990768866
 31
0.0
  0
LINE
  5
D8
330
1F
100
AcDbEntity
  8
1
  6
Continuous
 62
     7
100
AcDbLine
 10
-78.80177865188125
 20
82.87660009231135
 30
0.0
 11
-78.80177865188125
 21
71.37660009231135
 31
0.0
  0
LINE
  5
D9
330
1F
100
AcDbEntity
  8
1
  6
Continuous
 62
     7
100
AcDbLine
 10
-78.80177865188125
 20
71.37660009231135
 30
0.0
 11
-92.80177865188125
 21
71.37660009231135
 31
0.0
  0
LINE
  5
DA
330
1F
100
AcDbEntity
  8
1
  6
Continuous
 62
     7
100
AcDbLine
 10
-92.80177865188125
 20
71.37660009231135
 30
0.0
 11
-92.80488390961862
 21
-60.62339990768862
 31
0.0
  0
LINE
  5
DB
330
1F
100
AcDbEntity
  8
1
  6
Continuous
 62
     7
100
AcDbLine
 10
-92.80488390961862
 20
-60.62339990768862
 30
0.0
 11
-78.80177865188125
 21
-60.62339990768867
 31
0.0
  0
LINE
  5
DC
330
1F
100
AcDbEntity
  8
1
  6
Continuous
 62
     7
100
AcDbLine
 10
-78.80177865188125
 20
-60.62339990768867
 30
0.0
 11
-78.80177865188125
 21
-72.12339990768865
 31
0.0
  0
LINE
  5
DD
330
1F
100
AcDbEntity
  8
1
  6
Continuous
 62
     7
100
AcDbLine
 10
-78.80177865188125
 20
-72.12339990768865
 30
0.0
 11
-68.80177865188125
 21
-72.12339990768866
 31
0.0
  0
LINE
  5
DE
330
1F
100
AcDbEntity
  8
1
  6
Continuous
 62
     7
100
AcDbLine
 10
-68.80177865188125
 20
-72.12339990768866
 30
0.0
 11
-68.80177865188125
 21
-94.62339990768865
 31
0.0
  0
LINE
  5
DF
330
1F
100
AcDbEntity
  8
1
  6
Continuous
 62
     7
100
AcDbLine
 10
-11.1132063273332
 20
-42.6979399702632
 30
0.0
 11
-1.11320632733323
 21
-42.6979399702632
 31
0.0
  0
LINE
  5
E0
330
1F
100
AcDbEntity
  8
1
  6
Continuous
 62
     7
100
AcDbLine
 10
-78.80177865188125
 20
-60.62339990768867
 30
0.0
 11
-78.80177865188125
 21
-50.62339990768866
 31
0.0
  0
LINE
  5
E1
330
1F
100
AcDbEntity
  8
1
  6
Continuous
 62
     7
100
AcDbLine
 10
-78.80177865188125
 20
71.37660009231135
 30
0.0
 11
-78.80177865188125
 21
62.87660009231139
 31
0.0
  0
LINE
  5
E2
330
1F
100
AcDbEntity
  8
1
  6
DOT_CENTER
 62
     2
100
AcDbLine
 10
0.86388297763482
 20
-53.19793997026318
 30
0.0
 11
-13.2598530654007
 21
-53.19793997026318
 31
0.0
  0
LINE
  5
E3
330
1F
100
AcDbEntity
  8
1
  6
Continuous
 62
     7
100
AcDbLine
 10
-186.1092983114338
 20
-51.62339990768865
 30
0.0
 11
-186.1092983114338
 21
62.37660009231134
 31
0.0
  0
LINE
  5
E4
330
1F
100
AcDbEntity
  8
1
  6
Continuous
 62
     7
100
AcDbLine
 10
-168.1092983114338
 20
-61.62339990768865
 30
0.0
 11
-168.1092983114338
 21
-51.62339990768865
 31
0.0
  0
LINE
  5
E5
330
1F
100
AcDbEntity
  8
1
  6
Continuous
 62
     7
100
AcDbLine
 10
-189.1092983114338
 20
-61.62339990768865
 30
0.0
 11
-189.1092983114338
 21
72.37660009231135
 31
0.0
  0
LINE
  5
E6
330
1F
100
AcDbEntity
  8
1
  6
Continuous
 62
     7
100
AcDbLine
 10
-11.1132063273331
 20
-59.6979399702632
 30
0.0
 11
-25.11320632733309
 21
-59.6979399702632
 31
0.0
  0
LINE
  5
E7
330
1F
100
AcDbEntity
  8
1
  6
Continuous
 62
     7
100
AcDbLine
 10
-25.11320632733309
 20
-59.6979399702632
 30
0.0
 11
-25.11320632733315
 21
-42.69793997026332
 31
0.0
  0
LINE
  5
E8
330
1F
100
AcDbEntity
  8
1
  6
Continuous
 62
     7
100
AcDbLine
 10
-11.1132063273331
 20
-59.6979399702632
 30
0.0
 11
-11.1132063273332
 21
-42.6979399702632
 31
0.0
  0
LINE
  5
E9
330
1F
100
AcDbEntity
  8
1
  6
Continuous
 62
     7
100
AcDbLine
 10
-11.11320632733307
 20
-63.69793997026324
 30
0.0
 11
-11.1132063273331
 21
-59.6979399702632
 31
0.0
  0
LINE
  5
EA
330
1F
100
AcDbEntity
  8
1
  6
DOT_CENTER
 62
     2
100
AcDbLine
 10
-190.620962865328
 20
72.37660009231135
 30
0.0
 11
-166.856329904655
 21
72.37660009231135
 31
0.0
  0
LINE
  5
EB
330
1F
100
AcDbEntity
  8
1
  6
DOT_CENTER
 62
     2
100
AcDbLine
 10
-181.3592983114338
 20
76.37660009231135
 30
0.0
 11
-176.8592983114338
 21
76.37660009231135
 31
0.0
  0
LINE
  5
EC
330
1F
100
AcDbEntity
  8
1
  6
DOT_CENTER
 62
     2
100
AcDbLine
 10
-179.1092983114338
 20
-75.5804222971521
 30
0.0
 11
-179.1092983114338
 21
86.3336224817748
 31
0.0
  0
LINE
  5
ED
330
1F
100
AcDbEntity
  8
1
  6
DOT_CENTER
 62
     2
100
AcDbLine
 10
-181.3592983114338
 20
-65.62339990768865
 30
0.0
 11
-176.8592983114338
 21
-65.62339990768865
 31
0.0
  0
LINE
  5
EE
330
1F
100
AcDbEntity
  8
1
  6
DOT_CENTER
 62
     2
100
AcDbLine
 10
-190.620962865328
 20
-61.63531142598714
 30
0.0
 11
-174.4092983114338
 21
-61.63531142598714
 31
0.0
  0
LINE
  5
EF
330
1F
100
AcDbEntity
  8
1
  6
DOT_CENTER
 62
     2
100
AcDbLine
 10
-197.6000806359427
 20
5.37660009231135
 30
0.0
 11
-159.866450626103
 21
5.37660009231135
 31
0.0
  0
LINE
  5
F0
330
1F
100
AcDbEntity
  8
1
  6
DOT_CENTER
 62
     2
100
AcDbLine
 10
-177.1092983114338
 20
74.1913679844397
 30
0.0
 11
-177.1092983114338
 21
-62.92176113992363
 31
0.0
  0
LINE
  5
F1
330
1F
100
AcDbEntity
  8
1
  6
DOT_CENTER
 62
     2
100
AcDbLine
 10
-186.939077315715
 20
-52.12339990768866
 30
0.0
 11
-166.009785283542
 21
-52.12339990768866
 31
0.0
  0
LINE
  5
F2
330
1F
100
AcDbEntity
  8
1
  6
DOT_CENTER
 62
     2
100
AcDbLine
 10
-188.554644728426
 20
62.87660009231135
 30
0.0
 11
-166.132898766084
 21
62.87660009231135
 31
0.0
  0
LINE
  5
F3
330
1F
100
AcDbEntity
  8
1
  6
DOT_CENTER
 62
     2
100
AcDbLine
 10
-9.01360038267119
 20
-51.19793997026326
 30
0.0
 11
-27.1065792868494
 21
-51.19793997026326
 31
0.0
  0
LINE
  5
F4
330
1F
100
AcDbEntity
  8
1
  6
DOT_CENTER
 62
     2
100
AcDbLine
 10
-149.813153873782
 20
5.37660009231135
 30
0.0
 11
-135.8383329234636
 21
5.37660009231135
 31
0.0
  0
LINE
  5
F5
330
1F
100
AcDbEntity
  8
1
  6
Continuous
 62
     7
100
AcDbLine
 10
-168.1092983114338
 20
71.37660009231135
 30
0.0
 11
-168.1092983114338
 21
72.37660009231135
 31
0.0
  0
LINE
  5
F6
330
1F
100
AcDbEntity
  8
1
  6
Continuous
 62
     7
100
AcDbLine
 10
-168.1092983114338
 20
-51.62339990768865
 30
0.0
 11
-168.1092983114338
 21
72.37660009231135
 31
0.0
  0
LINE
  5
F7
330
1F
100
AcDbEntity
  8
1
  6
DOT_CENTER
 62
     2
100
AcDbLine
 10
-142.4897709387598
 20
-90.5033663449061
 30
0.0
 11
-142.4897709387598
 21
-94.62339990768866
 31
0.0
  0
LINE
  5
F8
330
1F
100
AcDbEntity
  8
1
  6
Continuous
 62
     7
100
AcDbLine
 10
71.1986003432113
 20
-46.12339990768865
 30
0.0
 11
71.1986003432113
 21
-54.62339990768865
 31
0.0
  0
LINE
  5
F9
330
1F
100
AcDbEntity
  8
1
  6
DOT_CENTER
 62
     2
100
AcDbLine
 10
-163.862060903125
 20
105.3766000923113
 30
0.0
 11
-163.1092983114338
 21
105.3766000923113
 31
0.0
  0
ARC
  5
FA
330
1F
100
AcDbEntity
  8
1
  6
Continuous
 62
     7
100
AcDbCircle
 10
170.9119338369392
 20
73.87660009231138
 30
0.0
 40
8.999999999999972
100
AcDbArc
 50
90.0
 51
180.0
  0
ARC
  5
FB
330
1F
100
AcDbEntity
  8
1
  6
Continuous
 62
     7
100
AcDbCircle
 10
169.9119338369392
 20
57.37660009231134
 30
0.0
 40
8.000000000000007
100
AcDbArc
 50
90.0
 51
179.9999999999999
  0
ARC
  5
FC
330
1F
100
AcDbEntity
  8
1
  6
Continuous
 62
     7
100
AcDbCircle
 10
169.9119338369392
 20
-46.62339990768865
 30
0.0
 40
8.0
100
AcDbArc
 50
270.0
 51
0.0
  0
ARC
  5
FD
330
1F
100
AcDbEntity
  8
1
  6
Continuous
 62
     7
100
AcDbCircle
 10
170.9119338369392
 20
-63.12339990768865
 30
0.0
 40
9.0
100
AcDbArc
 50
270.0
 51
0.0
  0
ARC
  5
FE
330
1F
100
AcDbEntity
  8
1
  6
Continuous
 62
     7
100
AcDbCircle
 10
170.9119338369392
 20
73.87660009231138
 30
0.0
 40
9.0
100
AcDbArc
 50
0.0
 51
90.0
  0
ARC
  5
FF
330
1F
100
AcDbEntity
  8
1
  6
Continuous
 62
     7
100
AcDbCircle
 10
170.9119338369392
 20
-63.12339990768865
 30
0.0
 40
9.0
100
AcDbArc
 50
180.0000000000001
 51
270.0
  0
ARC
  5
100
330
1F
100
AcDbEntity
  8
1
  6
Continuous
 62
     7
100
AcDbCircle
 10
169.9119338369392
 20
57.37660009231134
 30
0.0
 40
8.0
100
AcDbArc
 50
0.0
 51
90.0
  0
ARC
  5
101
330
1F
100
AcDbEntity
  8
1
  6
Continuous
 62
     7
100
AcDbCircle
 10
169.9119338369392
 20
-46.62339990768865
 30
0.0
 40
8.0
100
AcDbArc
 50
179.9999999999999
 51
270.0
  0
CIRCLE
  5
102
330
1F
100
AcDbEntity
  8
1
  6
DOT_CENTER
 62
     2
100
AcDbCircle
 10
168.2119338369392
 20
-63.12339990768866
 30
0.0
 40
6.299999999999983
  0
CIRCLE
  5
103
330
1F
100
AcDbEntity
  8
1
  6
DOT_CENTER
 62
     2
100
AcDbCircle
 10
-174.4092983114338
 20
-61.63531142598714
 30
0.0
 40
6.299999999999983
  0
CIRCLE
  5
104
330
1F
100
AcDbEntity
  8
1
  6
Continuous
 62
     7
100
AcDbCircle
 10
170.9119338369392
 20
-65.62339990768865
 30
0.0
 40
1.5
  0
CIRCLE
  5
105
330
1F
100
AcDbEntity
  8
1
  6
Continuous
 62
     7
100
AcDbCircle
 10
170.9119338369392
 20
76.37660009231135
 30
0.0
 40
1.5
  0
CIRCLE
  5
106
330
1F
100
AcDbEntity
  8
1
  6
Continuous
 62
     7
100
AcDbCircle
 10
-179.1092983114338
 20
76.37660009231135
 30
0.0
 40
1.5
  0
CIRCLE
  5
107
330
1F
100
AcDbEntity
  8
1
  6
Continuous
 62
     7
100
AcDbCircle
 10
-179.1092983114338
 20
-65.62339990768865
 30
0.0
 40
1.5
  0
XLINE
  5
108
330
1F
100
AcDbEntity
  8
1
  6
DOT_CENTER
 62
     3
 60
     1
100
AcDbXline
 10
-197.6000806359427
 20
5.37660009231135
 30
0.0
 11
1.0
 21
0.0
 31
0.0
  0
ARC
  5
109
330
1F
100
AcDbEntity
  8
1
  6
Continuous
 62
     7
100
AcDbCircle
 10
-178.6092983114338
 20
72.37660009231135
 30
0.0
 40
10.5
100
AcDbArc
 50
0.0
 51
90.0
  0
ARC
  5
10A
330
1F
100
AcDbEntity
  8
1
  6
Continuous
 62
     7
100
AcDbCircle
 10
-178.6092983114338
 20
72.37660009231135
 30
0.0
 40
10.5
100
AcDbArc
 50
90.0
 51
180.0
  0
ARC
  5
10B
330
1F
100
AcDbEntity
  8
1
  6
Continuous
 62
     7
100
AcDbCircle
 10
-178.6092983114338
 20
-61.62339990768865
 30
0.0
 40
10.5
100
AcDbArc
 50
180.0
 51
270.0
  0
ARC
  5
10C
330
1F
100
AcDbEntity
  8
1
  6
Continuous
 62
     7
100
AcDbCircle
 10
-178.6092983114338
 20
-61.62339990768865
 30
0.0
 40
10.5
100
AcDbArc
 50
270.0
 51
0.0
  0
ARC
  5
10D
330
1F
100
AcDbEntity
  8
1
  6
Continuous
 62
     7
100
AcDbCircle
 10
-177.1092983114338
 20
62.37660009231135
 30
0.0
 40
9.0
100
AcDbArc
 50
90.0
 51
180.0
  0
ARC
  5
10E
330
1F
100
AcDbEntity
  8
1
  6
Continuous
 62
     7
100
AcDbCircle
 10
-177.1092983114338
 20
62.37660009231135
 30
0.0
 40
9.0
100
AcDbArc
 50
0.0
 51
90.0
  0
ARC
  5
10F
330
1F
100
AcDbEntity
  8
1
  6
Continuous
 62
     7
100
AcDbCircle
 10
-177.1092983114338
 20
-51.62339990768865
 30
0.0
 40
9.0
100
AcDbArc
 50
180.0
 51
270.0
  0
ARC
  5
110
330
1F
100
AcDbEntity
  8
1
  6
Continuous
 62
     7
100
AcDbCircle
 10
-177.1092983114338
 20
-51.62339990768865
 30
0.0
 40
9.0
100
AcDbArc
 50
270.0
 51
0.0
  0
MTEXT
  5
134
330
1F
100
AcDbEntity
  8
1
 62
     3
100
AcDbMText
 10
-41.26785202835346
 20
11.64187487838285
 30
0.0
 40
3.5
 41
0.0
 71
     4
 72
     1
  1
template\Pblock frame
  7
CONVERTER_11
 73
     1
 44
1.32052821128451
  0
MTEXT
  5
135
330
1F
100
AcDbEntity
  8
1
 62
     3
100
AcDbMText
 10
20.92414325438568
 20
12.64187487838285
 30
0.0
 40
3.5
 41
0.0
 71
     4
 72
     1
  1
template\Pdoor panel
  7
CONVERTER_11
 73
     1
 44
1.32052821128451
  0
MTEXT
  5
136
330
1F
100
AcDbEntity
  8
1
 62
     3
100
AcDbMText
 10
200.087704369848
 20
-130.517654434602
 30
0.0
 40
3.5
 41
0.0
 71
     5
 72
     1
  1
TECTUS TE240-3D
  7
CONVERTER_11
 73
     1
 44
1.32052821128451
  0
DIMENSION
  5
141
330
1F
100
AcDbEntity
  8
1
100
AcDbDimension
  2
*D1
 10
117.726890102643
 20
82.87660009231135
 30
0.0
 11
113.976890102643
 21
5.24632044276422
 31
0.0
 70
    32
  1
<>
 71
     5
 42
-1.0
 53
90.0
  3
ME10_DIM_10
100
AcDbAlignedDimension
 13
170.9119338369392
 23
-72.12339990768865
 33
0.0
 14
170.9119338369392
 24
82.87660009231135
 34
0.0
 50
90.0
100
AcDbRotatedDimension
  0
DIMENSION
  5
14C
330
1F
100
AcDbEntity
  8
1
100
AcDbDimension
  2
*D2
 10
125.370386594335
 20
73.87660009231135
 30
0.0
 11
121.620386594335
 21
4.36093773205647
 31
0.0
 70
    32
  1
<>
 71
     5
 42
-1.0
 53
90.0
  3
ME10_DIM_11
100
AcDbAlignedDimension
 13
155.2482796794875
 23
-63.12339990768866
 33
0.0
 14
155.2482796794875
 24
73.87660009231136
 34
0.0
 50
90.0
100
AcDbRotatedDimension
  0
DIMENSION
  5
157
330
1F
100
AcDbEntity
  8
1
100
AcDbDimension
  2
*D3
 10
134.703482943496
 20
65.37660009231135
 30
0.0
 11
130.953482943496
 21
3.84182995880025
 31
0.0
 70
    32
  1
<>
 71
     5
 42
-1.0
 53
90.0
  3
ME10_DIM_12
100
AcDbAlignedDimension
 13
169.9119338369392
 23
-54.62339990768865
 33
0.0
 14
169.9119338369392
 24
65.37660009231135
 34
0.0
 50
90.0
100
AcDbRotatedDimension
  0
DIMENSION
  5
164
330
1F
100
AcDbEntity
  8
1
100
AcDbDimension
  2
*D4
 10
-7.155817394035
 20
-63.69793997026324
 30
0.0
 11
-10.905817394035
 21
-85.6483512587725
 31
0.0
 70
    32
  1
3mm (0.118
 71
     5
 42
-1.0
 53
90.0
  3
ME10_DIM_13
100
AcDbAlignedDimension
 13
-1.11320632733315
 23
-66.6979399702632
 33
0.0
 14
-11.11320632733307
 24
-63.69793997026324
 34
0.0
 50
90.0
100
AcDbRotatedDimension
  0
DIMENSION
  5
170
330
1F
100
AcDbEntity
  8
1
100
AcDbDimension
  2
*D5
 10
56.5158341698211
 20
-42.6979399702632
 30
0.0
 11
52.7658341698211
 21
-23.7226779503028
 31
0.0
 70
    32
  1
24mm (0.945
 71
     5
 42
-1.0
 53
90.0
  3
ME10_DIM_14
100
AcDbAlignedDimension
 13
47.38679367266684
 23
-66.6979399702632
 33
0.0
 14
15.38679367266695
 24
-42.69793997026321
 34
0.0
 50
90.0
100
AcDbRotatedDimension
  0
DIMENSION
  5
17D
330
1F
100
AcDbEntity
  8
1
100
AcDbDimension
  2
*D6
 10
9.63953091356274
 20
-62.69793997026319
 30
0.0
 11
5.88953091356274
 21
-86.6886454488453
 31
0.0
 70
    32
  1
4mm (0.157
 71
     5
 42
-1.0
 53
90.0
  3
ME10_DIM_15
100
AcDbAlignedDimension
 13
2.38679367266664
 23
-66.6979399702632
 33
0.0
 14
12.38679367266663
 24
-62.69793997026319
 34
0.0
 50
90.0
100
AcDbRotatedDimension
  0
DIMENSION
  5
189
330
1F
100
AcDbEntity
  8
1
100
AcDbDimension
  2
*D7
 10
61.1986003432113
 20
-118.622960427562
 30
0.0
 11
39.74111234376289
 21
-114.872960427562
 31
0.0
 70
    32
  1
<>
 71
     5
 42
-1.0
 53
0.00013888888889
  3
ME10_DIM_16
100
AcDbAlignedDimension
 13
88.1986003432113
 23
-54.62339990768866
 33
0.0
 14
61.1986003432113
 24
-72.12339990768865
 34
0.0
100
AcDbRotatedDimension
  0
DIMENSION
  5
195
330
1F
100
AcDbEntity
  8
1
100
AcDbDimension
  2
*D8
 10
71.1986003432113
 20
-105.785670014645
 30
0.0
 11
41.6801120072015
 21
-102.035670014645
 31
0.0
 70
    32
  1
10mm (0.394
 71
     5
 42
-1.0
 53
0.00013888888889
  3
ME10_DIM_17
100
AcDbAlignedDimension
 13
61.1986003432113
 23
-94.62339990768866
 33
0.0
 14
71.1986003432113
 24
-72.12339990768865
 34
0.0
100
AcDbRotatedDimension
  0
DIMENSION
  5
1A1
330
1F
100
AcDbEntity
  8
1
100
AcDbDimension
  2
*D9
 10
-78.80177865188125
 20
-106.2653824624736
 30
0.0
 11
-96.73414482681312
 21
-102.5153824624736
 31
0.0
 70
    32
  1
10mm (0.394
 71
     5
 42
-1.0
 53
0.00013888888889
  3
ME10_DIM_18
100
AcDbAlignedDimension
 13
-68.80177865188125
 23
-94.62339990768865
 33
0.0
 14
-78.80177865188125
 24
-72.12339990768865
 34
0.0
100
AcDbRotatedDimension
  0
DIMENSION
  5
1AE
330
1F
100
AcDbEntity
  8
1
100
AcDbDimension
  2
*D10
 10
-68.80177865188128
 20
-118.2833961103276
 30
0.0
 11
-111.9759941980756
 21
-114.5333961103276
 31
0.0
 70
    32
  1
24mm (0.945
 71
     5
 42
-1.0
 53
0.00013888888889
  3
ME10_DIM_19
100
AcDbAlignedDimension
 13
-92.80488390961862
 23
-60.62339990768862
 33
0.0
 14
-68.80177865188125
 24
-72.12339990768866
 34
0.0
100
AcDbRotatedDimension
  0
DIMENSION
  5
1BA
330
1F
100
AcDbEntity
  8
1
100
AcDbDimension
  2
*D11
 10
177.9119338369392
 20
18.3048182481224
 30
0.0
 11
204.4154146002617
 21
22.0548182481224
 31
0.0
 70
    32
  1
16mm (0.630
 71
     5
 42
-1.0
 53
0.00013888888889
  3
ME10_DIM_20
100
AcDbAlignedDimension
 13
161.9119338369392
 23
5.37660009231135
 33
0.0
 14
177.9119338369392
 24
-46.62339990768865
 34
0.0
100
AcDbRotatedDimension
  0
DIMENSION
  5
1C6
330
1F
100
AcDbEntity
  8
1
100
AcDbDimension
  2
*D12
 10
179.9119338369392
 20
-116.781584343866
 30
0.0
 11
205.6042017945569
 21
-113.031584343866
 31
0.0
 70
    32
  1
18mm (0.709
 71
     5
 42
-1.0
 53
0.00013888888889
  3
ME10_DIM_21
100
AcDbAlignedDimension
 13
161.9119338369392
 23
-63.12339990768867
 33
0.0
 14
179.9119338369392
 24
-63.12339990768865
 34
0.0
100
AcDbRotatedDimension
  0
DIMENSION
  5
1D3
330
1F
100
AcDbEntity
  8
1
100
AcDbDimension
  2
*D13
 10
183.9119338369392
 20
-105.781584343866
 30
0.0
 11
206.3038725289399
 21
-102.031584343866
 31
0.0
 70
    32
  1
4mm (0.157
 71
     5
 42
-1.0
 53
0.00013888888889
  3
ME10_DIM_22
100
AcDbAlignedDimension
 13
179.9119338369392
 23
-63.12339990768865
 33
0.0
 14
183.9119338369392
 24
-94.62339990768871
 34
0.0
100
AcDbRotatedDimension
  0
DIMENSION
  5
1DF
330
1F
100
AcDbEntity
  8
1
100
AcDbDimension
  2
*D14
 10
-168.1092983114338
 20
-119.5759847602375
 30
0.0
 11
-207.8452342178087
 21
-115.8259847602375
 31
0.0
 70
    32
  1
21mm (0.827
 71
     5
 42
-1.0
 53
0.00013888888889
  3
ME10_DIM_23
100
AcDbAlignedDimension
 13
-189.1092983114338
 23
-61.62339990768865
 33
0.0
 14
-168.1092983114338
 24
-61.62339990768865
 34
0.0
100
AcDbRotatedDimension
  0
DIMENSION
  5
1EB
330
1F
100
AcDbEntity
  8
1
100
AcDbDimension
  2
*D15
 10
-186.1092983114338
 20
28.4188748070954
 30
0.0
 11
-212.5515473033972
 21
32.1688748070954
 31
0.0
 70
    32
  1
18mm (0.709
 71
     5
 42
-1.0
 53
0.00013888888889
  3
ME10_DIM_24
100
AcDbAlignedDimension
 13
-168.1092983114338
 23
72.37660009231135
 33
0.0
 14
-186.1092983114338
 24
62.37660009231134
 34
0.0
100
AcDbRotatedDimension
  0
DIMENSION
  5
1F6
330
1F
100
AcDbEntity
  8
1
100
AcDbDimension
  2
*D16
 10
-119.887717566138
 20
82.87660009231135
 30
0.0
 11
-123.637717566138
 21
6.81986230664208
 31
0.0
 70
    32
  1
<>
 71
     5
 42
-1.0
 53
90.0
  3
ME10_DIM_25
100
AcDbAlignedDimension
 13
-178.6092983114338
 23
-72.12339990768865
 33
0.0
 14
-178.6092983114338
 24
82.87660009231135
 34
0.0
 50
90.0
100
AcDbRotatedDimension
  0
DIMENSION
  5
201
330
1F
100
AcDbEntity
  8
1
100
AcDbDimension
  2
*D17
 10
-151.908988527876
 20
71.37660009231135
 30
0.0
 11
-155.658988527876
 21
4.62500743621877
 31
0.0
 70
    32
  1
<>
 71
     5
 42
-1.0
 53
90.0
  3
ME10_DIM_26
100
AcDbAlignedDimension
 13
-177.1092983114338
 23
-60.62339990768865
 33
0.0
 14
-177.1092983114338
 24
71.37660009231135
 34
0.0
 50
90.0
100
AcDbRotatedDimension
  0
DIMENSION
  5
20E
330
1F
100
AcDbEntity
  8
1
100
AcDbDimension
  2
*D18
 10
-192.1092983114338
 20
-107.635225276103
 30
0.0
 11
-209.619257011963
 21
-103.885225276103
 31
0.0
 70
    32
  1
3mm (0.118
 71
     5
 42
-1.0
 53
0.00013888888889
  3
ME10_DIM_27
100
AcDbAlignedDimension
 13
-189.1092983114338
 23
-61.62339990768865
 33
0.0
 14
-192.1092983114338
 24
-94.62339990768865
 34
0.0
100
AcDbRotatedDimension
  0
DIMENSION
  5
219
330
1F
100
AcDbEntity
  8
1
100
AcDbDimension
  2
*D19
 10
-129.185402709083
 20
76.37660009231135
 30
0.0
 11
-132.935402709083
 21
7.6338864641225
 31
0.0
 70
    32
  1
<>
 71
     5
 42
-1.0
 53
90.0
  3
ME10_DIM_28
100
AcDbAlignedDimension
 13
-176.8592983114338
 23
-65.62339990768865
 33
0.0
 14
-176.8592983114338
 24
76.37660009231135
 34
0.0
 50
90.0
100
AcDbRotatedDimension
  0
INSERT
  5
220
330
1F
100
AcDbEntity
  8
1
100
AcDbBlockReference
  2
*D20
 10
0.0
 20
0.0
 30
0.0
  0
INSERT
  5
229
330
1F
100
AcDbEntity
  8
1
100
AcDbBlockReference
  2
*D21
 10
0.0
 20
0.0
 30
0.0
  0
INSERT
  5
232
330
1F
100
AcDbEntity
  8
1
100
AcDbBlockReference
  2
*D22
 10
0.0
 20
0.0
 30
0.0
  0
INSERT
  5
23B
330
1F
100
AcDbEntity
  8
1
100
AcDbBlockReference
  2
*D23
 10
0.0
 20
0.0
 30
0.0
  0
INSERT
  5
244
330
1F
100
AcDbEntity
  8
1
100
AcDbBlockReference
  2
*D24
 10
0.0
 20
0.0
 30
0.0
  0
ENDSEC
  0
SECTION
  2
OBJECTS
  0
DICTIONARY
  5
C
330
0
100
AcDbDictionary
281
     1
  3
ACAD_GROUP
350
D
  3
ACAD_LAYOUT
350
1A
  3
ACAD_MLEADERSTYLE
350
248
  3
ACAD_MLINESTYLE
350
17
  3
ACAD_PLOTSETTINGS
350
19
  3
ACAD_PLOTSTYLENAME
350
E
  3
ACAD_SCALELIST
350
112
  3
ACAD_TABLESTYLE
350
247
  3
ACAD_VISUALSTYLE
350
2A
  3
AcDbVariableDictionary
350
245
  0
DICTIONARY
  5
D
102
{ACAD_REACTORS
330
C
102
}
330
C
100
AcDbDictionary
281
     1
  0
DICTIONARY
  5
1A
102
{ACAD_REACTORS
330
C
102
}
330
C
100
AcDbDictionary
281
     1
  3
Layout1
350
1E
  3
Layout2
350
26
  3
Model
350
22
  0
DICTIONARY
  5
248
102
{ACAD_REACTORS
330
C
102
}
330
C
100
AcDbDictionary
281
     1
  0
DICTIONARY
  5
17
102
{ACAD_REACTORS
330
C
102
}
330
C
100
AcDbDictionary
281
     1
  3
Standard
350
18
  0
DICTIONARY
  5
19
102
{ACAD_REACTORS
330
C
102
}
330
C
100
AcDbDictionary
281
     1
  0
ACDBDICTIONARYWDFLT
  5
E
102
{ACAD_REACTORS
330
C
102
}
330
C
100
AcDbDictionary
281
     1
  3
Normal
350
F
100
AcDbDictionaryWithDefault
340
F
  0
DICTIONARY
  5
112
102
{ACAD_REACTORS
330
C
102
}
330
C
100
AcDbDictionary
281
     1
  3
A0
350
113
  3
A1
350
114
  3
A2
350
115
  3
A3
350
116
  3
A4
350
117
  3
A5
350
118
  3
A6
350
119
  3
A7
350
11A
  3
A8
350
11B
  3
A9
350
11C
  3
B0
350
11D
  3
B1
350
11E
  3
B2
350
11F
  3
B3
350
120
  3
B4
350
121
  3
B5
350
122
  3
B6
350
123
  3
B7
350
124
  3
B8
350
125
  3
B9
350
126
  3
C0
350
127
  3
C1
350
128
  3
C2
350
129
  3
C3
350
12A
  3
C4
350
12B
  3
C5
350
12C
  3
C6
350
12D
  3
C7
350
12E
  3
C8
350
12F
  3
C9
350
130
  3
D0
350
131
  3
D1
350
132
  3
D2
350
133
  0
DICTIONARY
  5
247
102
{ACAD_REACTORS
330
C
102
}
330
C
100
AcDbDictionary
281
     1
  0
DICTIONARY
  5
2A
102
{ACAD_REACTORS
330
C
102
}
330
C
100
AcDbDictionary
281
     1
  3
2dWireframe
350
2F
  3
3D Hidden
350
31
  3
3dWireframe
350
30
  3
Basic
350
32
  3
Brighten
350
36
  3
ColorChange
350
3A
  3
Conceptual
350
34
  3
Dim
350
35
  3
Facepattern
350
39
  3
Flat
350
2B
  3
FlatWithEdges
350
2C
  3
Gouraud
350
2D
  3
GouraudWithEdges
350
2E
  3
Linepattern
350
38
  3
Realistic
350
33
  3
Thicken
350
37
  0
DICTIONARY
  5
245
102
{ACAD_REACTORS
330
C
102
}
330
C
100
AcDbDictionary
281
     1
  3
CANNOSCALE
350
246
  0
LAYOUT
  5
1E
102
{ACAD_REACTORS
330
1A
102
}
330
1A
100
AcDbPlotSettings
  1

  2
none_device
  4

  6

 40
0.0
 41
0.0
 42
0.0
 43
0.0
 44
0.0
 45
0.0
 46
0.0
 47
0.0
 48
0.0
 49
0.0
140
0.0
141
0.0
142
1.0
143
1.0
 70
   688
 72
     0
 73
     0
 74
     5
  7

 75
    16
 76
     0
 77
     2
 78
   300
147
1.0
148
0.0
149
0.0
100
AcDbLayout
  1
Layout1
 70
     1
 71
     1
 10
0.0
 20
0.0
 11
12.0
 21
9.0
 12
0.0
 22
0.0
 32
0.0
 14
1.00000000000000E+20
 24
1.00000000000000E+20
 34
1.00000000000000E+20
 15
-1.00000000000000E+20
 25
-1.00000000000000E+20
 35
-1.00000000000000E+20
146
0.0
 13
0.0
 23
0.0
 33
0.0
 16
1.0
 26
0.0
 36
0.0
 17
0.0
 27
1.0
 37
0.0
 76
     0
330
1B
  0
LAYOUT
  5
26
102
{ACAD_REACTORS
330
1A
102
}
330
1A
100
AcDbPlotSettings
  1

  2
none_device
  4

  6

 40
0.0
 41
0.0
 42
0.0
 43
0.0
 44
0.0
 45
0.0
 46
0.0
 47
0.0
 48
0.0
 49
0.0
140
0.0
141
0.0
142
1.0
143
1.0
 70
   688
 72
     0
 73
     0
 74
     5
  7

 75
    16
 76
     0
 77
     2
 78
   300
147
1.0
148
0.0
149
0.0
100
AcDbLayout
  1
Layout2
 70
     1
 71
     2
 10
0.0
 20
0.0
 11
0.0
 21
0.0
 12
0.0
 22
0.0
 32
0.0
 14
0.0
 24
0.0
 34
0.0
 15
0.0
 25
0.0
 35
0.0
146
0.0
 13
0.0
 23
0.0
 33
0.0
 16
1.0
 26
0.0
 36
0.0
 17
0.0
 27
1.0
 37
0.0
 76
     0
330
23
  0
LAYOUT
  5
22
102
{ACAD_REACTORS
330
1A
102
}
330
1A
100
AcDbPlotSettings
  1

  2
none_device
  4

  6

 40
0.0
 41
0.0
 42
0.0
 43
0.0
 44
0.0
 45
0.0
 46
0.0
 47
0.0
 48
0.0
 49
0.0
140
0.0
141
0.0
142
1.0
143
1.0
 70
  1712
 72
     0
 73
     0
 74
     0
  7

 75
     0
 76
     0
 77
     2
 78
   300
147
1.0
148
0.0
149
0.0
100
AcDbLayout
  1
Model
 70
     1
 71
     0
 10
0.0
 20
0.0
 11
12.0
 21
9.0
 12
0.0
 22
0.0
 32
0.0
 14
-229.9976874243569
 24
-132.267654434602
 34
0.0
 15
224.237704369848
 25
122.6006344436558
 35
0.0
146
0.0
 13
0.0
 23
0.0
 33
0.0
 16
1.0
 26
0.0
 36
0.0
 17
0.0
 27
1.0
 37
0.0
 76
     0
330
1F
331
29
  0
MLINESTYLE
  5
18
102
{ACAD_REACTORS
330
17
102
}
330
17
100
AcDbMlineStyle
  2
Standard
 70
     0
  3

 62
   256
 51
90.0
 52
90.0
 71
     2
 49
0.5
 62
   256
  6
BYLAYER
 49
-0.5
 62
   256
  6
BYLAYER
  0
ACDBPLACEHOLDER
  5
F
102
{ACAD_REACTORS
330
E
102
}
330
E
  0
SCALE
  5
113
102
{ACAD_REACTORS
330
112
102
}
330
112
100
AcDbScale
 70
     0
300
1:1
140
1.0
141
1.0
290
     1
  0
SCALE
  5
114
102
{ACAD_REACTORS
330
112
102
}
330
112
100
AcDbScale
 70
     0
300
1:2
140
1.0
141
2.0
290
     0
  0
SCALE
  5
115
102
{ACAD_REACTORS
330
112
102
}
330
112
100
AcDbScale
 70
     0
300
1:4
140
1.0
141
4.0
290
     0
  0
SCALE
  5
116
102
{ACAD_REACTORS
330
112
102
}
330
112
100
AcDbScale
 70
     0
300
1:5
140
1.0
141
5.0
290
     0
  0
SCALE
  5
117
102
{ACAD_REACTORS
330
112
102
}
330
112
100
AcDbScale
 70
     0
300
1:8
140
1.0
141
8.0
290
     0
  0
SCALE
  5
118
102
{ACAD_REACTORS
330
112
102
}
330
112
100
AcDbScale
 70
     0
300
1:10
140
1.0
141
10.0
290
     0
  0
SCALE
  5
119
102
{ACAD_REACTORS
330
112
102
}
330
112
100
AcDbScale
 70
     0
300
1:16
140
1.0
141
16.0
290
     0
  0
SCALE
  5
11A
102
{ACAD_REACTORS
330
112
102
}
330
112
100
AcDbScale
 70
     0
300
1:20
140
1.0
141
20.0
290
     0
  0
SCALE
  5
11B
102
{ACAD_REACTORS
330
112
102
}
330
112
100
AcDbScale
 70
     0
300
1:30
140
1.0
141
30.0
290
     0
  0
SCALE
  5
11C
102
{ACAD_REACTORS
330
112
102
}
330
112
100
AcDbScale
 70
     0
300
1:40
140
1.0
141
40.0
290
     0
  0
SCALE
  5
11D
102
{ACAD_REACTORS
330
112
102
}
330
112
100
AcDbScale
 70
     0
300
1:50
140
1.0
141
50.0
290
     0
  0
SCALE
  5
11E
102
{ACAD_REACTORS
330
112
102
}
330
112
100
AcDbScale
 70
     0
300
1:100
140
1.0
141
100.0
290
     0
  0
SCALE
  5
11F
102
{ACAD_REACTORS
330
112
102
}
330
112
100
AcDbScale
 70
     0
300
2:1
140
2.0
141
1.0
290
     0
  0
SCALE
  5
120
102
{ACAD_REACTORS
330
112
102
}
330
112
100
AcDbScale
 70
     0
300
4:1
140
4.0
141
1.0
290
     0
  0
SCALE
  5
121
102
{ACAD_REACTORS
330
112
102
}
330
112
100
AcDbScale
 70
     0
300
8:1
140
8.0
141
1.0
290
     0
  0
SCALE
  5
122
102
{ACAD_REACTORS
330
112
102
}
330
112
100
AcDbScale
 70
     0
300
10:1
140
10.0
141
1.0
290
     0
  0
SCALE
  5
123
102
{ACAD_REACTORS
330
112
102
}
330
112
100
AcDbScale
 70
     0
300
100:1
140
100.0
141
1.0
290
     0
  0
SCALE
  5
124
102
{ACAD_REACTORS
330
112
102
}
330
112
100
AcDbScale
 70
     0
300
1/128" = 1'-0"
140
0.0078125
141
12.0
290
     0
  0
SCALE
  5
125
102
{ACAD_REACTORS
330
112
102
}
330
112
100
AcDbScale
 70
     0
300
1/64" = 1'-0"
140
0.015625
141
12.0
290
     0
  0
SCALE
  5
126
102
{ACAD_REACTORS
330
112
102
}
330
112
100
AcDbScale
 70
     0
300
1/32" = 1'-0"
140
0.03125
141
12.0
290
     0
  0
SCALE
  5
127
102
{ACAD_REACTORS
330
112
102
}
330
112
100
AcDbScale
 70
     0
300
1/16" = 1'-0"
140
0.0625
141
12.0
290
     0
  0
SCALE
  5
128
102
{ACAD_REACTORS
330
112
102
}
330
112
100
AcDbScale
 70
     0
300
3/32" = 1'-0"
140
0.09375
141
12.0
290
     0
  0
SCALE
  5
129
102
{ACAD_REACTORS
330
112
102
}
330
112
100
AcDbScale
 70
     0
300
1/8" = 1'-0"
140
0.125
141
12.0
290
     0
  0
SCALE
  5
12A
102
{ACAD_REACTORS
330
112
102
}
330
112
100
AcDbScale
 70
     0
300
3/16" = 1'-0"
140
0.1875
141
12.0
290
     0
  0
SCALE
  5
12B
102
{ACAD_REACTORS
330
112
102
}
330
112
100
AcDbScale
 70
     0
300
1/4" = 1'-0"
140
0.25
141
12.0
290
     0
  0
SCALE
  5
12C
102
{ACAD_REACTORS
330
112
102
}
330
112
100
AcDbScale
 70
     0
300
3/8" = 1'-0"
140
0.375
141
12.0
290
     0
  0
SCALE
  5
12D
102
{ACAD_REACTORS
330
112
102
}
330
112
100
AcDbScale
 70
     0
300
1/2" = 1'-0"
140
0.5
141
12.0
290
     0
  0
SCALE
  5
12E
102
{ACAD_REACTORS
330
112
102
}
330
112
100
AcDbScale
 70
     0
300
3/4" = 1'-0"
140
0.75
141
12.0
290
     0
  0
SCALE
  5
12F
102
{ACAD_REACTORS
330
112
102
}
330
112
100
AcDbScale
 70
     0
300
1" = 1'-0"
140
1.0
141
12.0
290
     0
  0
SCALE
  5
130
102
{ACAD_REACTORS
330
112
102
}
330
112
100
AcDbScale
 70
     0
300
1-1/2" = 1'-0"
140
1.5
141
12.0
290
     0
  0
SCALE
  5
131
102
{ACAD_REACTORS
330
112
102
}
330
112
100
AcDbScale
 70
     0
300
3" = 1'-0"
140
3.0
141
12.0
290
     0
  0
SCALE
  5
132
102
{ACAD_REACTORS
330
112
102
}
330
112
100
AcDbScale
 70
     0
300
6" = 1'-0"
140
6.0
141
12.0
290
     0
  0
SCALE
  5
133
102
{ACAD_REACTORS
330
112
102
}
330
112
100
AcDbScale
 70
     0
300
1'-0" = 1'-0"
140
12.0
141
12.0
290
     0
  0
VISUALSTYLE
  5
2F
102
{ACAD_REACTORS
330
2A
102
}
330
2A
100
AcDbVisualStyle
  2
2dWireframe
 70
     4
 71
     0
 72
     2
 73
     0
 90
        0
 40
-0.6
 41
-30.0
 62
     5
 63
     7
421
 16777215
 74
     1
 91
        4
 64
     7
 65
   257
 75
     1
175
     1
 42
1.0
 92
        0
 66
   257
 43
1.0
 76
     1
 77
     6
 78
     2
 67
     7
 79
     5
170
     0
171
     0
290
     0
174
     0
 93
        1
 44
0.0
173
     0
291
     0
 45
0.0
1001
ACAD
1000
AcDbSavedByObjectVersion
1070
     0
  0
VISUALSTYLE
  5
31
102
{ACAD_REACTORS
330
2A
102
}
330
2A
100
AcDbVisualStyle
  2
3D Hidden
 70
     6
 71
     1
 72
     2
 73
     2
 90
        0
 40
-0.6
 41
-30.0
 62
     5
 63
     7
421
 16777215
 74
     2
 91
        2
 64
     7
 65
   257
 75
     2
175
     1
 42
40.0
 92
        0
 66
   257
 43
1.0
 76
     1
 77
     6
 78
     2
 67
     7
 79
     3
170
     0
171
     0
290
     0
174
     0
 93
        1
 44
0.0
173
     0
291
     0
 45
0.0
1001
ACAD
1000
AcDbSavedByObjectVersion
1070
     0
  0
VISUALSTYLE
  5
30
102
{ACAD_REACTORS
330
2A
102
}
330
2A
100
AcDbVisualStyle
  2
3dWireframe
 70
     5
 71
     0
 72
     2
 73
     0
 90
        0
 40
-0.6
 41
-30.0
 62
     5
 63
     7
421
 16777215
 74
     1
 91
        4
 64
     7
 65
   257
 75
     1
175
     1
 42
1.0
 92
        0
 66
   257
 43
1.0
 76
     1
 77
     6
 78
     2
 67
     7
 79
     5
170
     0
171
     0
290
     0
174
     0
 93
        1
 44
0.0
173
     0
291
     0
 45
0.0
1001
ACAD
1000
AcDbSavedByObjectVersion
1070
     0
  0
VISUALSTYLE
  5
32
102
{ACAD_REACTORS
330
2A
102
}
330
2A
100
AcDbVisualStyle
  2
Basic
 70
     7
 71
     1
 72
     0
 73
     1
 90
        0
 40
-0.6
 41
-30.0
 62
     5
 63
     7
421
 16777215
 74
     0
 91
        4
 64
     7
 65
   257
 75
     1
175
     1
 42
1.0
 92
        8
 66
     7
 43
1.0
 76
     1
 77
     6
 78
     2
 67
     7
 79
     5
170
     0
171
     0
290
     0
174
     0
 93
        1
 44
0.0
173
     0
291
     1
 45
0.0
1001
ACAD
1000
AcDbSavedByObjectVersion
1070
     0
  0
VISUALSTYLE
  5
36
102
{ACAD_REACTORS
330
2A
102
}
330
2A
100
AcDbVisualStyle
  2
Brighten
 70
    12
 71
     2
 72
     2
 73
     0
 90
        0
 40
-0.6
 41
-30.0
 62
     5
 63
     7
421
 16777215
 74
     1
 91
        4
 64
     7
 65
   257
 75
     1
175
     1
 42
1.0
 92
        8
 66
     7
 43
1.0
 76
     1
 77
     6
 78
     2
 67
     7
 79
     5
170
     0
171
     0
290
     0
174
     0
 93
        1
 44
50.0
173
     0
291
     1
 45
0.0
1001
ACAD
1000
AcDbSavedByObjectVersion
1070
     0
  0
VISUALSTYLE
  5
3A
102
{ACAD_REACTORS
330
2A
102
}
330
2A
100
AcDbVisualStyle
  2
ColorChange
 70
    16
 71
     2
 72
     2
 73
     3
 90
        0
 40
-0.6
 41
-30.0
 62
     5
 63
     8
421
  8421504
 74
     1
 91
        4
 64
     7
 65
   257
 75
     1
175
     1
 42
1.0
 92
        8
 66
     8
424
  8421504
 43
1.0
 76
     1
 77
     6
 78
     2
 67
     7
 79
     5
170
     0
171
     0
290
     0
174
     0
 93
        1
 44
0.0
173
     0
291
     1
 45
0.0
1001
ACAD
1000
AcDbSavedByObjectVersion
1070
     0
  0
VISUALSTYLE
  5
34
102
{ACAD_REACTORS
330
2A
102
}
330
2A
100
AcDbVisualStyle
  2
Conceptual
 70
     9
 71
     3
 72
     2
 73
     0
 90
        0
 40
-0.6
 41
-30.0
 62
     5
 63
     7
421
 16777215
 74
     2
 91
        2
 64
     7
 65
   257
 75
     1
175
     1
 42
40.0
 92
        8
 66
     7
 43
1.0
 76
     1
 77
     6
 78
     2
 67
     7
 79
     3
170
     0
171
     0
290
     0
174
     0
 93
        1
 44
0.0
173
     0
291
     0
 45
0.0
1001
ACAD
1000
AcDbSavedByObjectVersion
1070
     0
  0
VISUALSTYLE
  5
35
102
{ACAD_REACTORS
330
2A
102
}
330
2A
100
AcDbVisualStyle
  2
Dim
 70
    11
 71
     2
 72
     2
 73
     0
 90
        0
 40
-0.6
 41
-30.0
 62
     5
 63
     7
421
 16777215
 74
     1
 91
        4
 64
     7
 65
   257
 75
     1
175
     1
 42
1.0
 92
        8
 66
     7
 43
1.0
 76
     1
 77
     6
 78
     2
 67
     7
 79
     5
170
     0
171
     0
290
     0
174
     0
 93
        1
 44
-50.0
173
     0
291
     1
 45
0.0
1001
ACAD
1000
AcDbSavedByObjectVersion
1070
     0
  0
VISUALSTYLE
  5
39
102
{ACAD_REACTORS
330
2A
102
}
330
2A
100
AcDbVisualStyle
  2
Facepattern
 70
    15
 71
     2
 72
     2
 73
     0
 90
        0
 40
-0.6
 41
-30.0
 62
     5
 63
     7
421
 16777215
 74
     1
 91
        4
 64
     7
 65
   257
 75
     1
175
     1
 42
1.0
 92
        8
 66
     7
 43
1.0
 76
     1
 77
     6
 78
     2
 67
     7
 79
     5
170
     0
171
     0
290
     0
174
     0
 93
        1
 44
0.0
173
     0
291
     1
 45
0.0
1001
ACAD
1000
AcDbSavedByObjectVersion
1070
     0
  0
VISUALSTYLE
  5
2B
102
{ACAD_REACTORS
330
2A
102
}
330
2A
100
AcDbVisualStyle
  2
Flat
 70
     0
 71
     2
 72
     1
 73
     1
 90
        2
 40
-0.6
 41
30.0
 62
     5
 63
     7
421
 16777215
 74
     0
 91
        4
 64
     7
 65
   257
 75
     1
175
     1
 42
1.0
 92
        8
 66
     7
 43
1.0
 76
     1
 77
     6
 78
     2
 67
     7
 79
     5
170
     0
171
     0
290
     0
174
     0
 93
       13
 44
0.0
173
     0
291
     1
 45
0.0
1001
ACAD
1000
AcDbSavedByObjectVersion
1070
     0
  0
VISUALSTYLE
  5
2C
102
{ACAD_REACTORS
330
2A
102
}
330
2A
100
AcDbVisualStyle
  2
FlatWithEdges
 70
     1
 71
     2
 72
     1
 73
     1
 90
        2
 40
-0.6
 41
30.0
 62
     5
 63
     7
421
 16777215
 74
     1
 91
        4
 64
     7
 65
   257
 75
     1
175
     1
 42
1.0
 92
        0
 66
   257
 43
1.0
 76
     1
 77
     6
 78
     2
 67
     7
 79
     5
170
     0
171
     0
290
     0
174
     0
 93
       13
 44
0.0
173
     0
291
     1
 45
0.0
1001
ACAD
1000
AcDbSavedByObjectVersion
1070
     0
  0
VISUALSTYLE
  5
2D
102
{ACAD_REACTORS
330
2A
102
}
330
2A
100
AcDbVisualStyle
  2
Gouraud
 70
     2
 71
     2
 72
     2
 73
     1
 90
        2
 40
-0.6
 41
30.0
 62
     5
 63
     7
421
 16777215
 74
     0
 91
        4
 64
     7
 65
   257
 75
     1
175
     1
 42
1.0
 92
        0
 66
     7
 43
1.0
 76
     1
 77
     6
 78
     2
 67
     7
 79
     5
170
     0
171
     0
290
     0
174
     0
 93
       13
 44
0.0
173
     0
291
     1
 45
0.0
1001
ACAD
1000
AcDbSavedByObjectVersion
1070
     0
  0
VISUALSTYLE
  5
2E
102
{ACAD_REACTORS
330
2A
102
}
330
2A
100
AcDbVisualStyle
  2
GouraudWithEdges
 70
     3
 71
     2
 72
     2
 73
     1
 90
        2
 40
-0.6
 41
30.0
 62
     5
 63
     7
421
 16777215
 74
     1
 91
        4
 64
     7
 65
   257
 75
     1
175
     1
 42
1.0
 92
        0
 66
   257
 43
1.0
 76
     1
 77
     6
 78
     2
 67
     7
 79
     5
170
     0
171
     0
290
     0
174
     0
 93
       13
 44
0.0
173
     0
291
     1
 45
0.0
1001
ACAD
1000
AcDbSavedByObjectVersion
1070
     0
  0
VISUALSTYLE
  5
38
102
{ACAD_REACTORS
330
2A
102
}
330
2A
100
AcDbVisualStyle
  2
Linepattern
 70
    14
 71
     2
 72
     2
 73
     0
 90
        0
 40
-0.6
 41
-30.0
 62
     5
 63
     7
421
 16777215
 74
     1
 91
        4
 64
     7
 65
   257
 75
     7
175
     7
 42
1.0
 92
        8
 66
     7
 43
1.0
 76
     1
 77
     6
 78
     2
 67
     7
 79
     5
170
     0
171
     0
290
     0
174
     0
 93
        1
 44
0.0
173
     0
291
     1
 45
0.0
1001
ACAD
1000
AcDbSavedByObjectVersion
1070
     0
  0
VISUALSTYLE
  5
33
102
{ACAD_REACTORS
330
2A
102
}
330
2A
100
AcDbVisualStyle
  2
Realistic
 70
     8
 71
     2
 72
     2
 73
     0
 90
        0
 40
-0.6
 41
-30.0
 62
     5
 63
     7
421
 16777215
 74
     1
 91
        0
 64
     7
 65
   257
 75
     1
175
     1
 42
1.0
 92
        8
 66
     8
424
  7895160
 43
1.0
 76
     1
 77
     6
 78
     2
 67
     7
 79
     5
170
     0
171
     0
290
     0
174
     0
 93
       13
 44
0.0
173
     0
291
     0
 45
0.0
1001
ACAD
1000
AcDbSavedByObjectVersion
1070
     0
  0
VISUALSTYLE
  5
37
102
{ACAD_REACTORS
330
2A
102
}
330
2A
100
AcDbVisualStyle
  2
Thicken
 70
    13
 71
     2
 72
     2
 73
     0
 90
        0
 40
-0.6
 41
-30.0
 62
     5
 63
     7
421
 16777215
 74
     1
 91
        4
 64
     7
 65
   257
 75
     1
175
     1
 42
1.0
 92
       12
 66
     7
 43
1.0
 76
     1
 77
     6
 78
     2
 67
     7
 79
     5
170
     0
171
     0
290
     0
174
     0
 93
        1
 44
0.0
173
     0
291
     1
 45
0.0
1001
ACAD
1000
AcDbSavedByObjectVersion
1070
     0
  0
DICTIONARYVAR
  5
246
102
{ACAD_REACTORS
330
245
102
}
330
245
100
DictionaryVariables
280
     0
  1
1:1
  0
ENDSEC
  0
EOF
