  0
SECTION
  2
HEADER
  9
$ACADVER
  1
AC1021
  9
$ACADMAINTVER
 70
    25
  9
$DWGCODEPAGE
  3
ANSI_1252
  9
$INSBASE
 10
0.0
 20
0.0
 30
0.0
  9
$EXTMIN
 10
0.0
 20
0.0
 30
0.0
  9
$EXTMAX
 10
841.0
 20
594.0
 30
0.0
  9
$LIMMIN
 10
0.0
 20
0.0
  9
$LIMMAX
 10
841.0
 20
594.0
  9
$ORTHOMODE
 70
     0
  9
$REGENMODE
 70
     1
  9
$FILLMODE
 70
     1
  9
$QTEXTMODE
 70
     0
  9
$MIRRTEXT
 70
     1
  9
$LTSCALE
 40
1.0
  9
$ATTMODE
 70
     1
  9
$TEXTSIZE
 40
3.5
  9
$TRACEWID
 40
1.0
  9
$TEXTSTYLE
  7
Standard
  9
$CLAYER
  8
0
  9
$CELTYPE
  6
ByLayer
  9
$CECOLOR
 62
   256
  9
$CELTSCALE
 40
1.0
  9
$DISPSILH
 70
     0
  9
$DIMSCALE
 40
1.0
  9
$DIMASZ
 40
2.5
  9
$DIMEXO
 40
0.625
  9
$DIMDLI
 40
3.75
  9
$DIMRND
 40
0.0
  9
$DIMDLE
 40
0.0
  9
$DIMEXE
 40
1.25
  9
$DIMTP
 40
0.0
  9
$DIMTM
 40
0.0
  9
$DIMTXT
 40
2.5
  9
$DIMCEN
 40
2.5
  9
$DIMTSZ
 40
0.0
  9
$DIMTOL
 70
     0
  9
$DIMLIM
 70
     0
  9
$DIMTIH
 70
     0
  9
$DIMTOH
 70
     0
  9
$DIMSE1
 70
     0
  9
$DIMSE2
 70
     0
  9
$DIMTAD
 70
     1
  9
$DIMZIN
 70
     8
  9
$DIMBLK
  1

  9
$DIMASO
 70
     1
  9
$DIMSHO
 70
     1
  9
$DIMPOST
  1

  9
$DIMAPOST
  1

  9
$DIMALT
 70
     0
  9
$DIMALTD
 70
     3
  9
$DIMALTF
 40
0.0393700787
  9
$DIMLFAC
 40
1.0
  9
$DIMTOFL
 70
     1
  9
$DIMTVP
 40
0.0
  9
$DIMTIX
 70
     0
  9
$DIMSOXD
 70
     0
  9
$DIMSAH
 70
     0
  9
$DIMBLK1
  1

  9
$DIMBLK2
  1

  9
$DIMSTYLE
  2
ISO-25
  9
$DIMCLRD
 70
     0
  9
$DIMCLRE
 70
     0
  9
$DIMCLRT
 70
     0
  9
$DIMTFAC
 40
1.0
  9
$DIMGAP
 40
0.625
  9
$DIMJUST
 70
     0
  9
$DIMSD1
 70
     0
  9
$DIMSD2
 70
     0
  9
$DIMTOLJ
 70
     0
  9
$DIMTZIN
 70
     8
  9
$DIMALTZ
 70
     0
  9
$DIMALTTZ
 70
     0
  9
$DIMUPT
 70
     0
  9
$DIMDEC
 70
     2
  9
$DIMTDEC
 70
     2
  9
$DIMALTU
 70
     2
  9
$DIMALTTD
 70
     3
  9
$DIMTXSTY
  7
Standard
  9
$DIMAUNIT
 70
     0
  9
$DIMADEC
 70
     0
  9
$DIMALTRND
 40
0.0
  9
$DIMAZIN
 70
     0
  9
$DIMDSEP
 70
    44
  9
$DIMATFIT
 70
     3
  9
$DIMFRAC
 70
     0
  9
$DIMLDRBLK
  1

  9
$DIMLUNIT
 70
     2
  9
$DIMLWD
 70
    -2
  9
$DIMLWE
 70
    -2
  9
$DIMTMOVE
 70
     0
  9
$DIMFXL
 40
1.0
  9
$DIMFXLON
 70
     0
  9
$DIMJOGANG
 40
0.7853981634
  9
$DIMTFILL
 70
     0
  9
$DIMTFILLCLR
 70
     0
  9
$DIMARCSYM
 70
     0
  9
$DIMLTYPE
  6

  9
$DIMLTEX1
  6

  9
$DIMLTEX2
  6

  9
$LUNITS
 70
     2
  9
$LUPREC
 70
     4
  9
$SKETCHINC
 40
1.0
  9
$FILLETRAD
 40
10.0
  9
$AUNITS
 70
     0
  9
$AUPREC
 70
     0
  9
$MENU
  1
.
  9
$ELEVATION
 40
0.0
  9
$PELEVATION
 40
0.0
  9
$THICKNESS
 40
0.0
  9
$LIMCHECK
 70
     0
  9
$CHAMFERA
 40
0.0
  9
$CHAMFERB
 40
0.0
  9
$CHAMFERC
 40
0.0
  9
$CHAMFERD
 40
0.0
  9
$SKPOLY
 70
     0
  9
$TDCREATE
 40
2459327.421014688
  9
$TDUCREATE
 40
2459327.337681354
  9
$TDUPDATE
 40
2459327.421018935
  9
$TDUUPDATE
 40
2459327.337685602
  9
$TDINDWG
 40
0.0000000116
  9
$TDUSRTIMER
 40
0.0000000116
  9
$USRTIMER
 70
     1
  9
$ANGBASE
 50
0.0
  9
$ANGDIR
 70
     0
  9
$PDMODE
 70
     0
  9
$PDSIZE
 40
0.0
  9
$PLINEWID
 40
0.0
  9
$SPLFRAME
 70
     0
  9
$SPLINETYPE
 70
     6
  9
$SPLINESEGS
 70
     8
  9
$HANDSEED
  5
26E
  9
$SURFTAB1
 70
     6
  9
$SURFTAB2
 70
     6
  9
$SURFTYPE
 70
     6
  9
$SURFU
 70
     6
  9
$SURFV
 70
     6
  9
$UCSBASE
  2

  9
$UCSNAME
  2

  9
$UCSORG
 10
0.0
 20
0.0
 30
0.0
  9
$UCSXDIR
 10
1.0
 20
0.0
 30
0.0
  9
$UCSYDIR
 10
0.0
 20
1.0
 30
0.0
  9
$UCSORTHOREF
  2

  9
$UCSORTHOVIEW
 70
     0
  9
$UCSORGTOP
 10
0.0
 20
0.0
 30
0.0
  9
$UCSORGBOTTOM
 10
0.0
 20
0.0
 30
0.0
  9
$UCSORGLEFT
 10
0.0
 20
0.0
 30
0.0
  9
$UCSORGRIGHT
 10
0.0
 20
0.0
 30
0.0
  9
$UCSORGFRONT
 10
0.0
 20
0.0
 30
0.0
  9
$UCSORGBACK
 10
0.0
 20
0.0
 30
0.0
  9
$PUCSBASE
  2

  9
$PUCSNAME
  2

  9
$PUCSORG
 10
0.0
 20
0.0
 30
0.0
  9
$PUCSXDIR
 10
1.0
 20
0.0
 30
0.0
  9
$PUCSYDIR
 10
0.0
 20
1.0
 30
0.0
  9
$PUCSORTHOREF
  2

  9
$PUCSORTHOVIEW
 70
     0
  9
$PUCSORGTOP
 10
0.0
 20
0.0
 30
0.0
  9
$PUCSORGBOTTOM
 10
0.0
 20
0.0
 30
0.0
  9
$PUCSORGLEFT
 10
0.0
 20
0.0
 30
0.0
  9
$PUCSORGRIGHT
 10
0.0
 20
0.0
 30
0.0
  9
$PUCSORGFRONT
 10
0.0
 20
0.0
 30
0.0
  9
$PUCSORGBACK
 10
0.0
 20
0.0
 30
0.0
  9
$USERI1
 70
     0
  9
$USERI2
 70
     0
  9
$USERI3
 70
     0
  9
$USERI4
 70
     0
  9
$USERI5
 70
     0
  9
$USERR1
 40
0.0
  9
$USERR2
 40
0.0
  9
$USERR3
 40
0.0
  9
$USERR4
 40
0.0
  9
$USERR5
 40
0.0
  9
$WORLDVIEW
 70
     1
  9
$SHADEDGE
 70
     3
  9
$SHADEDIF
 70
    70
  9
$TILEMODE
 70
     1
  9
$MAXACTVP
 70
    64
  9
$PINSBASE
 10
0.0
 20
0.0
 30
0.0
  9
$PLIMCHECK
 70
     0
  9
$PEXTMIN
 10
0.0
 20
0.0
 30
0.0
  9
$PEXTMAX
 10
841.0
 20
594.0
 30
0.0
  9
$PLIMMIN
 10
0.0
 20
0.0
  9
$PLIMMAX
 10
841.0
 20
594.0
  9
$UNITMODE
 70
     0
  9
$VISRETAIN
 70
     1
  9
$PLINEGEN
 70
     0
  9
$PSLTSCALE
 70
     1
  9
$TREEDEPTH
 70
  3020
  9
$CMLSTYLE
  2
Standard
  9
$CMLJUST
 70
     0
  9
$CMLSCALE
 40
20.0
  9
$PROXYGRAPHICS
 70
     1
  9
$MEASUREMENT
 70
     1
  9
$CELWEIGHT
370
    -1
  9
$ENDCAPS
280
     0
  9
$JOINSTYLE
280
     0
  9
$LWDISPLAY
290
     0
  9
$INSUNITS
 70
     4
  9
$HYPERLINKBASE
  1

  9
$STYLESHEET
  1

  9
$XEDIT
290
     1
  9
$CEPSNTYPE
380
     0
  9
$PSTYLEMODE
290
     1
  9
$FINGERPRINTGUID
  2
{32CF2B6C-B4A2-4F84-B6FA-F6E89D36EAAC}
  9
$VERSIONGUID
  2
{FAEB1C32-E019-11D5-929B-00C0DF256EC4}
  9
$EXTNAMES
290
     1
  9
$PSVPSCALE
 40
0.0
  9
$OLESTARTUP
290
     0
  9
$SORTENTS
280
   127
  9
$INDEXCTL
280
     0
  9
$HIDETEXT
280
     1
  9
$XCLIPFRAME
290
     0
  9
$HALOGAP
280
     0
  9
$OBSCOLOR
 70
   257
  9
$OBSLTYPE
280
     0
  9
$INTERSECTIONDISPLAY
280
     0
  9
$INTERSECTIONCOLOR
 70
   257
  9
$DIMASSOC
280
     2
  9
$PROJECTNAME
  1

  9
$CAMERADISPLAY
290
     0
  9
$LENSLENGTH
 40
50.0
  9
$CAMERAHEIGHT
 40
0.0
  9
$STEPSPERSEC
 40
2.0
  9
$STEPSIZE
 40
6.0
  9
$3DDWFPREC
 40
2.0
  9
$PSOLWIDTH
 40
5.0
  9
$PSOLHEIGHT
 40
80.0
  9
$LOFTANG1
 40
1.5707963268
  9
$LOFTANG2
 40
1.5707963268
  9
$LOFTMAG1
 40
0.0
  9
$LOFTMAG2
 40
0.0
  9
$LOFTPARAM
 70
     7
  9
$LOFTNORMALS
280
     1
  9
$LATITUDE
 40
37.795
  9
$LONGITUDE
 40
-122.394
  9
$NORTHDIRECTION
 40
0.0
  9
$TIMEZONE
 70
 -8000
  9
$LIGHTGLYPHDISPLAY
280
     1
  9
$TILEMODELIGHTSYNCH
280
     1
  9
$CMATERIAL
347
44
  9
$SOLIDHIST
280
     0
  9
$SHOWHIST
280
     1
  9
$DWFFRAME
280
     2
  9
$DGNFRAME
280
     2
  9
$REALWORLDSCALE
290
     1
  9
$INTERFERECOLOR
 62
   256
  9
$CSHADOW
280
     0
  9
$SHADOWPLANELOCATION
 40
0.0
  0
ENDSEC
  0
SECTION
  2
CLASSES
  0
CLASS
  1
ACDBDICTIONARYWDFLT
  2
AcDbDictionaryWithDefault
  3
ObjectDBX Classes
 90
        0
 91
        4
280
     0
281
     0
  0
CLASS
  1
VISUALSTYLE
  2
AcDbVisualStyle
  3
ObjectDBX Classes
 90
     4095
 91
        4
280
     0
281
     0
  0
CLASS
  1
MATERIAL
  2
AcDbMaterial
  3
ObjectDBX Classes
 90
     1153
 91
        4
280
     0
281
     0
  0
CLASS
  1
SCALE
  2
AcDbScale
  3
ObjectDBX Classes
 90
     1153
 91
        4
280
     0
281
     0
  0
CLASS
  1
TABLESTYLE
  2
AcDbTableStyle
  3
ObjectDBX Classes
 90
     4095
 91
        4
280
     0
281
     0
  0
CLASS
  1
MLEADERSTYLE
  2
AcDbMLeaderStyle
  3
ACDB_MLEADERSTYLE_CLASS
 90
     4095
 91
        4
280
     0
281
     0
  0
CLASS
  1
SUN
  2
AcDbSun
  3
SCENEOE
 90
     1153
 91
        4
280
     0
281
     0
  0
CLASS
  1
MULTILEADER
  2
AcDbMLeader
  3
ACDB_MLEADER_CLASS
 90
     1025
 91
        4
280
     0
281
     1
  0
CLASS
  1
DICTIONARYVAR
  2
AcDbDictionaryVar
  3
ObjectDBX Classes
 90
        0
 91
        4
280
     0
281
     0
  0
CLASS
  1
CELLSTYLEMAP
  2
AcDbCellStyleMap
  3
ObjectDBX Classes
 90
     1152
 91
        4
280
     0
281
     0
  0
ENDSEC
  0
SECTION
  2
TABLES
  0
TABLE
  2
VPORT
  5
8
330
0
100
AcDbSymbolTable
 70
     1
  0
VPORT
  5
29
330
8
100
AcDbSymbolTableRecord
100
AcDbViewportTableRecord
  2
*Active
 70
     0
 10
0.0
 20
0.0
 11
1.0
 21
1.0
 12
344.1869158879
 22
148.5
 13
0.0
 23
0.0
 14
10.0
 24
10.0
 15
10.0
 25
10.0
 16
0.0
 26
0.0
 36
1.0
 17
0.0
 27
0.0
 37
0.0
 40
297.0
 41
1.9729729729
 42
50.0
 43
0.0
 44
0.0
 50
0.0
 51
0.0
 71
     0
 72
   100
 73
     1
 74
     3
 75
     0
 76
     0
 77
     0
 78
     0
281
     0
 65
     1
110
0.0
120
0.0
130
0.0
111
1.0
121
0.0
131
0.0
112
0.0
122
1.0
132
0.0
 79
     0
146
0.0
348
2F
 60
     3
 61
     5
292
     1
282
     1
141
0.0
142
0.0
 63
   250
361
6D
  0
ENDTAB
  0
TABLE
  2
LTYPE
  5
5
330
0
100
AcDbSymbolTable
 70
     2
  0
LTYPE
  5
14
330
5
100
AcDbSymbolTableRecord
100
AcDbLinetypeTableRecord
  2
ByBlock
 70
     0
  3

 72
    65
 73
     0
 40
0.0
  0
LTYPE
  5
15
330
5
100
AcDbSymbolTableRecord
100
AcDbLinetypeTableRecord
  2
ByLayer
 70
     0
  3

 72
    65
 73
     0
 40
0.0
  0
LTYPE
  5
16
330
5
100
AcDbSymbolTableRecord
100
AcDbLinetypeTableRecord
  2
Continuous
 70
     0
  3
Solid line
 72
    65
 73
     0
 40
0.0
  0
LTYPE
  5
83
330
5
100
AcDbSymbolTableRecord
100
AcDbLinetypeTableRecord
  2
HIDDEN2
 70
     0
  3
Hidden (.5x) _ _ _ _ _ _ _ _ _ _ _ _ _ _ _ _ _ 
 72
    65
 73
     2
 40
4.7625
 49
3.175
 74
     4
 75
     0
340
0
 46
0.0
 50
0.0
 44
0.0
 45
0.0
 49
-1.5875
 74
     4
 75
     0
340
0
 46
0.0
 50
0.0
 44
0.0
 45
0.0
  0
ENDTAB
  0
TABLE
  2
LAYER
  5
2
330
0
100
AcDbSymbolTable
 70
     5
  0
LAYER
  5
10
330
2
100
AcDbSymbolTableRecord
100
AcDbLayerTableRecord
  2
0
 70
     0
 62
     7
  6
Continuous
370
    -3
390
F
347
46
  0
LAYER
  5
78
330
2
100
AcDbSymbolTableRecord
100
AcDbLayerTableRecord
  2
Predefinito
 70
     0
 62
     7
  6
Continuous
370
    -3
390
F
347
46
  0
LAYER
  5
81
330
2
100
AcDbSymbolTableRecord
100
AcDbLayerTableRecord
  2
TELAIO_AMERICANO
 70
     0
 62
     7
  6
Continuous
370
    -3
390
F
347
46
  0
LAYER
  5
AC
330
2
100
AcDbSymbolTableRecord
100
AcDbLayerTableRecord
  2
CAMPIONE_PORTA_A
 70
     0
 62
     7
  6
Continuous
370
    -3
390
F
347
46
  0
LAYER
  5
B8
330
2
100
AcDbSymbolTableRecord
100
AcDbLayerTableRecord
  2
AN_140_3D_FZ-01
 70
     0
 62
     7
  6
Continuous
370
    -3
390
F
347
46
  0
ENDTAB
  0
TABLE
  2
STYLE
  5
3
330
0
100
AcDbSymbolTable
 70
     2
  0
STYLE
  5
11
330
3
100
AcDbSymbolTableRecord
100
AcDbTextStyleTableRecord
  2
Standard
 70
     0
 40
0.0
 41
1.0
 50
0.0
 71
     0
 42
3.5
  3
txt
  4

  0
STYLE
  5
116
330
3
100
AcDbSymbolTableRecord
100
AcDbTextStyleTableRecord
  2
SEACAD_Solid_Edge_ISO
 70
     0
 40
0.0
 41
1.0
 50
0.0
 71
     0
 42
3.5
  3
seiso.ttf
  4

1001
ACAD
1000
Solid Edge ISO
1071
        0
  0
ENDTAB
  0
TABLE
  2
VIEW
  5
6
330
0
100
AcDbSymbolTable
 70
     0
  0
ENDTAB
  0
TABLE
  2
UCS
  5
7
330
0
100
AcDbSymbolTable
 70
     0
  0
ENDTAB
  0
TABLE
  2
APPID
  5
9
330
0
100
AcDbSymbolTable
 70
     2
  0
APPID
  5
12
330
9
100
AcDbSymbolTableRecord
100
AcDbRegAppTableRecord
  2
ACAD
 70
     0
  0
APPID
  5
230
330
9
100
AcDbSymbolTableRecord
100
AcDbRegAppTableRecord
  2
ACAD_MLEADERVER
 70
     0
  0
ENDTAB
  0
TABLE
  2
DIMSTYLE
  5
A
330
0
100
AcDbSymbolTable
 70
     3
100
AcDbDimStyleTable
  0
DIMSTYLE
105
27
330
A
100
AcDbSymbolTableRecord
100
AcDbDimStyleTableRecord
  2
ISO-25
 70
     0
 41
2.5
 42
0.625
 43
3.75
 44
1.25
 73
     0
 74
     0
 77
     1
 78
     8
140
2.5
141
2.5
143
0.0393700787
147
0.625
171
     3
172
     1
178
     0
271
     2
272
     2
274
     3
278
    44
283
     0
284
     8
340
11
  0
DIMSTYLE
105
10C
330
A
100
AcDbSymbolTableRecord
100
AcDbDimStyleTableRecord
  2
Standard
 70
     0
178
     0
340
11
  0
DIMSTYLE
105
117
102
{ACAD_REACTORS
330
118
330
125
330
132
330
13D
330
14A
330
157
330
164
330
171
330
17E
330
18B
330
198
330
1A5
330
1B2
330
1BF
330
1CC
330
1F7
330
204
102
}
330
A
100
AcDbSymbolTableRecord
100
AcDbDimStyleTableRecord
  2
ISO
 70
     0
 41
3.0
 42
0.0
 44
1.5
 73
     0
 74
     0
 77
     1
 78
     8
140
3.0
141
1.5
143
0.0393700787
146
0.8
147
0.75
170
     1
171
     3
172
     1
173
     1
178
     0
179
     2
271
     2
272
     3
274
     3
278
    44
283
     0
284
     8
340
116
343
111
344
111
  0
ENDTAB
  0
TABLE
  2
BLOCK_RECORD
  5
1
330
0
100
AcDbSymbolTable
 70
    27
  0
BLOCK_RECORD
  5
1F
330
1
100
AcDbSymbolTableRecord
100
AcDbBlockTableRecord
  2
*Model_Space
340
22
 70
     0
280
     1
281
     0
  0
BLOCK_RECORD
  5
1B
330
1
100
AcDbSymbolTableRecord
100
AcDbBlockTableRecord
  2
*Paper_Space
340
1E
 70
     0
280
     1
281
     0
  0
BLOCK_RECORD
  5
6E
330
1
100
AcDbSymbolTableRecord
100
AcDbBlockTableRecord
  2
SEANNOT_GROUP
340
0
102
{BLKREFS
331
6F
102
}
 70
     0
280
     1
281
     0
  0
BLOCK_RECORD
  5
72
330
1
100
AcDbSymbolTableRecord
100
AcDbBlockTableRecord
  2
_DOT
340
0
 70
     0
280
     1
281
     0
  0
BLOCK_RECORD
  5
7F
330
1
100
AcDbSymbolTableRecord
100
AcDbBlockTableRecord
  2
SE
340
0
102
{BLKREFS
331
80
102
}
 70
     0
280
     1
281
     0
  0
BLOCK_RECORD
  5
DB
330
1
100
AcDbSymbolTableRecord
100
AcDbBlockTableRecord
  2
SE1
340
0
102
{BLKREFS
331
DC
102
}
 70
     0
280
     1
281
     0
  0
BLOCK_RECORD
  5
FA
330
1
100
AcDbSymbolTableRecord
100
AcDbBlockTableRecord
  2
SE2
340
0
102
{BLKREFS
331
FB
102
}
 70
     0
280
     1
281
     0
  0
BLOCK_RECORD
  5
10D
330
1
100
AcDbSymbolTableRecord
100
AcDbBlockTableRecord
  2
_OBLIQUE
340
0
 70
     0
280
     1
281
     0
  0
BLOCK_RECORD
  5
111
330
1
100
AcDbSymbolTableRecord
100
AcDbBlockTableRecord
  2
_SE_FILLED
340
0
 70
     0
280
     1
281
     0
  0
BLOCK_RECORD
  5
119
330
1
100
AcDbSymbolTableRecord
100
AcDbBlockTableRecord
  2
DMBLK152
340
0
 70
     0
280
     1
281
     0
  0
BLOCK_RECORD
  5
126
330
1
100
AcDbSymbolTableRecord
100
AcDbBlockTableRecord
  2
DMBLK153
340
0
 70
     0
280
     1
281
     0
  0
BLOCK_RECORD
  5
133
330
1
100
AcDbSymbolTableRecord
100
AcDbBlockTableRecord
  2
DMBLK154
340
0
 70
     0
280
     1
281
     0
  0
BLOCK_RECORD
  5
13E
330
1
100
AcDbSymbolTableRecord
100
AcDbBlockTableRecord
  2
DMBLK155
340
0
 70
     0
280
     1
281
     0
  0
BLOCK_RECORD
  5
14B
330
1
100
AcDbSymbolTableRecord
100
AcDbBlockTableRecord
  2
DMBLK156
340
0
 70
     0
280
     1
281
     0
  0
BLOCK_RECORD
  5
158
330
1
100
AcDbSymbolTableRecord
100
AcDbBlockTableRecord
  2
DMBLK157
340
0
 70
     0
280
     1
281
     0
  0
BLOCK_RECORD
  5
165
330
1
100
AcDbSymbolTableRecord
100
AcDbBlockTableRecord
  2
DMBLK158
340
0
 70
     0
280
     1
281
     0
  0
BLOCK_RECORD
  5
172
330
1
100
AcDbSymbolTableRecord
100
AcDbBlockTableRecord
  2
DMBLK159
340
0
 70
     0
280
     1
281
     0
  0
BLOCK_RECORD
  5
17F
330
1
100
AcDbSymbolTableRecord
100
AcDbBlockTableRecord
  2
DMBLK160
340
0
 70
     0
280
     1
281
     0
  0
BLOCK_RECORD
  5
18C
330
1
100
AcDbSymbolTableRecord
100
AcDbBlockTableRecord
  2
DMBLK161
340
0
 70
     0
280
     1
281
     0
  0
BLOCK_RECORD
  5
199
330
1
100
AcDbSymbolTableRecord
100
AcDbBlockTableRecord
  2
DMBLK162
340
0
 70
     0
280
     1
281
     0
  0
BLOCK_RECORD
  5
1A6
330
1
100
AcDbSymbolTableRecord
100
AcDbBlockTableRecord
  2
DMBLK163
340
0
 70
     0
280
     1
281
     0
  0
BLOCK_RECORD
  5
1B3
330
1
100
AcDbSymbolTableRecord
100
AcDbBlockTableRecord
  2
DMBLK164
340
0
 70
     0
280
     1
281
     0
  0
BLOCK_RECORD
  5
1C0
330
1
100
AcDbSymbolTableRecord
100
AcDbBlockTableRecord
  2
DMBLK165
340
0
 70
     0
280
     1
281
     0
  0
BLOCK_RECORD
  5
1CD
330
1
100
AcDbSymbolTableRecord
100
AcDbBlockTableRecord
  2
DMBLK166
340
0
 70
     0
280
     1
281
     0
  0
BLOCK_RECORD
  5
1D7
330
1
100
AcDbSymbolTableRecord
100
AcDbBlockTableRecord
  2
SE3
340
0
102
{BLKREFS
331
1D8
102
}
 70
     0
280
     1
281
     0
  0
BLOCK_RECORD
  5
1F8
330
1
100
AcDbSymbolTableRecord
100
AcDbBlockTableRecord
  2
DMBLK167
340
0
 70
     0
280
     1
281
     0
  0
BLOCK_RECORD
  5
205
330
1
100
AcDbSymbolTableRecord
100
AcDbBlockTableRecord
  2
DMBLK168
340
0
 70
     0
280
     1
281
     0
  0
BLOCK_RECORD
  5
211
330
1
100
AcDbSymbolTableRecord
100
AcDbBlockTableRecord
  2
SE4
340
0
102
{BLKREFS
331
212
102
}
 70
     0
280
     1
281
     0
  0
ENDTAB
  0
ENDSEC
  0
SECTION
  2
BLOCKS
  0
BLOCK
  5
20
330
1F
100
AcDbEntity
  8
0
100
AcDbBlockBegin
  2
*Model_Space
 70
     0
 10
0.0
 20
0.0
 30
0.0
  3
*Model_Space
  1

  0
ENDBLK
  5
21
330
1F
100
AcDbEntity
  8
0
100
AcDbBlockEnd
  0
BLOCK
  5
1C
330
1B
100
AcDbEntity
 67
     1
  8
0
100
AcDbBlockBegin
  2
*Paper_Space
 70
     0
 10
0.0
 20
0.0
 30
0.0
  3
*Paper_Space
  1

  0
ENDBLK
  5
1D
330
1B
100
AcDbEntity
 67
     1
  8
0
100
AcDbBlockEnd
  0
BLOCK
  5
70
330
6E
100
AcDbEntity
  8
0
100
AcDbBlockBegin
  2
SEANNOT_GROUP
 70
     0
 10
0.0
 20
0.0
 30
0.0
  3
SEANNOT_GROUP
  1

  0
ENDBLK
  5
71
330
6E
100
AcDbEntity
  8
0
100
AcDbBlockEnd
  0
BLOCK
  5
75
330
72
100
AcDbEntity
  8
0
100
AcDbBlockBegin
  2
_DOT
 70
     0
 10
0.0
 20
0.0
 30
0.0
  3
_DOT
  1

  0
LWPOLYLINE
  5
73
330
72
100
AcDbEntity
  8
0
 62
     0
100
AcDbPolyline
 90
        2
 70
     1
 43
0.333
 10
-0.1665
 20
0.0
 42
1.0
 10
0.1665
 20
0.0
 42
1.0
  0
LINE
  5
74
330
72
100
AcDbEntity
  8
0
 62
     0
100
AcDbLine
 10
0.0
 20
0.0
 30
0.0
 11
-1.0
 21
0.0
 31
0.0
  0
ENDBLK
  5
76
330
72
100
AcDbEntity
  8
0
100
AcDbBlockEnd
  0
BLOCK
  5
D9
330
7F
100
AcDbEntity
  8
0
100
AcDbBlockBegin
  2
SE
 70
     0
 10
0.0
 20
0.0
 30
0.0
  3
SE
  1

  0
LINE
  5
82
330
7F
100
AcDbEntity
  8
TELAIO_AMERICANO
  6
Continuous
 62
     7
100
AcDbLine
 10
344.1432289171
 20
367.5960927777
 30
0.0
 11
325.0932289171
 21
367.5960927777
 31
0.0
  0
LINE
  5
84
330
7F
100
AcDbEntity
  8
TELAIO_AMERICANO
  6
HIDDEN2
 62
     7
100
AcDbLine
 10
325.0932289171
 20
352.2960927777
 30
0.0
 11
322.0932289171
 21
352.2960927777
 31
0.0
  0
LINE
  5
85
330
7F
100
AcDbEntity
  8
TELAIO_AMERICANO
  6
Continuous
 62
     7
100
AcDbLine
 10
322.0932289171
 20
352.2960927777
 30
0.0
 11
317.1432289171
 21
352.2960927777
 31
0.0
  0
LINE
  5
86
330
7F
100
AcDbEntity
  8
TELAIO_AMERICANO
  6
Continuous
 62
     7
100
AcDbLine
 10
344.1432289171
 20
367.5960927777
 30
0.0
 11
344.1432289171
 21
343.5960927777
 31
0.0
  0
LINE
  5
87
330
7F
100
AcDbEntity
  8
TELAIO_AMERICANO
  6
Continuous
 62
     7
100
AcDbLine
 10
344.6432289171
 20
382.3640419702
 30
0.0
 11
344.6432289171
 21
382.5860927777
 31
0.0
  0
ARC
  5
88
330
7F
100
AcDbEntity
  8
TELAIO_AMERICANO
  6
Continuous
 62
     7
100
AcDbCircle
 10
345.1432289171
 20
382.3640419702
 30
0.0
 40
0.500000000000003
100
AcDbArc
 50
180.0
 51
210.0
  0
LINE
  5
89
330
7F
100
AcDbEntity
  8
TELAIO_AMERICANO
  6
Continuous
 62
     7
100
AcDbLine
 10
345.7309421574
 20
380.3460927777
 30
0.0
 11
344.7102162152
 21
382.1140419702
 31
0.0
  0
ARC
  5
8A
330
7F
100
AcDbEntity
  8
TELAIO_AMERICANO
  6
Continuous
 62
     7
100
AcDbCircle
 10
346.1639548592
 20
380.5960927777
 30
0.0
 40
0.5000000000000004
100
AcDbArc
 50
210.0
 51
270.0
  0
LINE
  5
8B
330
7F
100
AcDbEntity
  8
TELAIO_AMERICANO
  6
Continuous
 62
     7
100
AcDbLine
 10
352.1225029749
 20
380.0960927777
 30
0.0
 11
346.1639548592
 21
380.0960927777
 31
0.0
  0
ARC
  5
8C
330
7F
100
AcDbEntity
  8
TELAIO_AMERICANO
  6
Continuous
 62
     7
100
AcDbCircle
 10
352.1225029749
 20
380.5960927777
 30
0.0
 40
0.5000000000000001
100
AcDbArc
 50
270.0
 51
330.0
  0
LINE
  5
8D
330
7F
100
AcDbEntity
  8
TELAIO_AMERICANO
  6
Continuous
 62
     7
100
AcDbLine
 10
353.576241619
 20
382.1140419702
 30
0.0
 11
352.5555156768
 21
380.3460927777
 31
0.0
  0
ARC
  5
8E
330
7F
100
AcDbEntity
  8
TELAIO_AMERICANO
  6
Continuous
 62
     7
100
AcDbCircle
 10
353.1432289171
 20
382.3640419702
 30
0.0
 40
0.4999999999999935
100
AcDbArc
 50
330.0
 51
0.0
  0
LINE
  5
8F
330
7F
100
AcDbEntity
  8
TELAIO_AMERICANO
  6
Continuous
 62
     7
100
AcDbLine
 10
353.6432289171
 20
382.5860927777
 30
0.0
 11
353.6432289171
 21
382.3640419702
 31
0.0
  0
ARC
  5
90
330
7F
100
AcDbEntity
  8
TELAIO_AMERICANO
  6
Continuous
 62
     7
100
AcDbCircle
 10
353.1432289171
 20
382.5860927777
 30
0.0
 40
0.5000000000000004
100
AcDbArc
 50
0.0
 51
90.0
  0
LINE
  5
91
330
7F
100
AcDbEntity
  8
TELAIO_AMERICANO
  6
Continuous
 62
     7
100
AcDbLine
 10
345.1432289171
 20
383.0860927777
 30
0.0
 11
353.1432289171
 21
383.0860927777
 31
0.0
  0
ARC
  5
92
330
7F
100
AcDbEntity
  8
TELAIO_AMERICANO
  6
Continuous
 62
     7
100
AcDbCircle
 10
345.1432289171
 20
382.5860927777
 30
0.0
 40
0.5
100
AcDbArc
 50
90.0
 51
180.0
  0
LINE
  5
93
330
7F
100
AcDbEntity
  8
TELAIO_AMERICANO
  6
Continuous
 62
     7
100
AcDbLine
 10
286.9932289171
 20
339.5960927777
 30
0.0
 11
344.1432289171
 21
339.5960927777
 31
0.0
  0
LINE
  5
94
330
7F
100
AcDbEntity
  8
TELAIO_AMERICANO
  6
Continuous
 62
     7
100
AcDbLine
 10
286.9932289171
 20
339.5960927777
 30
0.0
 11
286.9932289171
 21
352.2960927777
 31
0.0
  0
LINE
  5
95
330
7F
100
AcDbEntity
  8
TELAIO_AMERICANO
  6
Continuous
 62
     7
100
AcDbLine
 10
344.1432289171
 20
339.5960927777
 30
0.0
 11
344.1432289171
 21
343.5960927777
 31
0.0
  0
LINE
  5
96
330
7F
100
AcDbEntity
  8
TELAIO_AMERICANO
  6
Continuous
 62
     7
100
AcDbLine
 10
317.1432289171
 20
352.2960927777
 30
0.0
 11
286.9932289171
 21
352.2960927777
 31
0.0
  0
LINE
  5
97
330
7F
100
AcDbEntity
  8
TELAIO_AMERICANO
  6
Continuous
 62
     7
100
AcDbLine
 10
317.1432289171
 20
343.5960927777
 30
0.0
 11
317.1432289171
 21
352.2960927777
 31
0.0
  0
LINE
  5
98
330
7F
100
AcDbEntity
  8
TELAIO_AMERICANO
  6
Continuous
 62
     7
100
AcDbLine
 10
317.1432289171
 20
343.5960927777
 30
0.0
 11
344.1432289171
 21
343.5960927777
 31
0.0
  0
LINE
  5
99
330
7F
100
AcDbEntity
  8
TELAIO_AMERICANO
  6
Continuous
 62
     7
100
AcDbLine
 10
344.1432289171
 20
382.5860927777
 30
0.0
 11
344.1432289171
 21
383.5960927777
 31
0.0
  0
LINE
  5
9A
330
7F
100
AcDbEntity
  8
TELAIO_AMERICANO
  6
Continuous
 62
     7
100
AcDbLine
 10
354.1432289171
 20
383.5960927777
 30
0.0
 11
344.1432289171
 21
383.5960927777
 31
0.0
  0
LINE
  5
9B
330
7F
100
AcDbEntity
  8
TELAIO_AMERICANO
  6
Continuous
 62
     7
100
AcDbLine
 10
354.1432289171
 20
409.5960927777
 30
0.0
 11
354.1432289171
 21
383.5960927777
 31
0.0
  0
ARC
  5
9C
330
7F
100
AcDbEntity
  8
TELAIO_AMERICANO
  6
Continuous
 62
     7
100
AcDbCircle
 10
345.1432289171
 20
382.5860927777
 30
0.0
 40
1.000000000000001
100
AcDbArc
 50
90.0
 51
180.0
  0
LINE
  5
9D
330
7F
100
AcDbEntity
  8
TELAIO_AMERICANO
  6
Continuous
 62
     7
100
AcDbLine
 10
353.1432289171
 20
383.5860927777
 30
0.0
 11
345.1432289171
 21
383.5860927777
 31
0.0
  0
ARC
  5
9E
330
7F
100
AcDbEntity
  8
TELAIO_AMERICANO
  6
Continuous
 62
     7
100
AcDbCircle
 10
353.1432289171
 20
382.5860927777
 30
0.0
 40
0.999999999999994
100
AcDbArc
 50
0.0
 51
90.0
  0
LINE
  5
9F
330
7F
100
AcDbEntity
  8
TELAIO_AMERICANO
  6
Continuous
 62
     7
100
AcDbLine
 10
354.1432289171
 20
382.3640419702
 30
0.0
 11
354.1432289171
 21
382.5860927777
 31
0.0
  0
ARC
  5
A0
330
7F
100
AcDbEntity
  8
TELAIO_AMERICANO
  6
Continuous
 62
     7
100
AcDbCircle
 10
353.1432289171
 20
382.3640419702
 30
0.0
 40
0.9999999999999979
100
AcDbArc
 50
330.0
 51
0.0
  0
LINE
  5
A1
330
7F
100
AcDbEntity
  8
TELAIO_AMERICANO
  6
Continuous
 62
     7
100
AcDbLine
 10
352.9885283787
 20
380.0960927777
 30
0.0
 11
354.0092543209
 21
381.8640419702
 31
0.0
  0
LINE
  5
A2
330
7F
100
AcDbEntity
  8
TELAIO_AMERICANO
  6
Continuous
 62
     7
100
AcDbLine
 10
354.1432289171
 20
409.5960927777
 30
0.0
 11
325.0932289171
 21
409.5960927777
 31
0.0
  0
ARC
  5
A3
330
7F
100
AcDbEntity
  8
TELAIO_AMERICANO
  6
Continuous
 62
     7
100
AcDbCircle
 10
352.1225029749
 20
380.5960927777
 30
0.0
 40
1.000000000000001
100
AcDbArc
 50
270.0
 51
330.0
  0
LINE
  5
A4
330
7F
100
AcDbEntity
  8
TELAIO_AMERICANO
  6
Continuous
 62
     7
100
AcDbLine
 10
346.1639548592
 20
379.5960927777
 30
0.0
 11
352.1225029749
 21
379.5960927777
 31
0.0
  0
ARC
  5
A5
330
7F
100
AcDbEntity
  8
TELAIO_AMERICANO
  6
Continuous
 62
     7
100
AcDbCircle
 10
346.1639548592
 20
380.5960927777
 30
0.0
 40
1.000000000000001
100
AcDbArc
 50
210.0
 51
270.0
  0
LINE
  5
A6
330
7F
100
AcDbEntity
  8
TELAIO_AMERICANO
  6
Continuous
 62
     7
100
AcDbLine
 10
344.2772035133
 20
381.8640419702
 30
0.0
 11
345.2979294555
 21
380.0960927777
 31
0.0
  0
ARC
  5
A7
330
7F
100
AcDbEntity
  8
TELAIO_AMERICANO
  6
Continuous
 62
     7
100
AcDbCircle
 10
345.1432289171
 20
382.3640419702
 30
0.0
 40
1.0
100
AcDbArc
 50
180.0
 51
210.0
  0
LINE
  5
A8
330
7F
100
AcDbEntity
  8
TELAIO_AMERICANO
  6
Continuous
 62
     7
100
AcDbLine
 10
325.0932289171
 20
367.5960927777
 30
0.0
 11
325.0932289171
 21
409.5960927777
 31
0.0
  0
LINE
  5
A9
330
7F
100
AcDbEntity
  8
TELAIO_AMERICANO
  6
Continuous
 62
     7
100
AcDbLine
 10
344.1432289171
 20
367.5960927777
 30
0.0
 11
344.1432289171
 21
382.3640419702
 31
0.0
  0
HATCH
  5
AA
330
7F
100
AcDbEntity
  8
TELAIO_AMERICANO
  6
Continuous
 62
     7
100
AcDbHatch
 10
0.0
 20
0.0
 30
0.0
210
0.0
220
0.0
230
1.0
  2
LINE
 70
     0
 71
     0
 91
        1
 92
        1
 93
        8
 72
     1
 10
322.0932289170793
 20
343.5960927777402
 11
317.1432289170793
 21
343.5960927777402
 72
     1
 10
317.1432289170792
 20
343.5960927777402
 11
317.1432289170792
 21
352.2960927777402
 72
     1
 10
317.1432289170792
 20
352.2960927777402
 11
286.9932289170792
 21
352.2960927777402
 72
     1
 10
286.9932289170793
 20
352.2960927777402
 11
286.9932289170793
 21
339.5960927777402
 72
     1
 10
286.9932289170793
 20
339.5960927777402
 11
344.1432289170793
 21
339.5960927777402
 72
     1
 10
344.1432289170793
 20
339.5960927777402
 11
344.1432289170793
 21
343.5960927777402
 72
     1
 10
344.1432289170793
 20
343.5960927777402
 11
325.0932289170793
 21
343.5960927777402
 72
     1
 10
325.0932289170793
 20
343.5960927777402
 11
322.0932289170793
 21
343.5960927777402
 97
        0
 75
     0
 76
     1
 52
135.0
 41
2.0
 77
     0
 78
     1
 53
135.0
 43
0.0
 44
0.0
 45
-4.490128060534577
 46
-4.490128060534576
 79
     0
 98
        0
  0
HATCH
  5
AB
330
7F
100
AcDbEntity
  8
TELAIO_AMERICANO
  6
Continuous
 62
     7
100
AcDbHatch
 10
0.0
 20
0.0
 30
0.0
210
0.0
220
0.0
230
1.0
  2
LINE
 70
     0
 71
     0
 91
        1
 92
        1
 93
       28
 72
     1
 10
347.1463960227069
 20
379.5980289543497
 11
352.1785874252893
 21
379.5978386411959
 72
     2
 10
352.1225029749156
 20
380.5960927777402
 40
1.000000000000001
 50
273.565990749942
 51
329.9999999999995
 73
     1
 72
     1
 10
352.9885283787
 20
380.0960927777402
 11
354.0092543208637
 21
381.8640419701713
 72
     2
 10
353.1432289170793
 20
382.3640419701714
 40
0.9999999999999979
 50
329.9999999999995
 51
360.0
 73
     1
 72
     1
 10
354.1432289170793
 20
382.3640419701714
 11
354.1432289170793
 21
382.5860927777402
 72
     2
 10
353.1432289170793
 20
382.5860927777402
 40
0.999999999999994
 50
0.0
 51
90.0
 73
     1
 72
     1
 10
353.1432289170793
 20
383.5860927777402
 11
354.1432289170793
 21
383.5960927777402
 72
     1
 10
354.1432289170793
 20
383.5960927777402
 11
354.1432289170793
 21
409.5960927777402
 72
     1
 10
354.1432289170793
 20
409.5960927777402
 11
325.0932289170793
 21
409.5960927777402
 72
     1
 10
325.0932289170793
 20
409.5960927777402
 11
325.0932289170793
 21
407.5960927777402
 72
     1
 10
325.0932289170793
 20
407.5960927777402
 11
325.0932289170793
 21
400.5960927777402
 72
     1
 10
325.0932289170793
 20
400.5960927777402
 11
325.0932289170793
 21
394.5960927777402
 72
     1
 10
325.0932289170793
 20
394.5960927777402
 11
325.0932289170793
 21
391.5960927777402
 72
     1
 10
325.0932289170793
 20
391.5960927777402
 11
325.0932289170793
 21
387.5960927777402
 72
     1
 10
325.0932289170793
 20
387.5960927777402
 11
325.0932289170793
 21
385.5960927777402
 72
     1
 10
325.0932289170793
 20
385.5960927777402
 11
325.0932289170793
 21
383.3460927777401
 72
     1
 10
325.0932289170793
 20
383.3460927777402
 11
325.0932289170793
 21
380.5960927777402
 72
     1
 10
325.0932289170793
 20
380.5960927777402
 11
325.0932289170793
 21
376.8460927777401
 72
     1
 10
325.0932289170793
 20
376.8460927777402
 11
325.0932289170793
 21
374.5960927777402
 72
     1
 10
325.0932289170793
 20
374.5960927777402
 11
325.0932289170793
 21
372.5960927777402
 72
     1
 10
325.0932289170793
 20
372.5960927777402
 11
325.0932289170793
 21
368.5960927777402
 72
     1
 10
325.0932289170793
 20
368.5960927777402
 11
325.0932289170793
 21
367.5960927777402
 72
     1
 10
325.0932289170793
 20
367.5960927777402
 11
344.1432289170793
 21
367.5960927777402
 72
     1
 10
344.1432289170793
 20
367.5960927777402
 11
344.1432289170793
 21
382.3640419701713
 72
     2
 10
345.1432289170793
 20
382.3640419701714
 40
1.0
 50
180.0
 51
209.9999999999989
 73
     1
 72
     1
 10
344.2772035132948
 20
381.8640419701714
 11
345.2979294554585
 21
380.0960927777403
 72
     2
 10
346.1639548592429
 20
380.5960927777402
 40
1.000000000000001
 50
210.0000000000005
 51
270.0
 73
     1
 72
     1
 10
346.1639548592429
 20
379.5960927777402
 11
347.1463960227069
 21
379.5980289543497
 97
        0
 75
     0
 76
     1
 52
135.0
 41
2.0
 77
     0
 78
     1
 53
135.0
 43
0.0
 44
0.0
 45
-4.490128060534577
 46
-4.490128060534576
 79
     0
 98
        0
  0
LINE
  5
AD
330
7F
100
AcDbEntity
  8
CAMPIONE_PORTA_A
  6
Continuous
 62
     7
100
AcDbLine
 10
347.1463960227
 20
343.5980289543
 30
0.0
 11
415.2691486609
 21
343.5980289543
 31
0.0
  0
LINE
  5
AE
330
7F
100
AcDbEntity
  8
CAMPIONE_PORTA_A
  6
Continuous
 62
     7
100
AcDbLine
 10
409.1463960227
 20
343.5980289543
 30
0.0
 11
409.1463960227
 21
367.5980289543
 31
0.0
  0
LINE
  5
AF
330
7F
100
AcDbEntity
  8
CAMPIONE_PORTA_A
  6
Continuous
 62
     7
100
AcDbLine
 10
354.1463960227
 20
343.5980289543
 30
0.0
 11
354.1463960227
 21
367.5980289543
 31
0.0
  0
LINE
  5
B0
330
7F
100
AcDbEntity
  8
CAMPIONE_PORTA_A
  6
Continuous
 62
     7
100
AcDbLine
 10
347.1463960227
 20
343.5980289543
 30
0.0
 11
347.1463960227
 21
367.5980289543
 31
0.0
  0
LINE
  5
B1
330
7F
100
AcDbEntity
  8
CAMPIONE_PORTA_A
  6
Continuous
 62
     7
100
AcDbLine
 10
415.2691486609
 20
379.5980289543
 30
0.0
 11
347.1463960227
 21
379.5980289543
 31
0.0
  0
LINE
  5
B2
330
7F
100
AcDbEntity
  8
CAMPIONE_PORTA_A
  6
Continuous
 62
     7
100
AcDbLine
 10
347.1463960227
 20
379.5980289543
 30
0.0
 11
347.1463960227
 21
367.5980289543
 31
0.0
  0
LINE
  5
B3
330
7F
100
AcDbEntity
  8
CAMPIONE_PORTA_A
  6
Continuous
 62
     7
100
AcDbLine
 10
415.2691486609
 20
367.5980289543
 30
0.0
 11
347.1463960227
 21
367.5980289543
 31
0.0
  0
LINE
  5
B4
330
7F
100
AcDbEntity
  8
CAMPIONE_PORTA_A
  6
Continuous
 62
     7
100
AcDbLine
 10
347.1463960227
 20
339.5980289543
 30
0.0
 11
415.2691486609
 21
339.5980289543
 31
0.0
  0
LINE
  5
B5
330
7F
100
AcDbEntity
  8
CAMPIONE_PORTA_A
  6
Continuous
 62
     7
100
AcDbLine
 10
347.1463960227
 20
343.5980289543
 30
0.0
 11
347.1463960227
 21
339.5980289543
 31
0.0
  0
HATCH
  5
B6
330
7F
100
AcDbEntity
  8
CAMPIONE_PORTA_A
  6
Continuous
 62
     7
100
AcDbHatch
 10
0.0
 20
0.0
 30
0.0
210
0.0
220
0.0
230
1.0
  2
LINE
 70
     0
 71
     0
 91
        1
 92
        1
 93
        6
 72
     1
 10
415.2691486609234
 20
339.5980289543497
 11
415.2691486609234
 21
343.5980289543497
 72
     1
 10
415.2691486609234
 20
343.5980289543497
 11
409.1463960227069
 21
343.5980289543497
 72
     1
 10
409.1463960227069
 20
343.5980289543497
 11
354.1463960227069
 21
343.5980289543497
 72
     1
 10
354.1463960227069
 20
343.5980289543497
 11
347.1463960227069
 21
343.5980289543497
 72
     1
 10
347.1463960227069
 20
343.5980289543497
 11
347.1463960227069
 21
339.5980289543497
 72
     1
 10
347.1463960227069
 20
339.5980289543497
 11
415.2691486609235
 21
339.5980289543497
 97
        0
 75
     0
 76
     1
 52
45.0
 41
2.0
 77
     0
 78
     1
 53
45.0
 43
0.0
 44
0.0
 45
-4.490128060534577
 46
4.490128060534577
 79
     0
 98
        0
  0
HATCH
  5
B7
330
7F
100
AcDbEntity
  8
CAMPIONE_PORTA_A
  6
Continuous
 62
     7
100
AcDbHatch
 10
0.0
 20
0.0
 30
0.0
210
0.0
220
0.0
230
1.0
  2
LINE
 70
     0
 71
     0
 91
        1
 92
        1
 93
        7
 72
     1
 10
415.2691486609234
 20
367.5980289543497
 11
415.2691486609234
 21
379.5980289543497
 72
     1
 10
415.2691486609234
 20
379.5980289543497
 11
352.18470108131
 21
379.5980289543497
 72
     1
 10
352.18470108131
 20
379.5980289543497
 11
347.1463960227069
 21
379.5980289543497
 72
     1
 10
347.1463960227069
 20
379.5980289543497
 11
347.1463960227069
 21
367.5980289543497
 72
     1
 10
347.1463960227069
 20
367.5980289543497
 11
354.1463960227069
 21
367.5980289543497
 72
     1
 10
354.1463960227069
 20
367.5980289543497
 11
409.1463960227069
 21
367.5980289543497
 72
     1
 10
409.1463960227069
 20
367.5980289543497
 11
415.2691486609235
 21
367.5980289543497
 97
        0
 75
     0
 76
     1
 52
45.0
 41
2.0
 77
     0
 78
     1
 53
45.0
 43
0.0
 44
0.0
 45
-4.490128060534577
 46
4.490128060534577
 79
     0
 98
        0
  0
LINE
  5
B9
330
7F
100
AcDbEntity
  8
AN_140_3D_FZ-01
  6
Continuous
 62
     7
100
AcDbLine
 10
325.0932289171
 20
368.5960927777
 30
0.0
 11
325.0932289171
 21
407.5960927777
 31
0.0
  0
LINE
  5
BA
330
7F
100
AcDbEntity
  8
AN_140_3D_FZ-01
  6
HIDDEN2
 62
     7
100
AcDbLine
 10
324.3432289171
 20
385.5960927777
 30
0.0
 11
324.3432289171
 21
391.5960927777
 31
0.0
  0
LINE
  5
BB
330
7F
100
AcDbEntity
  8
AN_140_3D_FZ-01
  6
HIDDEN2
 62
     7
100
AcDbLine
 10
324.3432289171
 20
394.5960927777
 30
0.0
 11
324.3432289171
 21
400.5960927777
 31
0.0
  0
LINE
  5
BC
330
7F
100
AcDbEntity
  8
AN_140_3D_FZ-01
  6
HIDDEN2
 62
     7
100
AcDbLine
 10
324.3432289171
 20
374.5960927777
 30
0.0
 11
324.3432289171
 21
380.5960927777
 31
0.0
  0
LINE
  5
BD
330
7F
100
AcDbEntity
  8
AN_140_3D_FZ-01
  6
Continuous
 62
     7
100
AcDbLine
 10
322.0932289171
 20
356.5960927777
 30
0.0
 11
322.0932289171
 21
368.5960927777
 31
0.0
  0
LINE
  5
BE
330
7F
100
AcDbEntity
  8
AN_140_3D_FZ-01
  6
Continuous
 62
     7
100
AcDbLine
 10
322.0932289171
 20
343.5960927777
 30
0.0
 11
322.0932289171
 21
356.5960927777
 31
0.0
  0
LINE
  5
BF
330
7F
100
AcDbEntity
  8
AN_140_3D_FZ-01
  6
Continuous
 62
     7
100
AcDbLine
 10
325.0932289171
 20
356.5960927777
 30
0.0
 11
325.0932289171
 21
367.5960927777
 31
0.0
  0
LINE
  5
C0
330
7F
100
AcDbEntity
  8
AN_140_3D_FZ-01
  6
Continuous
 62
     7
100
AcDbLine
 10
325.0932289171
 20
343.5960927777
 30
0.0
 11
325.0932289171
 21
356.5960927777
 31
0.0
  0
LINE
  5
C1
330
7F
100
AcDbEntity
  8
AN_140_3D_FZ-01
  6
Continuous
 62
     7
100
AcDbLine
 10
322.0932289171
 20
368.5960927777
 30
0.0
 11
322.0932289171
 21
407.5960927777
 31
0.0
  0
LINE
  5
C2
330
7F
100
AcDbEntity
  8
AN_140_3D_FZ-01
  6
Continuous
 62
     7
100
AcDbLine
 10
322.0932289171
 20
368.5960927777
 30
0.0
 11
325.0932289171
 21
368.5960927777
 31
0.0
  0
LINE
  5
C3
330
7F
100
AcDbEntity
  8
AN_140_3D_FZ-01
  6
Continuous
 62
     7
100
AcDbLine
 10
325.0932289171
 20
407.5960927777
 30
0.0
 11
322.0932289171
 21
407.5960927777
 31
0.0
  0
LINE
  5
C4
330
7F
100
AcDbEntity
  8
AN_140_3D_FZ-01
  6
HIDDEN2
 62
     7
100
AcDbLine
 10
322.0932289171
 20
372.5960927777
 30
0.0
 11
325.0932289171
 21
372.5960927777
 31
0.0
  0
LINE
  5
C5
330
7F
100
AcDbEntity
  8
AN_140_3D_FZ-01
  6
HIDDEN2
 62
     7
100
AcDbLine
 10
325.0932289171
 20
350.5960927777
 30
0.0
 11
322.0932289171
 21
350.5960927777
 31
0.0
  0
LINE
  5
C6
330
7F
100
AcDbEntity
  8
AN_140_3D_FZ-01
  6
HIDDEN2
 62
     7
100
AcDbLine
 10
322.0932289171
 20
346.5960927777
 30
0.0
 11
325.0932289171
 21
346.5960927777
 31
0.0
  0
LINE
  5
C7
330
7F
100
AcDbEntity
  8
AN_140_3D_FZ-01
  6
HIDDEN2
 62
     7
100
AcDbLine
 10
325.0932289171
 20
387.5960927777
 30
0.0
 11
322.0932289171
 21
387.5960927777
 31
0.0
  0
LINE
  5
C8
330
7F
100
AcDbEntity
  8
AN_140_3D_FZ-01
  6
HIDDEN2
 62
     7
100
AcDbLine
 10
325.0932289171
 20
380.5960927777
 30
0.0
 11
324.3432289171
 21
380.5960927777
 31
0.0
  0
LINE
  5
C9
330
7F
100
AcDbEntity
  8
AN_140_3D_FZ-01
  6
HIDDEN2
 62
     7
100
AcDbLine
 10
324.3432289171
 20
374.5960927777
 30
0.0
 11
325.0932289171
 21
374.5960927777
 31
0.0
  0
LINE
  5
CA
330
7F
100
AcDbEntity
  8
AN_140_3D_FZ-01
  6
HIDDEN2
 62
     7
100
AcDbLine
 10
325.0932289171
 20
358.0960927777
 30
0.0
 11
322.0932289171
 21
358.0960927777
 31
0.0
  0
LINE
  5
CB
330
7F
100
AcDbEntity
  8
AN_140_3D_FZ-01
  6
HIDDEN2
 62
     7
100
AcDbLine
 10
322.0932289171
 20
353.0960927777
 30
0.0
 11
325.0932289171
 21
353.0960927777
 31
0.0
  0
LINE
  5
CC
330
7F
100
AcDbEntity
  8
AN_140_3D_FZ-01
  6
HIDDEN2
 62
     7
100
AcDbLine
 10
325.0932289171
 20
400.5960927777
 30
0.0
 11
324.3432289171
 21
400.5960927777
 31
0.0
  0
LINE
  5
CD
330
7F
100
AcDbEntity
  8
AN_140_3D_FZ-01
  6
HIDDEN2
 62
     7
100
AcDbLine
 10
324.3432289171
 20
394.5960927777
 30
0.0
 11
325.0932289171
 21
394.5960927777
 31
0.0
  0
LINE
  5
CE
330
7F
100
AcDbEntity
  8
AN_140_3D_FZ-01
  6
HIDDEN2
 62
     7
100
AcDbLine
 10
325.0932289171
 20
391.5960927777
 30
0.0
 11
324.3432289171
 21
391.5960927777
 31
0.0
  0
LINE
  5
CF
330
7F
100
AcDbEntity
  8
AN_140_3D_FZ-01
  6
HIDDEN2
 62
     7
100
AcDbLine
 10
324.3432289171
 20
385.5960927777
 30
0.0
 11
325.0932289171
 21
385.5960927777
 31
0.0
  0
LINE
  5
D0
330
7F
100
AcDbEntity
  8
AN_140_3D_FZ-01
  6
HIDDEN2
 62
     7
100
AcDbLine
 10
325.0932289171
 20
364.5960927777
 30
0.0
 11
322.0932289171
 21
364.5960927777
 31
0.0
  0
LINE
  5
D1
330
7F
100
AcDbEntity
  8
AN_140_3D_FZ-01
  6
HIDDEN2
 62
     7
100
AcDbLine
 10
322.0932289171
 20
360.5960927777
 30
0.0
 11
325.0932289171
 21
360.5960927777
 31
0.0
  0
LINE
  5
D2
330
7F
100
AcDbEntity
  8
AN_140_3D_FZ-01
  6
HIDDEN2
 62
     7
100
AcDbLine
 10
322.0932289171
 20
372.3460927777
 30
0.0
 11
324.3432289171
 21
374.5960927777
 31
0.0
  0
LINE
  5
D3
330
7F
100
AcDbEntity
  8
AN_140_3D_FZ-01
  6
HIDDEN2
 62
     7
100
AcDbLine
 10
324.3432289171
 20
380.5960927777
 30
0.0
 11
322.0932289171
 21
382.8460927777
 31
0.0
  0
LINE
  5
D4
330
7F
100
AcDbEntity
  8
AN_140_3D_FZ-01
  6
HIDDEN2
 62
     7
100
AcDbLine
 10
322.0932289171
 20
392.3460927777
 30
0.0
 11
324.3432289171
 21
394.5960927777
 31
0.0
  0
LINE
  5
D5
330
7F
100
AcDbEntity
  8
AN_140_3D_FZ-01
  6
HIDDEN2
 62
     7
100
AcDbLine
 10
324.3432289171
 20
400.5960927777
 30
0.0
 11
322.0932289171
 21
402.8460927777
 31
0.0
  0
LINE
  5
D6
330
7F
100
AcDbEntity
  8
AN_140_3D_FZ-01
  6
HIDDEN2
 62
     7
100
AcDbLine
 10
322.0932289171
 20
383.3460927777
 30
0.0
 11
324.3432289171
 21
385.5960927777
 31
0.0
  0
LINE
  5
D7
330
7F
100
AcDbEntity
  8
AN_140_3D_FZ-01
  6
HIDDEN2
 62
     7
100
AcDbLine
 10
324.3432289171
 20
391.5960927777
 30
0.0
 11
322.0932289171
 21
393.8460927777
 31
0.0
  0
HATCH
  5
D8
330
7F
100
AcDbEntity
  8
AN_140_3D_FZ-01
  6
Continuous
 62
     7
100
AcDbHatch
 10
0.0
 20
0.0
 30
0.0
210
0.0
220
0.0
230
1.0
  2
LINE
 70
     0
 71
     0
 91
        1
 92
        1
 93
       23
 72
     1
 10
322.0932289170793
 20
407.5960927777402
 11
322.0932289170793
 21
402.8460927777402
 72
     1
 10
322.0932289170793
 20
402.8460927777402
 11
322.0932289170793
 21
393.8460927777402
 72
     1
 10
322.0932289170793
 20
393.8460927777402
 11
322.0932289170793
 21
392.3460927777402
 72
     1
 10
322.0932289170793
 20
392.3460927777402
 11
322.0932289170793
 21
387.5960927777402
 72
     1
 10
322.0932289170793
 20
387.5960927777402
 11
322.0932289170793
 21
383.3460927777402
 72
     1
 10
322.0932289170793
 20
383.3460927777402
 11
322.0932289170793
 21
382.8460927777402
 72
     1
 10
322.0932289170793
 20
382.8460927777402
 11
322.0932289170793
 21
376.8460927777402
 72
     1
 10
322.0932289170793
 20
376.8460927777402
 11
322.0932289170793
 21
372.5960927777402
 72
     1
 10
322.0932289170793
 20
372.5960927777402
 11
322.0932289170793
 21
372.3460927777402
 72
     1
 10
322.0932289170793
 20
372.3460927777402
 11
322.0932289170793
 21
368.5960927777402
 72
     1
 10
322.0932289170793
 20
368.5960927777402
 11
325.0932289170793
 21
368.5960927777402
 72
     1
 10
325.0932289170793
 20
368.5960927777402
 11
325.0932289170793
 21
372.5960927777402
 72
     1
 10
325.0932289170793
 20
372.5960927777402
 11
325.0932289170793
 21
374.5960927777402
 72
     1
 10
325.0932289170793
 20
374.5960927777402
 11
325.0932289170793
 21
376.8460927777402
 72
     1
 10
325.0932289170793
 20
376.8460927777402
 11
325.0932289170793
 21
380.5960927777402
 72
     1
 10
325.0932289170793
 20
380.5960927777402
 11
325.0932289170793
 21
383.3460927777402
 72
     1
 10
325.0932289170793
 20
383.3460927777402
 11
325.0932289170793
 21
385.5960927777402
 72
     1
 10
325.0932289170793
 20
385.5960927777402
 11
325.0932289170793
 21
387.5960927777402
 72
     1
 10
325.0932289170793
 20
387.5960927777402
 11
325.0932289170793
 21
391.5960927777402
 72
     1
 10
325.0932289170793
 20
391.5960927777402
 11
325.0932289170793
 21
394.5960927777402
 72
     1
 10
325.0932289170793
 20
394.5960927777402
 11
325.0932289170793
 21
400.5960927777402
 72
     1
 10
325.0932289170793
 20
400.5960927777402
 11
325.0932289170793
 21
407.5960927777402
 72
     1
 10
325.0932289170793
 20
407.5960927777402
 11
322.0932289170793
 21
407.5960927777402
 97
        0
 75
     0
 76
     1
 52
45.0
 41
2.0
 77
     0
 78
     1
 53
45.0
 43
0.0
 44
0.0
 45
-4.490128060534577
 46
4.490128060534577
 79
     0
 98
        0
  0
ENDBLK
  5
DA
330
7F
100
AcDbEntity
  8
0
100
AcDbBlockEnd
  0
BLOCK
  5
F8
330
DB
100
AcDbEntity
  8
0
100
AcDbBlockBegin
  2
SE1
 70
     0
 10
0.0
 20
0.0
 30
0.0
  3
SE1
  1

  0
LINE
  5
DD
330
DB
100
AcDbEntity
  8
TELAIO_AMERICANO
  6
Continuous
 62
     7
100
AcDbLine
 10
73.9758479865
 20
463.8802594001
 30
0.0
 11
113.9758479865
 21
463.8802594001
 31
0.0
  0
LINE
  5
DE
330
DB
100
AcDbEntity
  8
TELAIO_AMERICANO
  6
Continuous
 62
     7
100
AcDbLine
 10
73.9758479865
 20
263.8802594001
 30
0.0
 11
73.9758479865
 21
463.8802594001
 31
0.0
  0
LINE
  5
DF
330
DB
100
AcDbEntity
  8
TELAIO_AMERICANO
  6
Continuous
 62
     7
100
AcDbLine
 10
117.9758479865
 20
263.8802594001
 30
0.0
 11
117.9658479865
 21
263.8802594001
 31
0.0
  0
LINE
  5
E0
330
DB
100
AcDbEntity
  8
TELAIO_AMERICANO
  6
Continuous
 62
     7
100
AcDbLine
 10
117.9758479865
 20
263.8802594001
 30
0.0
 11
117.9758479865
 21
463.8802594001
 31
0.0
  0
LINE
  5
E1
330
DB
100
AcDbEntity
  8
TELAIO_AMERICANO
  6
Continuous
 62
     7
100
AcDbLine
 10
117.9758479865
 20
263.8802594001
 30
0.0
 11
143.9758479865
 21
263.8802594001
 31
0.0
  0
LINE
  5
E2
330
DB
100
AcDbEntity
  8
TELAIO_AMERICANO
  6
Continuous
 62
     7
100
AcDbLine
 10
143.9758479865
 20
263.8802594001
 30
0.0
 11
143.9758479865
 21
463.8802594001
 31
0.0
  0
LINE
  5
E3
330
DB
100
AcDbEntity
  8
TELAIO_AMERICANO
  6
Continuous
 62
     7
100
AcDbLine
 10
117.9758479865
 20
463.8802594001
 30
0.0
 11
143.9758479865
 21
463.8802594001
 31
0.0
  0
LINE
  5
E4
330
DB
100
AcDbEntity
  8
TELAIO_AMERICANO
  6
Continuous
 62
     7
100
AcDbLine
 10
113.9758479865
 20
263.8802594001
 30
0.0
 11
73.9758479865
 21
263.8802594001
 31
0.0
  0
LINE
  5
E5
330
DB
100
AcDbEntity
  8
TELAIO_AMERICANO
  6
Continuous
 62
     7
100
AcDbLine
 10
117.9658479865
 20
463.8802594001
 30
0.0
 11
117.9758479865
 21
463.8802594001
 31
0.0
  0
LINE
  5
E6
330
DB
100
AcDbEntity
  8
TELAIO_AMERICANO
  6
Continuous
 62
     7
100
AcDbLine
 10
114.4758479865
 20
463.8802594001
 30
0.0
 11
113.9758479865
 21
463.8802594001
 31
0.0
  0
LINE
  5
E7
330
DB
100
AcDbEntity
  8
TELAIO_AMERICANO
  6
Continuous
 62
     7
100
AcDbLine
 10
117.9658479865
 20
463.8802594001
 30
0.0
 11
116.9658479865
 21
463.8802594001
 31
0.0
  0
LINE
  5
E8
330
DB
100
AcDbEntity
  8
TELAIO_AMERICANO
  6
Continuous
 62
     7
100
AcDbLine
 10
117.9658479865
 20
263.8802594001
 30
0.0
 11
117.9658479865
 21
463.8802594001
 31
0.0
  0
LINE
  5
E9
330
DB
100
AcDbEntity
  8
TELAIO_AMERICANO
  6
Continuous
 62
     7
100
AcDbLine
 10
116.9658479865
 20
463.8802594001
 30
0.0
 11
116.743797179
 21
463.8802594001
 31
0.0
  0
LINE
  5
EA
330
DB
100
AcDbEntity
  8
TELAIO_AMERICANO
  6
Continuous
 62
     7
100
AcDbLine
 10
116.743797179
 20
463.8802594001
 30
0.0
 11
116.243797179
 21
463.8802594001
 31
0.0
  0
LINE
  5
EB
330
DB
100
AcDbEntity
  8
TELAIO_AMERICANO
  6
Continuous
 62
     7
100
AcDbLine
 10
116.243797179
 20
463.8802594001
 30
0.0
 11
114.4758479865
 21
463.8802594001
 31
0.0
  0
LINE
  5
EC
330
DB
100
AcDbEntity
  8
TELAIO_AMERICANO
  6
Continuous
 62
     7
100
AcDbLine
 10
114.4758479865
 20
263.8802594001
 30
0.0
 11
113.9758479865
 21
263.8802594001
 31
0.0
  0
LINE
  5
ED
330
DB
100
AcDbEntity
  8
TELAIO_AMERICANO
  6
Continuous
 62
     7
100
AcDbLine
 10
117.9658479865
 20
263.8802594001
 30
0.0
 11
116.9658479865
 21
263.8802594001
 31
0.0
  0
LINE
  5
EE
330
DB
100
AcDbEntity
  8
TELAIO_AMERICANO
  6
Continuous
 62
     7
100
AcDbLine
 10
116.9658479865
 20
263.8802594001
 30
0.0
 11
116.743797179
 21
263.8802594001
 31
0.0
  0
LINE
  5
EF
330
DB
100
AcDbEntity
  8
TELAIO_AMERICANO
  6
Continuous
 62
     7
100
AcDbLine
 10
116.743797179
 20
263.8802594001
 30
0.0
 11
116.243797179
 21
263.8802594001
 31
0.0
  0
LINE
  5
F0
330
DB
100
AcDbEntity
  8
TELAIO_AMERICANO
  6
Continuous
 62
     7
100
AcDbLine
 10
116.243797179
 20
263.8802594001
 30
0.0
 11
114.4758479865
 21
263.8802594001
 31
0.0
  0
LINE
  5
F1
330
DB
100
AcDbEntity
  8
TELAIO_AMERICANO
  6
HIDDEN2
 62
     7
100
AcDbLine
 10
86.6758479865
 20
263.8802594001
 30
0.0
 11
86.6758479865
 21
309.3429286862
 31
0.0
  0
LINE
  5
F2
330
DB
100
AcDbEntity
  8
TELAIO_AMERICANO
  6
HIDDEN2
 62
     7
100
AcDbLine
 10
86.6758479865
 20
418.4175901139
 30
0.0
 11
86.6758479865
 21
463.8802594001
 31
0.0
  0
LINE
  5
F3
330
DB
100
AcDbEntity
  8
TELAIO_AMERICANO
  6
Continuous
 62
     7
100
AcDbLine
 10
86.6758479865
 20
418.4175901139
 30
0.0
 11
86.6758479865
 21
309.3429286862
 31
0.0
  0
ARC
  5
F4
330
DB
100
AcDbEntity
  8
TELAIO_AMERICANO
  6
Continuous
 62
     7
100
AcDbCircle
 10
89.9758479865
 20
320.8802594001
 30
0.0
 40
12.0
100
AcDbArc
 50
180.0
 51
0.0
  0
LINE
  5
F5
330
DB
100
AcDbEntity
  8
TELAIO_AMERICANO
  6
Continuous
 62
     7
100
AcDbLine
 10
77.9758479865
 20
320.8802594001
 30
0.0
 11
77.9758479865
 21
406.8802594001
 31
0.0
  0
ARC
  5
F6
330
DB
100
AcDbEntity
  8
TELAIO_AMERICANO
  6
Continuous
 62
     7
100
AcDbCircle
 10
89.9758479865
 20
406.8802594001
 30
0.0
 40
11.99999999999999
100
AcDbArc
 50
0.0
 51
180.0
  0
LINE
  5
F7
330
DB
100
AcDbEntity
  8
TELAIO_AMERICANO
  6
Continuous
 62
     7
100
AcDbLine
 10
101.9758479865
 20
406.8802594001
 30
0.0
 11
101.9758479865
 21
320.8802594001
 31
0.0
  0
ENDBLK
  5
F9
330
DB
100
AcDbEntity
  8
0
100
AcDbBlockEnd
  0
BLOCK
  5
10A
330
FA
100
AcDbEntity
  8
0
100
AcDbBlockBegin
  2
SE2
 70
     0
 10
0.0
 20
0.0
 30
0.0
  3
SE2
  1

  0
LINE
  5
FC
330
FA
100
AcDbEntity
  8
CAMPIONE_PORTA_A
  6
Continuous
 62
     7
100
AcDbLine
 10
738.6926307418
 20
263.8802594001
 30
0.0
 11
738.6926307418
 21
463.8802594001
 31
0.0
  0
LINE
  5
FD
330
FA
100
AcDbEntity
  8
CAMPIONE_PORTA_A
  6
Continuous
 62
     7
100
AcDbLine
 10
778.6926307418
 20
263.8802594001
 30
0.0
 11
738.6926307418
 21
263.8802594001
 31
0.0
  0
LINE
  5
FE
330
FA
100
AcDbEntity
  8
CAMPIONE_PORTA_A
  6
Continuous
 62
     7
100
AcDbLine
 10
778.6926307418
 20
463.8802594001
 30
0.0
 11
778.6926307418
 21
263.8802594001
 31
0.0
  0
LINE
  5
FF
330
FA
100
AcDbEntity
  8
CAMPIONE_PORTA_A
  6
Continuous
 62
     7
100
AcDbLine
 10
738.6926307418
 20
463.8802594001
 30
0.0
 11
778.6926307418
 21
463.8802594001
 31
0.0
  0
ARC
  5
100
330
FA
100
AcDbEntity
  8
CAMPIONE_PORTA_A
  6
Continuous
 62
     7
100
AcDbCircle
 10
762.6926307418
 20
320.8802594001
 30
0.0
 40
12.00000000000002
100
AcDbArc
 50
180.0
 51
0.0
  0
LINE
  5
101
330
FA
100
AcDbEntity
  8
CAMPIONE_PORTA_A
  6
Continuous
 62
     7
100
AcDbLine
 10
750.6926307418
 20
320.8802594001
 30
0.0
 11
750.6926307418
 21
406.8802594001
 31
0.0
  0
ARC
  5
102
330
FA
100
AcDbEntity
  8
CAMPIONE_PORTA_A
  6
Continuous
 62
     7
100
AcDbCircle
 10
762.6926307418
 20
406.8802594001
 30
0.0
 40
12.00000000000002
100
AcDbArc
 50
0.0
 51
180.0
  0
LINE
  5
103
330
FA
100
AcDbEntity
  8
CAMPIONE_PORTA_A
  6
Continuous
 62
     7
100
AcDbLine
 10
774.6926307418
 20
406.8802594001
 30
0.0
 11
774.6926307418
 21
320.8802594001
 31
0.0
  0
ARC
  5
104
330
FA
100
AcDbEntity
  8
CAMPIONE_PORTA_A
  6
Continuous
 62
     7
100
AcDbCircle
 10
762.6926307418
 20
390.8802594001
 30
0.0
 40
12.00000000000003
100
AcDbArc
 50
0.0
 51
180.0
  0
ARC
  5
105
330
FA
100
AcDbEntity
  8
CAMPIONE_PORTA_A
  6
Continuous
 62
     7
100
AcDbCircle
 10
762.6926307418
 20
336.8802594001
 30
0.0
 40
12.00000000000001
100
AcDbArc
 50
180.0
 51
0.0
  0
CIRCLE
  5
106
330
FA
100
AcDbEntity
  8
CAMPIONE_PORTA_A
  6
Continuous
 62
     7
100
AcDbCircle
 10
762.6926307418
 20
409.8802594001
 30
0.0
 40
1.5
  0
CIRCLE
  5
107
330
FA
100
AcDbEntity
  8
CAMPIONE_PORTA_A
  6
Continuous
 62
     7
100
AcDbCircle
 10
762.6926307418
 20
317.8802594001
 30
0.0
 40
1.5
  0
ARC
  5
108
330
FA
100
AcDbEntity
  8
CAMPIONE_PORTA_A
  6
Continuous
 62
     7
100
AcDbCircle
 10
762.6926307418
 20
352.3802593999
 30
0.0
 40
12.00000000000002
100
AcDbArc
 50
180.0
 51
0.0
  0
ARC
  5
109
330
FA
100
AcDbEntity
  8
CAMPIONE_PORTA_A
  6
Continuous
 62
     7
100
AcDbCircle
 10
762.6926307418
 20
375.3802594002
 30
0.0
 40
12.00000000000001
100
AcDbArc
 50
0.0
 51
180.0
  0
ENDBLK
  5
10B
330
FA
100
AcDbEntity
  8
0
100
AcDbBlockEnd
  0
BLOCK
  5
10E
330
10D
100
AcDbEntity
  8
0
100
AcDbBlockBegin
  2
_OBLIQUE
 70
     0
 10
0.0
 20
0.0
 30
0.0
  3
_OBLIQUE
  1

  0
LINE
  5
110
330
10D
100
AcDbEntity
  8
0
  6
ByBlock
 62
     0
370
    -2
100
AcDbLine
 10
-0.5
 20
-0.5
 30
0.0
 11
0.5
 21
0.5
 31
0.0
  0
ENDBLK
  5
10F
330
10D
100
AcDbEntity
  8
0
100
AcDbBlockEnd
  0
BLOCK
  5
114
330
111
100
AcDbEntity
  8
0
100
AcDbBlockBegin
  2
_SE_FILLED
 70
     0
 10
0.0
 20
0.0
 30
0.0
  3
_SE_FILLED
  1

  0
SOLID
  5
112
330
111
100
AcDbEntity
  8
0
 62
     0
100
AcDbTrace
 10
0.0
 20
0.0
 30
0.0
 11
-1.0
 21
-0.1665
 31
0.0
 12
-1.0
 22
0.1665
 32
0.0
 13
0.0
 23
0.0
 33
0.0
  0
LINE
  5
113
330
111
100
AcDbEntity
  8
0
 62
     0
100
AcDbLine
 10
0.0
 20
0.0
 30
0.0
 11
-1.0
 21
0.0
 31
0.0
  0
ENDBLK
  5
115
330
111
100
AcDbEntity
  8
0
100
AcDbBlockEnd
  0
BLOCK
  5
123
330
119
100
AcDbEntity
  8
0
100
AcDbBlockBegin
  2
DMBLK152
 70
     0
 10
0.0
 20
0.0
 30
0.0
  3
DMBLK152
  1

  0
HATCH
  5
11A
330
119
100
AcDbEntity
  8
0
  6
Continuous
 62
     7
100
AcDbHatch
 10
0.0
 20
0.0
 30
0.0
210
0.0
220
0.0
230
1.0
  2
SOLID
 70
     1
 71
     0
 91
        1
 92
        1
 93
        3
 72
     1
 10
80.97584801261951
 20
255.6583248983477
 11
80.97584801261951
 21
256.65832490704
 72
     1
 10
80.97584801261951
 20
256.65832490704
 11
77.97584798654248
 21
256.1583249026938
 72
     1
 10
77.97584798654248
 20
256.1583249026938
 11
80.97584801261951
 21
255.6583248983476
 97
        0
 75
     0
 76
     1
 98
        0
  0
HATCH
  5
11B
330
119
100
AcDbEntity
  8
0
  6
Continuous
 62
     7
100
AcDbHatch
 10
0.0
 20
0.0
 30
0.0
210
0.0
220
0.0
230
1.0
  2
SOLID
 70
     1
 71
     0
 91
        1
 92
        1
 93
        3
 72
     1
 10
70.97584796046544
 20
255.6583248983477
 11
73.97584798654248
 21
256.1583249026938
 72
     1
 10
73.97584798654248
 20
256.1583249026938
 11
70.97584796046544
 21
256.65832490704
 72
     1
 10
70.97584796046544
 20
256.65832490704
 11
70.97584796046544
 21
255.6583248983476
 97
        0
 75
     0
 76
     1
 98
        0
  0
LINE
  5
11C
330
119
100
AcDbEntity
  8
0
  6
Continuous
 62
     7
100
AcDbLine
 10
77.9758479865
 20
320.8802594001
 30
0.0
 11
77.9758479865
 21
254.6583248897
 31
0.0
  0
LINE
  5
11D
330
119
100
AcDbEntity
  8
0
  6
Continuous
 62
     7
100
AcDbLine
 10
73.9758479865
 20
263.8802594001
 30
0.0
 11
73.9758479865
 21
254.6583248897
 31
0.0
  0
LINE
  5
11E
330
119
100
AcDbEntity
  8
0
  6
Continuous
 62
     7
100
AcDbLine
 10
83.9758480387
 20
256.1583249027
 30
0.0
 11
46.9768636348
 21
256.1583249027
 31
0.0
  0
TEXT
  5
11F
330
119
100
AcDbEntity
  8
0
  6
Continuous
 62
     7
100
AcDbText
 10
48.0268636678
 20
256.9083249027
 30
0.0
 40
3.0
  1
4mm
  7
SEACAD_Solid_Edge_ISO
 11
48.0268636678
 21
259.9083249027
 31
0.0
100
AcDbText
 73
     3
  0
TEXT
  5
120
330
119
100
AcDbEntity
  8
0
  6
Continuous
 62
     7
100
AcDbText
 10
55.3495909406
 20
256.9083249027
 30
0.0
 40
3.0
  1
(
  7
SEACAD_Solid_Edge_ISO
 11
55.3495909406
 21
259.9083249027
 31
0.0
100
AcDbText
 73
     3
  0
TEXT
  5
121
330
119
100
AcDbEntity
  8
0
  6
Continuous
 62
     7
100
AcDbText
 10
57.5995909406
 20
256.9083249027
 30
0.0
 40
3.0
  1
0.157"
  7
SEACAD_Solid_Edge_ISO
 11
57.5995909406
 21
259.9083249027
 31
0.0
100
AcDbText
 73
     3
  0
TEXT
  5
122
330
119
100
AcDbEntity
  8
0
  6
Continuous
 62
     7
100
AcDbText
 10
67.4859545769
 20
256.9083249027
 30
0.0
 40
3.0
  1
)
  7
SEACAD_Solid_Edge_ISO
 11
67.4859545769
 21
259.9083249027
 31
0.0
100
AcDbText
 73
     3
  0
ENDBLK
  5
124
330
119
100
AcDbEntity
  8
0
100
AcDbBlockEnd
  0
BLOCK
  5
130
330
126
100
AcDbEntity
  8
0
100
AcDbBlockBegin
  2
DMBLK153
 70
     0
 10
0.0
 20
0.0
 30
0.0
  3
DMBLK153
  1

  0
HATCH
  5
127
330
126
100
AcDbEntity
  8
0
  6
Continuous
 62
     7
100
AcDbHatch
 10
0.0
 20
0.0
 30
0.0
210
0.0
220
0.0
230
1.0
  2
SOLID
 70
     1
 71
     0
 91
        1
 92
        1
 93
        3
 72
     1
 10
65.5828623253388
 20
415.8802593739732
 11
66.58286233403115
 21
415.8802593739732
 72
     1
 10
66.58286233403115
 20
415.8802593739732
 11
66.08286232968497
 21
418.8802594000502
 72
     1
 10
66.08286232968497
 20
418.8802594000502
 11
65.5828623253388
 21
415.8802593739732
 97
        0
 75
     0
 76
     1
 98
        0
  0
HATCH
  5
128
330
126
100
AcDbEntity
  8
0
  6
Continuous
 62
     7
100
AcDbHatch
 10
0.0
 20
0.0
 30
0.0
210
0.0
220
0.0
230
1.0
  2
SOLID
 70
     1
 71
     0
 91
        1
 92
        1
 93
        3
 72
     1
 10
65.5828623253388
 20
311.8802600221737
 11
66.08286232968497
 21
308.8802599960967
 72
     1
 10
66.08286232968497
 20
308.8802599960967
 11
66.58286233403115
 21
311.8802600221737
 72
     1
 10
66.58286233403115
 20
311.8802600221737
 11
65.5828623253388
 21
311.8802600221737
 97
        0
 75
     0
 76
     1
 98
        0
  0
LINE
  5
129
330
126
100
AcDbEntity
  8
0
  6
Continuous
 62
     7
100
AcDbLine
 10
89.9758479865
 20
418.8802594001
 30
0.0
 11
64.5828623166
 21
418.8802594001
 31
0.0
  0
LINE
  5
12A
330
126
100
AcDbEntity
  8
0
  6
Continuous
 62
     7
100
AcDbLine
 10
89.9758479865
 20
308.8802594001
 30
0.0
 11
64.5828623166
 21
308.8802594001
 31
0.0
  0
LINE
  5
12B
330
126
100
AcDbEntity
  8
0
  6
Continuous
 62
     7
100
AcDbLine
 10
66.0828623297
 20
418.8802594001
 30
0.0
 11
66.0828623297
 21
308.8802599961
 31
0.0
  0
TEXT
  5
12C
330
126
100
AcDbEntity
  8
0
  6
Continuous
 62
     7
100
AcDbText
 10
65.3328623297
 20
353.4007142435
 30
0.0
 40
3.0
  1
110mm
 50
90.0
  7
SEACAD_Solid_Edge_ISO
 11
62.3328623297
 21
353.4007142435
 31
0.0
100
AcDbText
 73
     3
  0
TEXT
  5
12D
330
126
100
AcDbEntity
  8
0
  6
Continuous
 62
     7
100
AcDbText
 10
65.3328623297
 20
363.1779869708
 30
0.0
 40
3.0
  1
(
 50
90.0
  7
SEACAD_Solid_Edge_ISO
 11
62.3328623297
 21
363.1779869708
 31
0.0
100
AcDbText
 73
     3
  0
TEXT
  5
12E
330
126
100
AcDbEntity
  8
0
  6
Continuous
 62
     7
100
AcDbText
 10
65.3328623297
 20
365.4279869708
 30
0.0
 40
3.0
  1
4.331
 50
90.0
  7
SEACAD_Solid_Edge_ISO
 11
62.3328623297
 21
365.4279869708
 31
0.0
100
AcDbText
 73
     3
  0
TEXT
  5
12F
330
126
100
AcDbEntity
  8
0
  6
Continuous
 62
     7
100
AcDbText
 10
65.3328623297
 20
373.6098051526
 30
0.0
 40
3.0
  1
)
 50
90.0
  7
SEACAD_Solid_Edge_ISO
 11
62.3328623297
 21
373.6098051526
 31
0.0
100
AcDbText
 73
     3
  0
ENDBLK
  5
131
330
126
100
AcDbEntity
  8
0
100
AcDbBlockEnd
  0
BLOCK
  5
13B
330
133
100
AcDbEntity
  8
0
100
AcDbBlockBegin
  2
DMBLK154
 70
     0
 10
0.0
 20
0.0
 30
0.0
  3
DMBLK154
  1

  0
LINE
  5
134
330
133
100
AcDbEntity
  8
0
  6
Continuous
 62
     7
100
AcDbLine
 10
97.1293511925
 20
374.0214025504
 30
0.0
 11
87.4231917981
 21
418.6056143579
 31
0.0
  0
HATCH
  5
135
330
133
100
AcDbEntity
  8
0
  6
Continuous
 62
     7
100
AcDbHatch
 10
0.0
 20
0.0
 30
0.0
210
0.0
220
0.0
230
1.0
  2
SOLID
 70
     1
 71
     0
 91
        1
 92
        1
 93
        3
 72
     1
 10
87.57279941083333
 20
415.5679148419829
 11
88.5499123239857
 21
415.7806361910186
 72
     1
 10
88.5499123239857
 20
415.7806361910186
 11
87.42319182030234
 21
418.6056142559578
 72
     1
 10
87.42319182030234
 20
418.6056142559578
 11
87.57279941083333
 21
415.5679148419829
 97
        0
 75
     0
 76
     1
 98
        0
  0
TEXT
  5
136
330
133
100
AcDbEntity
  8
0
  6
Continuous
 62
     7
100
AcDbText
 10
92.159319359
 20
400.3764549005
 30
0.0
 40
3.0
  1
R
 50
282.2818779945
  7
SEACAD_Solid_Edge_ISO
 11
95.090658073
 21
401.014618942
 31
0.0
100
AcDbText
 73
     3
  0
TEXT
  5
137
330
133
100
AcDbEntity
  8
0
  6
Continuous
 62
     7
100
AcDbText
 10
92.9193147176
 20
396.8854969775
 30
0.0
 40
3.0
  1
12mm
 50
282.2818779945
  7
SEACAD_Solid_Edge_ISO
 11
95.8506534316
 21
397.523661019
 31
0.0
100
AcDbText
 73
     3
  0
TEXT
  5
138
330
133
100
AcDbEntity
  8
0
  6
Continuous
 62
     7
100
AcDbText
 10
94.7525859643
 20
388.4645603082
 30
0.0
 40
3.0
  1
(
 50
282.2818779945
  7
SEACAD_Solid_Edge_ISO
 11
97.6839246782
 21
389.1027243498
 31
0.0
100
AcDbText
 73
     3
  0
TEXT
  5
139
330
133
100
AcDbEntity
  8
0
  6
Continuous
 62
     7
100
AcDbText
 10
95.2312089954
 20
386.2660562727
 30
0.0
 40
3.0
  1
0.472"
 50
282.2818779945
  7
SEACAD_Solid_Edge_ISO
 11
98.1625477094
 21
386.9042203143
 31
0.0
100
AcDbText
 73
     3
  0
TEXT
  5
13A
330
133
100
AcDbEntity
  8
0
  6
Continuous
 62
     7
100
AcDbText
 10
97.4792868691
 20
375.9397494394
 30
0.0
 40
3.0
  1
)
 50
282.2818779945
  7
SEACAD_Solid_Edge_ISO
 11
100.4106255831
 21
376.577913481
 31
0.0
100
AcDbText
 73
     3
  0
ENDBLK
  5
13C
330
133
100
AcDbEntity
  8
0
100
AcDbBlockEnd
  0
BLOCK
  5
148
330
13E
100
AcDbEntity
  8
0
100
AcDbBlockBegin
  2
DMBLK155
 70
     0
 10
0.0
 20
0.0
 30
0.0
  3
DMBLK155
  1

  0
HATCH
  5
13F
330
13E
100
AcDbEntity
  8
0
  6
Continuous
 62
     7
100
AcDbHatch
 10
0.0
 20
0.0
 30
0.0
210
0.0
220
0.0
230
1.0
  2
SOLID
 70
     1
 71
     0
 91
        1
 92
        1
 93
        3
 72
     1
 10
238.2849571998706
 20
255.6583249281499
 11
241.2849572259476
 21
256.1583249324961
 72
     1
 10
241.2849572259476
 20
256.1583249324962
 11
238.2849571998706
 21
256.6583249368423
 72
     1
 10
238.2849571998706
 20
256.6583249368423
 11
238.2849571998706
 21
255.6583249281499
 97
        0
 75
     0
 76
     1
 98
        0
  0
HATCH
  5
140
330
13E
100
AcDbEntity
  8
0
  6
Continuous
 62
     7
100
AcDbHatch
 10
0.0
 20
0.0
 30
0.0
210
0.0
220
0.0
230
1.0
  2
SOLID
 70
     1
 71
     0
 91
        1
 92
        1
 93
        3
 72
     1
 10
217.2849565516701
 20
255.6583249281499
 11
217.2849565516701
 21
256.6583249368423
 72
     1
 10
217.2849565516701
 20
256.6583249368423
 11
214.2849565255931
 21
256.1583249324961
 72
     1
 10
214.2849565255931
 20
256.1583249324962
 11
217.2849565516701
 21
255.65832492815
 97
        0
 75
     0
 76
     1
 98
        0
  0
LINE
  5
141
330
13E
100
AcDbEntity
  8
0
  6
Continuous
 62
     7
100
AcDbLine
 10
241.2849572259
 20
263.8802594001
 30
0.0
 11
241.2849572259
 21
254.6583249195
 31
0.0
  0
LINE
  5
142
330
13E
100
AcDbEntity
  8
0
  6
Continuous
 62
     7
100
AcDbLine
 10
214.2849572259
 20
309.3720014954
 30
0.0
 11
214.2849572259
 21
254.6583249195
 31
0.0
  0
LINE
  5
143
330
13E
100
AcDbEntity
  8
0
  6
Continuous
 62
     7
100
AcDbLine
 10
241.2849572259
 20
256.1583249325
 30
0.0
 11
214.2849565256
 21
256.1583249325
 31
0.0
  0
TEXT
  5
144
330
13E
100
AcDbEntity
  8
0
  6
Continuous
 62
     7
100
AcDbText
 10
216.7940477849
 20
256.9083249325
 30
0.0
 40
3.0
  1
27mm
  7
SEACAD_Solid_Edge_ISO
 11
216.7940477849
 21
259.9083249325
 31
0.0
100
AcDbText
 73
     3
  0
TEXT
  5
145
330
13E
100
AcDbEntity
  8
0
  6
Continuous
 62
     7
100
AcDbText
 10
226.0940477849
 20
256.9083249325
 30
0.0
 40
3.0
  1
(
  7
SEACAD_Solid_Edge_ISO
 11
226.0940477849
 21
259.9083249325
 31
0.0
100
AcDbText
 73
     3
  0
TEXT
  5
146
330
13E
100
AcDbEntity
  8
0
  6
Continuous
 62
     7
100
AcDbText
 10
228.3440477849
 20
256.9083249325
 30
0.0
 40
3.0
  1
1.063"
  7
SEACAD_Solid_Edge_ISO
 11
228.3440477849
 21
259.9083249325
 31
0.0
100
AcDbText
 73
     3
  0
TEXT
  5
147
330
13E
100
AcDbEntity
  8
0
  6
Continuous
 62
     7
100
AcDbText
 10
238.0258659667
 20
256.9083249325
 30
0.0
 40
3.0
  1
)
  7
SEACAD_Solid_Edge_ISO
 11
238.0258659667
 21
259.9083249325
 31
0.0
100
AcDbText
 73
     3
  0
ENDBLK
  5
149
330
13E
100
AcDbEntity
  8
0
100
AcDbBlockEnd
  0
BLOCK
  5
155
330
14B
100
AcDbEntity
  8
0
100
AcDbBlockBegin
  2
DMBLK156
 70
     0
 10
0.0
 20
0.0
 30
0.0
  3
DMBLK156
  1

  0
HATCH
  5
14C
330
14B
100
AcDbEntity
  8
0
  6
Continuous
 62
     7
100
AcDbHatch
 10
0.0
 20
0.0
 30
0.0
210
0.0
220
0.0
230
1.0
  2
SOLID
 70
     1
 71
     0
 91
        1
 92
        1
 93
        3
 72
     1
 10
456.8711825830308
 20
255.6583249281499
 11
459.8711826091078
 21
256.1583249324961
 72
     1
 10
459.8711826091078
 20
256.1583249324962
 11
456.8711825830308
 21
256.6583249368423
 72
     1
 10
456.8711825830308
 20
256.6583249368423
 11
456.8711825830308
 21
255.6583249281499
 97
        0
 75
     0
 76
     1
 98
        0
  0
HATCH
  5
14D
330
14B
100
AcDbEntity
  8
0
  6
Continuous
 62
     7
100
AcDbHatch
 10
0.0
 20
0.0
 30
0.0
210
0.0
220
0.0
230
1.0
  2
SOLID
 70
     1
 71
     0
 91
        1
 92
        1
 93
        3
 72
     1
 10
469.8711826351849
 20
255.6583249281499
 11
469.8711826351849
 21
256.6583249368423
 72
     1
 10
469.8711826351849
 20
256.6583249368423
 11
466.8711826091078
 21
256.1583249324961
 72
     1
 10
466.8711826091078
 20
256.1583249324962
 11
469.8711826351849
 21
255.65832492815
 97
        0
 75
     0
 76
     1
 98
        0
  0
LINE
  5
14E
330
14B
100
AcDbEntity
  8
0
  6
Continuous
 62
     7
100
AcDbLine
 10
459.8711826091
 20
263.8802594001
 30
0.0
 11
459.8711826091
 21
254.6583249195
 31
0.0
  0
LINE
  5
14F
330
14B
100
AcDbEntity
  8
0
  6
Continuous
 62
     7
100
AcDbLine
 10
466.8711826091
 20
322.1302594001
 30
0.0
 11
466.8711826091
 21
254.6583249195
 31
0.0
  0
LINE
  5
150
330
14B
100
AcDbEntity
  8
0
  6
Continuous
 62
     7
100
AcDbLine
 10
453.871182557
 20
256.1583249325
 30
0.0
 11
494.1964432781
 21
256.1583249325
 31
0.0
  0
TEXT
  5
151
330
14B
100
AcDbEntity
  8
0
  6
Continuous
 62
     7
100
AcDbText
 10
472.050987496
 20
256.9083249325
 30
0.0
 40
3.0
  1
7mm
  7
SEACAD_Solid_Edge_ISO
 11
472.050987496
 21
259.9083249325
 31
0.0
100
AcDbText
 73
     3
  0
TEXT
  5
152
330
14B
100
AcDbEntity
  8
0
  6
Continuous
 62
     7
100
AcDbText
 10
479.5100784051
 20
256.9083249325
 30
0.0
 40
3.0
  1
(
  7
SEACAD_Solid_Edge_ISO
 11
479.5100784051
 21
259.9083249325
 31
0.0
100
AcDbText
 73
     3
  0
TEXT
  5
153
330
14B
100
AcDbEntity
  8
0
  6
Continuous
 62
     7
100
AcDbText
 10
481.7600784051
 20
256.9083249325
 30
0.0
 40
3.0
  1
0.276"
  7
SEACAD_Solid_Edge_ISO
 11
481.7600784051
 21
259.9083249325
 31
0.0
100
AcDbText
 73
     3
  0
TEXT
  5
154
330
14B
100
AcDbEntity
  8
0
  6
Continuous
 62
     7
100
AcDbText
 10
492.3964420414
 20
256.9083249325
 30
0.0
 40
3.0
  1
)
  7
SEACAD_Solid_Edge_ISO
 11
492.3964420414
 21
259.9083249325
 31
0.0
100
AcDbText
 73
     3
  0
ENDBLK
  5
156
330
14B
100
AcDbEntity
  8
0
100
AcDbBlockEnd
  0
BLOCK
  5
162
330
158
100
AcDbEntity
  8
0
100
AcDbBlockBegin
  2
DMBLK157
 70
     0
 10
0.0
 20
0.0
 30
0.0
  3
DMBLK157
  1

  0
HATCH
  5
159
330
158
100
AcDbEntity
  8
0
  6
Continuous
 62
     7
100
AcDbHatch
 10
0.0
 20
0.0
 30
0.0
210
0.0
220
0.0
230
1.0
  2
SOLID
 70
     1
 71
     0
 91
        1
 92
        1
 93
        3
 72
     1
 10
462.8711826351849
 20
248.1583246301267
 11
462.8711826351849
 21
249.1583246388191
 72
     1
 10
462.8711826351849
 20
249.1583246388191
 11
459.8711826091078
 21
248.6583246344729
 72
     1
 10
459.8711826091078
 20
248.6583246344729
 11
462.8711826351849
 21
248.1583246301267
 97
        0
 75
     0
 76
     1
 98
        0
  0
HATCH
  5
15A
330
158
100
AcDbEntity
  8
0
  6
Continuous
 62
     7
100
AcDbHatch
 10
0.0
 20
0.0
 30
0.0
210
0.0
220
0.0
230
1.0
  2
SOLID
 70
     1
 71
     0
 91
        1
 92
        1
 93
        3
 72
     1
 10
518.8711815697519
 20
248.1583246301267
 11
521.871181595829
 21
248.6583246344729
 72
     1
 10
521.871181595829
 20
248.6583246344729
 11
518.8711815697519
 21
249.1583246388191
 72
     1
 10
518.8711815697519
 20
249.1583246388191
 11
518.8711815697519
 21
248.1583246301267
 97
        0
 75
     0
 76
     1
 98
        0
  0
LINE
  5
15B
330
158
100
AcDbEntity
  8
0
  6
Continuous
 62
     7
100
AcDbLine
 10
459.8711826091
 20
263.8802594001
 30
0.0
 11
459.8711826091
 21
247.1583246214
 31
0.0
  0
LINE
  5
15C
330
158
100
AcDbEntity
  8
0
  6
Continuous
 62
     7
100
AcDbLine
 10
521.8711826091
 20
324.8802594001
 30
0.0
 11
521.8711826091
 21
247.1583246214
 31
0.0
  0
LINE
  5
15D
330
158
100
AcDbEntity
  8
0
  6
Continuous
 62
     7
100
AcDbLine
 10
459.8711826091
 20
248.6583246345
 30
0.0
 11
521.8711815958
 21
248.6583246345
 31
0.0
  0
TEXT
  5
15E
330
158
100
AcDbEntity
  8
0
  6
Continuous
 62
     7
100
AcDbText
 10
479.8120911934
 20
249.4083246345
 30
0.0
 40
3.0
  1
62mm
  7
SEACAD_Solid_Edge_ISO
 11
479.8120911934
 21
252.4083246345
 31
0.0
100
AcDbText
 73
     3
  0
TEXT
  5
15F
330
158
100
AcDbEntity
  8
0
  6
Continuous
 62
     7
100
AcDbText
 10
489.0439093752
 20
249.4083246345
 30
0.0
 40
3.0
  1
(
  7
SEACAD_Solid_Edge_ISO
 11
489.0439093752
 21
252.4083246345
 31
0.0
100
AcDbText
 73
     3
  0
TEXT
  5
160
330
158
100
AcDbEntity
  8
0
  6
Continuous
 62
     7
100
AcDbText
 10
491.2939093752
 20
249.4083246345
 30
0.0
 40
3.0
  1
2.441"
  7
SEACAD_Solid_Edge_ISO
 11
491.2939093752
 21
252.4083246345
 31
0.0
100
AcDbText
 73
     3
  0
TEXT
  5
161
330
158
100
AcDbEntity
  8
0
  6
Continuous
 62
     7
100
AcDbText
 10
501.1802730116
 20
249.4083246345
 30
0.0
 40
3.0
  1
)
  7
SEACAD_Solid_Edge_ISO
 11
501.1802730116
 21
252.4083246345
 31
0.0
100
AcDbText
 73
     3
  0
ENDBLK
  5
163
330
158
100
AcDbEntity
  8
0
100
AcDbBlockEnd
  0
BLOCK
  5
16F
330
165
100
AcDbEntity
  8
0
100
AcDbBlockBegin
  2
DMBLK158
 70
     0
 10
0.0
 20
0.0
 30
0.0
  3
DMBLK158
  1

  0
HATCH
  5
166
330
165
100
AcDbEntity
  8
0
  6
Continuous
 62
     7
100
AcDbHatch
 10
0.0
 20
0.0
 30
0.0
210
0.0
220
0.0
230
1.0
  2
SOLID
 70
     1
 71
     0
 91
        1
 92
        1
 93
        3
 72
     1
 10
462.8711826351849
 20
240.6583243321035
 11
462.8711826351849
 21
241.6583243407958
 72
     1
 10
462.8711826351849
 20
241.6583243407958
 11
459.8711826091078
 21
241.1583243364497
 72
     1
 10
459.8711826091078
 20
241.1583243364497
 11
462.8711826351849
 21
240.6583243321035
 97
        0
 75
     0
 76
     1
 98
        0
  0
HATCH
  5
167
330
165
100
AcDbEntity
  8
0
  6
Continuous
 62
     7
100
AcDbHatch
 10
0.0
 20
0.0
 30
0.0
210
0.0
220
0.0
230
1.0
  2
SOLID
 70
     1
 71
     0
 91
        1
 92
        1
 93
        3
 72
     1
 10
676.871181390938
 20
240.6583243321035
 11
679.871181417015
 21
241.1583243364497
 72
     1
 10
679.871181417015
 20
241.1583243364497
 11
676.871181390938
 21
241.6583243407958
 72
     1
 10
676.871181390938
 20
241.6583243407958
 11
676.871181390938
 21
240.6583243321035
 97
        0
 75
     0
 76
     1
 98
        0
  0
LINE
  5
168
330
165
100
AcDbEntity
  8
0
  6
Continuous
 62
     7
100
AcDbLine
 10
459.8711826091
 20
263.8802594001
 30
0.0
 11
459.8711826091
 21
239.6583243234
 31
0.0
  0
LINE
  5
169
330
165
100
AcDbEntity
  8
0
  6
Continuous
 62
     7
100
AcDbLine
 10
679.8711826091
 20
387.3802594002
 30
0.0
 11
679.8711826091
 21
239.6583243234
 31
0.0
  0
LINE
  5
16A
330
165
100
AcDbEntity
  8
0
  6
Continuous
 62
     7
100
AcDbLine
 10
459.8711826091
 20
241.1583243364
 30
0.0
 11
679.871181417
 21
241.1583243364
 31
0.0
  0
TEXT
  5
16B
330
165
100
AcDbEntity
  8
0
  6
Continuous
 62
     7
100
AcDbText
 10
557.8234547403
 20
241.9083243364
 30
0.0
 40
3.0
  1
220mm
  7
SEACAD_Solid_Edge_ISO
 11
557.8234547403
 21
244.9083243364
 31
0.0
100
AcDbText
 73
     3
  0
TEXT
  5
16C
330
165
100
AcDbEntity
  8
0
  6
Continuous
 62
     7
100
AcDbText
 10
568.8280001949
 20
241.9083243364
 30
0.0
 40
3.0
  1
(
  7
SEACAD_Solid_Edge_ISO
 11
568.8280001949
 21
244.9083243364
 31
0.0
100
AcDbText
 73
     3
  0
TEXT
  5
16D
330
165
100
AcDbEntity
  8
0
  6
Continuous
 62
     7
100
AcDbText
 10
571.0780001949
 20
241.9083243364
 30
0.0
 40
3.0
  1
8.661"
  7
SEACAD_Solid_Edge_ISO
 11
571.0780001949
 21
244.9083243364
 31
0.0
100
AcDbText
 73
     3
  0
TEXT
  5
16E
330
165
100
AcDbEntity
  8
0
  6
Continuous
 62
     7
100
AcDbText
 10
581.1689092858
 20
241.9083243364
 30
0.0
 40
3.0
  1
)
  7
SEACAD_Solid_Edge_ISO
 11
581.1689092858
 21
244.9083243364
 31
0.0
100
AcDbText
 73
     3
  0
ENDBLK
  5
170
330
165
100
AcDbEntity
  8
0
100
AcDbBlockEnd
  0
BLOCK
  5
17C
330
172
100
AcDbEntity
  8
0
100
AcDbBlockBegin
  2
DMBLK159
 70
     0
 10
0.0
 20
0.0
 30
0.0
  3
DMBLK159
  1

  0
HATCH
  5
173
330
172
100
AcDbEntity
  8
0
  6
Continuous
 62
     7
100
AcDbHatch
 10
0.0
 20
0.0
 30
0.0
210
0.0
220
0.0
230
1.0
  2
SOLID
 70
     1
 71
     0
 91
        1
 92
        1
 93
        3
 72
     1
 10
781.6926307678962
 20
255.6583249281499
 11
781.6926307678962
 21
256.6583249368423
 72
     1
 10
781.6926307678962
 20
256.6583249368423
 11
778.6926307418191
 21
256.1583249324961
 72
     1
 10
778.6926307418191
 20
256.1583249324962
 11
781.6926307678962
 21
255.65832492815
 97
        0
 75
     0
 76
     1
 98
        0
  0
HATCH
  5
174
330
172
100
AcDbEntity
  8
0
  6
Continuous
 62
     7
100
AcDbHatch
 10
0.0
 20
0.0
 30
0.0
210
0.0
220
0.0
230
1.0
  2
SOLID
 70
     1
 71
     0
 91
        1
 92
        1
 93
        3
 72
     1
 10
771.6926307157421
 20
255.6583249281499
 11
774.6926307418191
 21
256.1583249324961
 72
     1
 10
774.6926307418191
 20
256.1583249324962
 11
771.6926307157421
 21
256.6583249368423
 72
     1
 10
771.6926307157421
 20
256.6583249368423
 11
771.6926307157421
 21
255.6583249281499
 97
        0
 75
     0
 76
     1
 98
        0
  0
LINE
  5
175
330
172
100
AcDbEntity
  8
0
  6
Continuous
 62
     7
100
AcDbLine
 10
778.6926307418
 20
263.8802594001
 30
0.0
 11
778.6926307418
 21
254.6583249195
 31
0.0
  0
LINE
  5
176
330
172
100
AcDbEntity
  8
0
  6
Continuous
 62
     7
100
AcDbLine
 10
774.6926307418
 20
320.8802594001
 30
0.0
 11
774.6926307418
 21
254.6583249195
 31
0.0
  0
LINE
  5
177
330
172
100
AcDbEntity
  8
0
  6
Continuous
 62
     7
100
AcDbLine
 10
805.7466909923
 20
256.1583249325
 30
0.0
 11
768.6926309653
 21
256.1583249325
 31
0.0
  0
TEXT
  5
178
330
172
100
AcDbEntity
  8
0
  6
Continuous
 62
     7
100
AcDbText
 10
784.4876009815
 20
256.9083249325
 30
0.0
 40
3.0
  1
4mm
  7
SEACAD_Solid_Edge_ISO
 11
784.4876009815
 21
259.9083249325
 31
0.0
100
AcDbText
 73
     3
  0
TEXT
  5
179
330
172
100
AcDbEntity
  8
0
  6
Continuous
 62
     7
100
AcDbText
 10
791.8103282542
 20
256.9083249325
 30
0.0
 40
3.0
  1
(
  7
SEACAD_Solid_Edge_ISO
 11
791.8103282542
 21
259.9083249325
 31
0.0
100
AcDbText
 73
     3
  0
TEXT
  5
17A
330
172
100
AcDbEntity
  8
0
  6
Continuous
 62
     7
100
AcDbText
 10
794.0603282542
 20
256.9083249325
 30
0.0
 40
3.0
  1
0.157"
  7
SEACAD_Solid_Edge_ISO
 11
794.0603282542
 21
259.9083249325
 31
0.0
100
AcDbText
 73
     3
  0
TEXT
  5
17B
330
172
100
AcDbEntity
  8
0
  6
Continuous
 62
     7
100
AcDbText
 10
803.9466918906
 20
256.9083249325
 30
0.0
 40
3.0
  1
)
  7
SEACAD_Solid_Edge_ISO
 11
803.9466918906
 21
259.9083249325
 31
0.0
100
AcDbText
 73
     3
  0
ENDBLK
  5
17D
330
172
100
AcDbEntity
  8
0
100
AcDbBlockEnd
  0
BLOCK
  5
189
330
17F
100
AcDbEntity
  8
0
100
AcDbBlockBegin
  2
DMBLK160
 70
     0
 10
0.0
 20
0.0
 30
0.0
  3
DMBLK160
  1

  0
HATCH
  5
180
330
17F
100
AcDbEntity
  8
0
  6
Continuous
 62
     7
100
AcDbHatch
 10
0.0
 20
0.0
 30
0.0
210
0.0
220
0.0
230
1.0
  2
SOLID
 70
     1
 71
     0
 91
        1
 92
        1
 93
        3
 72
     1
 10
785.9762882820759
 20
343.3802594260209
 11
784.9762882733836
 21
343.3802594260209
 72
     1
 10
784.9762882733836
 20
343.3802594260209
 11
785.4762882777297
 21
340.3802593999439
 72
     1
 10
785.4762882777297
 20
340.3802593999439
 11
785.9762882820759
 21
343.3802594260209
 97
        0
 75
     0
 76
     1
 98
        0
  0
HATCH
  5
181
330
17F
100
AcDbEntity
  8
0
  6
Continuous
 62
     7
100
AcDbHatch
 10
0.0
 20
0.0
 30
0.0
210
0.0
220
0.0
230
1.0
  2
SOLID
 70
     1
 71
     0
 91
        1
 92
        1
 93
        3
 72
     1
 10
785.9762882820759
 20
384.3802577645415
 11
785.4762882777297
 21
387.3802577906185
 72
     1
 10
785.4762882777297
 20
387.3802577906185
 11
784.9762882733836
 21
384.3802577645415
 72
     1
 10
784.9762882733836
 20
384.3802577645415
 11
785.9762882820759
 21
384.3802577645415
 97
        0
 75
     0
 76
     1
 98
        0
  0
LINE
  5
182
330
17F
100
AcDbEntity
  8
0
  6
Continuous
 62
     7
100
AcDbLine
 10
762.6926307418
 20
340.3802593999
 30
0.0
 11
786.9762882908
 21
340.3802593999
 31
0.0
  0
LINE
  5
183
330
17F
100
AcDbEntity
  8
0
  6
Continuous
 62
     7
100
AcDbLine
 10
762.6926307418
 20
387.3802594002
 30
0.0
 11
786.9762882908
 21
387.3802594002
 31
0.0
  0
LINE
  5
184
330
17F
100
AcDbEntity
  8
0
  6
Continuous
 62
     7
100
AcDbLine
 10
785.4762882777
 20
340.3802593999
 30
0.0
 11
785.4762882777
 21
387.3802577906
 31
0.0
  0
TEXT
  5
185
330
17F
100
AcDbEntity
  8
0
  6
Continuous
 62
     7
100
AcDbText
 10
784.7262882777
 20
352.8211676862
 30
0.0
 40
3.0
  1
47mm
 50
90.0
  7
SEACAD_Solid_Edge_ISO
 11
781.7262882777
 21
352.8211676862
 31
0.0
100
AcDbText
 73
     3
  0
TEXT
  5
186
330
17F
100
AcDbEntity
  8
0
  6
Continuous
 62
     7
100
AcDbText
 10
784.7262882777
 20
362.052985868
 30
0.0
 40
3.0
  1
(
 50
90.0
  7
SEACAD_Solid_Edge_ISO
 11
781.7262882777
 21
362.052985868
 31
0.0
100
AcDbText
 73
     3
  0
TEXT
  5
187
330
17F
100
AcDbEntity
  8
0
  6
Continuous
 62
     7
100
AcDbText
 10
784.7262882777
 20
364.302985868
 30
0.0
 40
3.0
  1
1.850"
 50
90.0
  7
SEACAD_Solid_Edge_ISO
 11
781.7262882777
 21
364.302985868
 31
0.0
100
AcDbText
 73
     3
  0
TEXT
  5
188
330
17F
100
AcDbEntity
  8
0
  6
Continuous
 62
     7
100
AcDbText
 10
784.7262882777
 20
374.1893495044
 30
0.0
 40
3.0
  1
)
 50
90.0
  7
SEACAD_Solid_Edge_ISO
 11
781.7262882777
 21
374.1893495044
 31
0.0
100
AcDbText
 73
     3
  0
ENDBLK
  5
18A
330
17F
100
AcDbEntity
  8
0
100
AcDbBlockEnd
  0
BLOCK
  5
196
330
18C
100
AcDbEntity
  8
0
100
AcDbBlockBegin
  2
DMBLK161
 70
     0
 10
0.0
 20
0.0
 30
0.0
  3
DMBLK161
  1

  0
HATCH
  5
18D
330
18C
100
AcDbEntity
  8
0
  6
Continuous
 62
     7
100
AcDbHatch
 10
0.0
 20
0.0
 30
0.0
210
0.0
220
0.0
230
1.0
  2
SOLID
 70
     1
 71
     0
 91
        1
 92
        1
 93
        3
 72
     1
 10
793.4762885800991
 20
399.8802593739732
 11
792.976288575753
 21
402.8802594000502
 72
     1
 10
792.976288575753
 20
402.8802594000502
 11
792.4762885714068
 21
399.8802593739732
 72
     1
 10
792.4762885714068
 20
399.8802593739732
 11
793.4762885800991
 21
399.8802593739732
 97
        0
 75
     0
 76
     1
 98
        0
  0
HATCH
  5
18E
330
18C
100
AcDbEntity
  8
0
  6
Continuous
 62
     7
100
AcDbHatch
 10
0.0
 20
0.0
 30
0.0
210
0.0
220
0.0
230
1.0
  2
SOLID
 70
     1
 71
     0
 91
        1
 92
        1
 93
        3
 72
     1
 10
793.4762885800991
 20
327.8802578168019
 11
792.4762885714068
 21
327.8802578168019
 72
     1
 10
792.4762885714068
 20
327.8802578168019
 11
792.976288575753
 21
324.8802577907248
 72
     1
 10
792.976288575753
 20
324.8802577907248
 11
793.4762885800991
 21
327.8802578168019
 97
        0
 75
     0
 76
     1
 98
        0
  0
LINE
  5
18F
330
18C
100
AcDbEntity
  8
0
  6
Continuous
 62
     7
100
AcDbLine
 10
762.6926307418
 20
402.8802594001
 30
0.0
 11
794.4762885888
 21
402.8802594001
 31
0.0
  0
LINE
  5
190
330
18C
100
AcDbEntity
  8
0
  6
Continuous
 62
     7
100
AcDbLine
 10
762.6926307418
 20
324.8802594001
 30
0.0
 11
794.4762885888
 21
324.8802594001
 31
0.0
  0
LINE
  5
191
330
18C
100
AcDbEntity
  8
0
  6
Continuous
 62
     7
100
AcDbLine
 10
792.9762885758
 20
402.8802594001
 30
0.0
 11
792.9762885758
 21
324.8802577907
 31
0.0
  0
TEXT
  5
192
330
18C
100
AcDbEntity
  8
0
  6
Continuous
 62
     7
100
AcDbText
 10
792.2262885758
 20
352.8211676863
 30
0.0
 40
3.0
  1
78mm
 50
90.0
  7
SEACAD_Solid_Edge_ISO
 11
789.2262885758
 21
352.8211676863
 31
0.0
100
AcDbText
 73
     3
  0
TEXT
  5
193
330
18C
100
AcDbEntity
  8
0
  6
Continuous
 62
     7
100
AcDbText
 10
792.2262885758
 20
362.1893495045
 30
0.0
 40
3.0
  1
(
 50
90.0
  7
SEACAD_Solid_Edge_ISO
 11
789.2262885758
 21
362.1893495045
 31
0.0
100
AcDbText
 73
     3
  0
TEXT
  5
194
330
18C
100
AcDbEntity
  8
0
  6
Continuous
 62
     7
100
AcDbText
 10
792.2262885758
 20
364.4393495045
 30
0.0
 40
3.0
  1
3.071"
 50
90.0
  7
SEACAD_Solid_Edge_ISO
 11
789.2262885758
 21
364.4393495045
 31
0.0
100
AcDbText
 73
     3
  0
TEXT
  5
195
330
18C
100
AcDbEntity
  8
0
  6
Continuous
 62
     7
100
AcDbText
 10
792.2262885758
 20
374.1893495045
 30
0.0
 40
3.0
  1
)
 50
90.0
  7
SEACAD_Solid_Edge_ISO
 11
789.2262885758
 21
374.1893495045
 31
0.0
100
AcDbText
 73
     3
  0
ENDBLK
  5
197
330
18C
100
AcDbEntity
  8
0
100
AcDbBlockEnd
  0
BLOCK
  5
1A3
330
199
100
AcDbEntity
  8
0
100
AcDbBlockBegin
  2
DMBLK162
 70
     0
 10
0.0
 20
0.0
 30
0.0
  3
DMBLK162
  1

  0
HATCH
  5
19A
330
199
100
AcDbEntity
  8
0
  6
Continuous
 62
     7
100
AcDbHatch
 10
0.0
 20
0.0
 30
0.0
210
0.0
220
0.0
230
1.0
  2
SOLID
 70
     1
 71
     0
 91
        1
 92
        1
 93
        3
 72
     1
 10
800.9762870154772
 20
406.8802593739732
 11
800.476287011131
 21
409.8802594000502
 72
     1
 10
800.476287011131
 20
409.8802594000502
 11
799.9762870067849
 21
406.8802593739732
 72
     1
 10
799.9762870067849
 20
406.8802593739732
 11
800.9762870154772
 21
406.8802593739732
 97
        0
 75
     0
 76
     1
 98
        0
  0
HATCH
  5
19B
330
199
100
AcDbEntity
  8
0
  6
Continuous
 62
     7
100
AcDbHatch
 10
0.0
 20
0.0
 30
0.0
210
0.0
220
0.0
230
1.0
  2
SOLID
 70
     1
 71
     0
 91
        1
 92
        1
 93
        3
 72
     1
 10
800.9762870154772
 20
320.8802592473133
 11
799.9762870067849
 21
320.8802592473133
 72
     1
 10
799.9762870067849
 20
320.8802592473133
 11
800.476287011131
 21
317.8802592212363
 72
     1
 10
800.476287011131
 20
317.8802592212363
 11
800.9762870154772
 21
320.8802592473133
 97
        0
 75
     0
 76
     1
 98
        0
  0
LINE
  5
19C
330
199
100
AcDbEntity
  8
0
  6
Continuous
 62
     7
100
AcDbLine
 10
762.6926307418
 20
409.8802594001
 30
0.0
 11
801.9762870242
 21
409.8802594001
 31
0.0
  0
LINE
  5
19D
330
199
100
AcDbEntity
  8
0
  6
Continuous
 62
     7
100
AcDbLine
 10
762.6926307418
 20
317.8802594001
 30
0.0
 11
801.9762870242
 21
317.8802594001
 31
0.0
  0
LINE
  5
19E
330
199
100
AcDbEntity
  8
0
  6
Continuous
 62
     7
100
AcDbLine
 10
800.4762870111
 20
409.8802594001
 30
0.0
 11
800.4762870111
 21
317.8802592212
 31
0.0
  0
TEXT
  5
19F
330
199
100
AcDbEntity
  8
0
  6
Continuous
 62
     7
100
AcDbText
 10
799.7262870111
 20
352.5825320379
 30
0.0
 40
3.0
  1
92mm
 50
90.0
  7
SEACAD_Solid_Edge_ISO
 11
796.7262870111
 21
352.5825320379
 31
0.0
100
AcDbText
 73
     3
  0
TEXT
  5
1A0
330
199
100
AcDbEntity
  8
0
  6
Continuous
 62
     7
100
AcDbText
 10
799.7262870111
 20
361.8143502197
 30
0.0
 40
3.0
  1
(
 50
90.0
  7
SEACAD_Solid_Edge_ISO
 11
796.7262870111
 21
361.8143502197
 31
0.0
100
AcDbText
 73
     3
  0
TEXT
  5
1A1
330
199
100
AcDbEntity
  8
0
  6
Continuous
 62
     7
100
AcDbText
 10
799.7262870111
 20
364.0643502197
 30
0.0
 40
3.0
  1
3.622"
 50
90.0
  7
SEACAD_Solid_Edge_ISO
 11
796.7262870111
 21
364.0643502197
 31
0.0
100
AcDbText
 73
     3
  0
TEXT
  5
1A2
330
199
100
AcDbEntity
  8
0
  6
Continuous
 62
     7
100
AcDbText
 10
799.7262870111
 20
374.4279865834
 30
0.0
 40
3.0
  1
)
 50
90.0
  7
SEACAD_Solid_Edge_ISO
 11
796.7262870111
 21
374.4279865834
 31
0.0
100
AcDbText
 73
     3
  0
ENDBLK
  5
1A4
330
199
100
AcDbEntity
  8
0
100
AcDbBlockEnd
  0
BLOCK
  5
1B0
330
1A6
100
AcDbEntity
  8
0
100
AcDbBlockBegin
  2
DMBLK163
 70
     0
 10
0.0
 20
0.0
 30
0.0
  3
DMBLK163
  1

  0
HATCH
  5
1A7
330
1A6
100
AcDbEntity
  8
0
  6
Continuous
 62
     7
100
AcDbHatch
 10
0.0
 20
0.0
 30
0.0
210
0.0
220
0.0
230
1.0
  2
SOLID
 70
     1
 71
     0
 91
        1
 92
        1
 93
        3
 72
     1
 10
808.4762873135004
 20
415.8802593739733
 11
807.9762873091543
 21
418.8802594000504
 72
     1
 10
807.9762873091543
 20
418.8802594000504
 11
807.4762873048081
 21
415.8802593739733
 72
     1
 10
807.4762873048081
 20
415.8802593739733
 11
808.4762873135004
 21
415.8802593739733
 97
        0
 75
     0
 76
     1
 98
        0
  0
HATCH
  5
1A8
330
1A6
100
AcDbEntity
  8
0
  6
Continuous
 62
     7
100
AcDbHatch
 10
0.0
 20
0.0
 30
0.0
210
0.0
220
0.0
230
1.0
  2
SOLID
 70
     1
 71
     0
 91
        1
 92
        1
 93
        3
 72
     1
 10
808.4762873135004
 20
311.8802600221738
 11
807.4762873048081
 21
311.8802600221738
 72
     1
 10
807.4762873048081
 20
311.8802600221738
 11
807.9762873091543
 21
308.8802599960968
 72
     1
 10
807.9762873091543
 20
308.8802599960968
 11
808.4762873135004
 21
311.8802600221738
 97
        0
 75
     0
 76
     1
 98
        0
  0
LINE
  5
1A9
330
1A6
100
AcDbEntity
  8
0
  6
Continuous
 62
     7
100
AcDbLine
 10
762.6926307418
 20
418.8802594001
 30
0.0
 11
809.4762873222
 21
418.8802594001
 31
0.0
  0
LINE
  5
1AA
330
1A6
100
AcDbEntity
  8
0
  6
Continuous
 62
     7
100
AcDbLine
 10
762.6926307418
 20
308.8802594001
 30
0.0
 11
809.4762873222
 21
308.8802594001
 31
0.0
  0
LINE
  5
1AB
330
1A6
100
AcDbEntity
  8
0
  6
Continuous
 62
     7
100
AcDbLine
 10
807.9762873092
 20
418.8802594001
 30
0.0
 11
807.9762873092
 21
308.8802599961
 31
0.0
  0
TEXT
  5
1AC
330
1A6
100
AcDbEntity
  8
0
  6
Continuous
 62
     7
100
AcDbText
 10
807.2262873092
 20
352.7870778799
 30
0.0
 40
3.0
  1
110mm
 50
90.0
  7
SEACAD_Solid_Edge_ISO
 11
804.2262873092
 21
352.7870778799
 31
0.0
100
AcDbText
 73
     3
  0
TEXT
  5
1AD
330
1A6
100
AcDbEntity
  8
0
  6
Continuous
 62
     7
100
AcDbText
 10
807.2262873092
 20
362.5643506072
 30
0.0
 40
3.0
  1
(
 50
90.0
  7
SEACAD_Solid_Edge_ISO
 11
804.2262873092
 21
362.5643506072
 31
0.0
100
AcDbText
 73
     3
  0
TEXT
  5
1AE
330
1A6
100
AcDbEntity
  8
0
  6
Continuous
 62
     7
100
AcDbText
 10
807.2262873092
 20
364.8143506072
 30
0.0
 40
3.0
  1
4.331"
 50
90.0
  7
SEACAD_Solid_Edge_ISO
 11
804.2262873092
 21
364.8143506072
 31
0.0
100
AcDbText
 73
     3
  0
TEXT
  5
1AF
330
1A6
100
AcDbEntity
  8
0
  6
Continuous
 62
     7
100
AcDbText
 10
807.2262873092
 20
374.2234415163
 30
0.0
 40
3.0
  1
)
 50
90.0
  7
SEACAD_Solid_Edge_ISO
 11
804.2262873092
 21
374.2234415163
 31
0.0
100
AcDbText
 73
     3
  0
ENDBLK
  5
1B1
330
1A6
100
AcDbEntity
  8
0
100
AcDbBlockEnd
  0
BLOCK
  5
1BD
330
1B3
100
AcDbEntity
  8
0
100
AcDbBlockBegin
  2
DMBLK164
 70
     0
 10
0.0
 20
0.0
 30
0.0
  3
DMBLK164
  1

  0
HATCH
  5
1B4
330
1B3
100
AcDbEntity
  8
0
  6
Continuous
 62
     7
100
AcDbHatch
 10
0.0
 20
0.0
 30
0.0
210
0.0
220
0.0
230
1.0
  2
SOLID
 70
     1
 71
     0
 91
        1
 92
        1
 93
        3
 72
     1
 10
771.6926307157421
 20
470.3274954058881
 11
771.6926307157421
 21
469.3274953971957
 72
     1
 10
771.6926307157421
 20
469.3274953971957
 11
774.6926307418191
 21
469.8274954015419
 72
     1
 10
774.6926307418191
 20
469.8274954015419
 11
771.6926307157421
 21
470.3274954058881
 97
        0
 75
     0
 76
     1
 98
        0
  0
HATCH
  5
1B5
330
1B3
100
AcDbEntity
  8
0
  6
Continuous
 62
     7
100
AcDbHatch
 10
0.0
 20
0.0
 30
0.0
210
0.0
220
0.0
230
1.0
  2
SOLID
 70
     1
 71
     0
 91
        1
 92
        1
 93
        3
 72
     1
 10
765.692630663588
 20
470.3274954058881
 11
762.692630637511
 21
469.8274954015419
 72
     1
 10
762.692630637511
 20
469.8274954015419
 11
765.692630663588
 21
469.3274953971957
 72
     1
 10
765.692630663588
 20
469.3274953971957
 11
765.692630663588
 21
470.3274954058881
 97
        0
 75
     0
 76
     1
 98
        0
  0
LINE
  5
1B6
330
1B3
100
AcDbEntity
  8
0
  6
Continuous
 62
     7
100
AcDbLine
 10
774.6926307418
 20
406.8802594001
 30
0.0
 11
774.6926307418
 21
471.3274954146
 31
0.0
  0
LINE
  5
1B7
330
1B3
100
AcDbEntity
  8
0
  6
Continuous
 62
     7
100
AcDbLine
 10
762.6926307418
 20
409.8802594001
 30
0.0
 11
762.6926307418
 21
471.3274954146
 31
0.0
  0
LINE
  5
1B8
330
1B3
100
AcDbEntity
  8
0
  6
Continuous
 62
     7
100
AcDbLine
 10
801.8657568582
 20
469.8274954015
 30
0.0
 11
762.6926306375
 21
469.8274954015
 31
0.0
  0
TEXT
  5
1B9
330
1B3
100
AcDbEntity
  8
0
  6
Continuous
 62
     7
100
AcDbText
 10
778.6293928859
 20
470.5774954015
 30
0.0
 40
3.0
  1
12mm
  7
SEACAD_Solid_Edge_ISO
 11
778.6293928859
 21
473.5774954015
 31
0.0
100
AcDbText
 73
     3
  0
TEXT
  5
1BA
330
1B3
100
AcDbEntity
  8
0
  6
Continuous
 62
     7
100
AcDbText
 10
787.247574704
 20
470.5774954015
 30
0.0
 40
3.0
  1
(
  7
SEACAD_Solid_Edge_ISO
 11
787.247574704
 21
473.5774954015
 31
0.0
100
AcDbText
 73
     3
  0
TEXT
  5
1BB
330
1B3
100
AcDbEntity
  8
0
  6
Continuous
 62
     7
100
AcDbText
 10
789.497574704
 20
470.5774954015
 30
0.0
 40
3.0
  1
0.472"
  7
SEACAD_Solid_Edge_ISO
 11
789.497574704
 21
473.5774954015
 31
0.0
100
AcDbText
 73
     3
  0
TEXT
  5
1BC
330
1B3
100
AcDbEntity
  8
0
  6
Continuous
 62
     7
100
AcDbText
 10
800.0657565222
 20
470.5774954015
 30
0.0
 40
3.0
  1
)
  7
SEACAD_Solid_Edge_ISO
 11
800.0657565222
 21
473.5774954015
 31
0.0
100
AcDbText
 73
     3
  0
ENDBLK
  5
1BE
330
1B3
100
AcDbEntity
  8
0
100
AcDbBlockEnd
  0
BLOCK
  5
1CA
330
1C0
100
AcDbEntity
  8
0
100
AcDbBlockBegin
  2
DMBLK165
 70
     0
 10
0.0
 20
0.0
 30
0.0
  3
DMBLK165
  1

  0
HATCH
  5
1C1
330
1C0
100
AcDbEntity
  8
0
  6
Continuous
 62
     7
100
AcDbHatch
 10
0.0
 20
0.0
 30
0.0
210
0.0
220
0.0
230
1.0
  2
SOLID
 70
     1
 71
     0
 91
        1
 92
        1
 93
        3
 72
     1
 10
759.6926307157421
 20
470.3274967767948
 11
759.6926307157421
 21
469.3274967681024
 72
     1
 10
759.6926307157421
 20
469.3274967681024
 11
762.6926307418191
 21
469.8274967724486
 72
     1
 10
762.6926307418191
 20
469.8274967724486
 11
759.6926307157421
 21
470.3274967767948
 97
        0
 75
     0
 76
     1
 98
        0
  0
HATCH
  5
1C2
330
1C0
100
AcDbEntity
  8
0
  6
Continuous
 62
     7
100
AcDbHatch
 10
0.0
 20
0.0
 30
0.0
210
0.0
220
0.0
230
1.0
  2
SOLID
 70
     1
 71
     0
 91
        1
 92
        1
 93
        3
 72
     1
 10
753.6926307678962
 20
470.3274967767948
 11
750.6926307418191
 21
469.8274967724486
 72
     1
 10
750.6926307418191
 20
469.8274967724486
 11
753.6926307678962
 21
469.3274967681024
 72
     1
 10
753.6926307678962
 20
469.3274967681024
 11
753.6926307678962
 21
470.3274967767948
 97
        0
 75
     0
 76
     1
 98
        0
  0
LINE
  5
1C3
330
1C0
100
AcDbEntity
  8
0
  6
Continuous
 62
     7
100
AcDbLine
 10
762.6926307418
 20
409.8802594001
 30
0.0
 11
762.6926307418
 21
471.3274967855
 31
0.0
  0
LINE
  5
1C4
330
1C0
100
AcDbEntity
  8
0
  6
Continuous
 62
     7
100
AcDbLine
 10
750.6926307418
 20
406.8802594001
 30
0.0
 11
750.6926307418
 21
471.3274967855
 31
0.0
  0
LINE
  5
1C5
330
1C0
100
AcDbEntity
  8
0
  6
Continuous
 62
     7
100
AcDbLine
 10
762.6926307418
 20
469.8274967724
 30
0.0
 11
724.9395814576
 21
469.8274967724
 31
0.0
  0
TEXT
  5
1C6
330
1C0
100
AcDbEntity
  8
0
  6
Continuous
 62
     7
100
AcDbText
 10
725.9895810951
 20
470.5774967724
 30
0.0
 40
3.0
  1
12mm
  7
SEACAD_Solid_Edge_ISO
 11
725.9895810951
 21
473.5774967724
 31
0.0
100
AcDbText
 73
     3
  0
TEXT
  5
1C7
330
1C0
100
AcDbEntity
  8
0
  6
Continuous
 62
     7
100
AcDbText
 10
734.6077629133
 20
470.5774967724
 30
0.0
 40
3.0
  1
(
  7
SEACAD_Solid_Edge_ISO
 11
734.6077629133
 21
473.5774967724
 31
0.0
100
AcDbText
 73
     3
  0
TEXT
  5
1C8
330
1C0
100
AcDbEntity
  8
0
  6
Continuous
 62
     7
100
AcDbText
 10
736.8577629133
 20
470.5774967724
 30
0.0
 40
3.0
  1
0.472"
  7
SEACAD_Solid_Edge_ISO
 11
736.8577629133
 21
473.5774967724
 31
0.0
100
AcDbText
 73
     3
  0
TEXT
  5
1C9
330
1C0
100
AcDbEntity
  8
0
  6
Continuous
 62
     7
100
AcDbText
 10
747.4259447315
 20
470.5774967724
 30
0.0
 40
3.0
  1
)
  7
SEACAD_Solid_Edge_ISO
 11
747.4259447315
 21
473.5774967724
 31
0.0
100
AcDbText
 73
     3
  0
ENDBLK
  5
1CB
330
1C0
100
AcDbEntity
  8
0
100
AcDbBlockEnd
  0
BLOCK
  5
1D5
330
1CD
100
AcDbEntity
  8
0
100
AcDbBlockBegin
  2
DMBLK166
 70
     0
 10
0.0
 20
0.0
 30
0.0
  3
DMBLK166
  1

  0
LINE
  5
1CE
330
1CD
100
AcDbEntity
  8
0
  6
Continuous
 62
     7
100
AcDbLine
 10
755.4463127767
 20
345.551898459
 30
0.0
 11
765.5254431281
 21
387.041098842
 31
0.0
  0
HATCH
  5
1CF
330
1CD
100
AcDbEntity
  8
0
  6
Continuous
 62
     7
100
AcDbHatch
 10
0.0
 20
0.0
 30
0.0
210
0.0
220
0.0
230
1.0
  2
SOLID
 70
     1
 71
     0
 91
        1
 92
        1
 93
        3
 72
     1
 10
764.3313716967967
 20
384.2439227295842
 11
765.3031083169479
 21
384.0078550307312
 72
     1
 10
765.3031083169479
 20
384.0078550307312
 11
765.5254431034314
 21
387.0410987406114
 72
     1
 10
765.5254431034314
 20
387.0410987406114
 11
764.3313716967967
 21
384.2439227295842
 97
        0
 75
     0
 76
     1
 98
        0
  0
TEXT
  5
1D0
330
1CD
100
AcDbEntity
  8
0
  6
Continuous
 62
     7
100
AcDbText
 10
754.9653814353
 20
346.7492728208
 30
0.0
 40
3.0
  1
R
 50
76.3454318047
  7
SEACAD_Solid_Edge_ISO
 11
752.0501716002
 21
347.4574759112
 31
0.0
100
AcDbText
 73
     3
  0
TEXT
  5
1D1
330
1CD
100
AcDbEntity
  8
0
  6
Continuous
 62
     7
100
AcDbText
 10
755.8087869338
 20
350.2210227153
 30
0.0
 40
3.0
  1
12mm
 50
76.3454318047
  7
SEACAD_Solid_Edge_ISO
 11
752.8935770987
 21
350.9292258057
 31
0.0
100
AcDbText
 73
     3
  0
TEXT
  5
1D2
330
1CD
100
AcDbEntity
  8
0
  6
Continuous
 62
     7
100
AcDbText
 10
757.8432612663
 20
358.5956255144
 30
0.0
 40
3.0
  1
(
 50
76.3454318047
  7
SEACAD_Solid_Edge_ISO
 11
754.9280514312
 21
359.3038286048
 31
0.0
100
AcDbText
 73
     3
  0
TEXT
  5
1D3
330
1CD
100
AcDbEntity
  8
0
  6
Continuous
 62
     7
100
AcDbText
 10
758.3744135841
 20
360.7820328907
 30
0.0
 40
3.0
  1
0.472"
 50
76.3454318047
  7
SEACAD_Solid_Edge_ISO
 11
755.459203749
 21
361.4902359811
 31
0.0
100
AcDbText
 73
     3
  0
TEXT
  5
1D4
330
1CD
100
AcDbEntity
  8
0
  6
Continuous
 62
     7
100
AcDbText
 10
760.8692199253
 20
371.0515220826
 30
0.0
 40
3.0
  1
)
 50
76.3454318047
  7
SEACAD_Solid_Edge_ISO
 11
757.9540100902
 21
371.759725173
 31
0.0
100
AcDbText
 73
     3
  0
ENDBLK
  5
1D6
330
1CD
100
AcDbEntity
  8
0
100
AcDbBlockEnd
  0
BLOCK
  5
1F5
330
1D7
100
AcDbEntity
  8
0
100
AcDbBlockBegin
  2
SE3
 70
     0
 10
0.0
 20
0.0
 30
0.0
  3
SE3
  1

  0
LINE
  5
1D9
330
1D7
100
AcDbEntity
  8
TELAIO_AMERICANO
  6
Continuous
 62
     7
100
AcDbLine
 10
241.2849572259
 20
418.3885173047
 30
0.0
 11
214.2849572259
 21
418.3885173047
 31
0.0
  0
LINE
  5
1DA
330
1D7
100
AcDbEntity
  8
TELAIO_AMERICANO
  6
Continuous
 62
     7
100
AcDbLine
 10
251.2849572259
 20
263.8802594001
 30
0.0
 11
251.2849572259
 21
463.8802594001
 31
0.0
  0
LINE
  5
1DB
330
1D7
100
AcDbEntity
  8
TELAIO_AMERICANO
  6
Continuous
 62
     7
100
AcDbLine
 10
251.1509826297
 20
263.8802594001
 30
0.0
 11
250.1302566876
 21
263.8802594001
 31
0.0
  0
LINE
  5
1DC
330
1D7
100
AcDbEntity
  8
TELAIO_AMERICANO
  6
Continuous
 62
     7
100
AcDbLine
 10
251.2849572259
 20
263.8802594001
 30
0.0
 11
251.1509826297
 21
263.8802594001
 31
0.0
  0
LINE
  5
1DD
330
1D7
100
AcDbEntity
  8
TELAIO_AMERICANO
  6
Continuous
 62
     7
100
AcDbLine
 10
241.4189318222
 20
263.8802594001
 30
0.0
 11
241.2849572259
 21
263.8802594001
 31
0.0
  0
LINE
  5
1DE
330
1D7
100
AcDbEntity
  8
TELAIO_AMERICANO
  6
Continuous
 62
     7
100
AcDbLine
 10
242.4396577643
 20
263.8802594001
 30
0.0
 11
241.4189318222
 21
263.8802594001
 31
0.0
  0
LINE
  5
1DF
330
1D7
100
AcDbEntity
  8
TELAIO_AMERICANO
  6
Continuous
 62
     7
100
AcDbLine
 10
243.3056831681
 20
263.8802594001
 30
0.0
 11
242.4396577643
 21
263.8802594001
 31
0.0
  0
LINE
  5
1E0
330
1D7
100
AcDbEntity
  8
TELAIO_AMERICANO
  6
Continuous
 62
     7
100
AcDbLine
 10
249.2642312838
 20
263.8802594001
 30
0.0
 11
243.3056831681
 21
263.8802594001
 31
0.0
  0
LINE
  5
1E1
330
1D7
100
AcDbEntity
  8
TELAIO_AMERICANO
  6
Continuous
 62
     7
100
AcDbLine
 10
250.1302566876
 20
263.8802594001
 30
0.0
 11
249.2642312838
 21
263.8802594001
 31
0.0
  0
LINE
  5
1E2
330
1D7
100
AcDbEntity
  8
TELAIO_AMERICANO
  6
Continuous
 62
     7
100
AcDbLine
 10
251.1509826297
 20
463.8802594001
 30
0.0
 11
250.1302566876
 21
463.8802594001
 31
0.0
  0
LINE
  5
1E3
330
1D7
100
AcDbEntity
  8
TELAIO_AMERICANO
  6
Continuous
 62
     7
100
AcDbLine
 10
251.2849572259
 20
463.8802594001
 30
0.0
 11
251.1509826297
 21
463.8802594001
 31
0.0
  0
LINE
  5
1E4
330
1D7
100
AcDbEntity
  8
TELAIO_AMERICANO
  6
Continuous
 62
     7
100
AcDbLine
 10
241.4189318222
 20
463.8802594001
 30
0.0
 11
241.2849572259
 21
463.8802594001
 31
0.0
  0
LINE
  5
1E5
330
1D7
100
AcDbEntity
  8
TELAIO_AMERICANO
  6
Continuous
 62
     7
100
AcDbLine
 10
242.4396577643
 20
463.8802594001
 30
0.0
 11
241.4189318222
 21
463.8802594001
 31
0.0
  0
LINE
  5
1E6
330
1D7
100
AcDbEntity
  8
TELAIO_AMERICANO
  6
Continuous
 62
     7
100
AcDbLine
 10
243.3056831681
 20
463.8802594001
 30
0.0
 11
242.4396577643
 21
463.8802594001
 31
0.0
  0
LINE
  5
1E7
330
1D7
100
AcDbEntity
  8
TELAIO_AMERICANO
  6
Continuous
 62
     7
100
AcDbLine
 10
249.2642312838
 20
463.8802594001
 30
0.0
 11
243.3056831681
 21
463.8802594001
 31
0.0
  0
LINE
  5
1E8
330
1D7
100
AcDbEntity
  8
TELAIO_AMERICANO
  6
Continuous
 62
     7
100
AcDbLine
 10
250.1302566876
 20
463.8802594001
 30
0.0
 11
249.2642312838
 21
463.8802594001
 31
0.0
  0
LINE
  5
1E9
330
1D7
100
AcDbEntity
  8
TELAIO_AMERICANO
  6
Continuous
 62
     7
100
AcDbLine
 10
222.2349572259
 20
320.8802594001
 30
0.0
 11
222.2349572259
 21
406.8802594001
 31
0.0
  0
LINE
  5
1EA
330
1D7
100
AcDbEntity
  8
TELAIO_AMERICANO
  6
Continuous
 62
     7
100
AcDbLine
 10
222.2349572259
 20
309.3720014954
 30
0.0
 11
222.2349572259
 21
320.8802594001
 31
0.0
  0
LINE
  5
1EB
330
1D7
100
AcDbEntity
  8
TELAIO_AMERICANO
  6
Continuous
 62
     7
100
AcDbLine
 10
222.2349572259
 20
406.8802594001
 30
0.0
 11
222.2349572259
 21
418.3885173047
 31
0.0
  0
LINE
  5
1EC
330
1D7
100
AcDbEntity
  8
TELAIO_AMERICANO
  6
Continuous
 62
     7
100
AcDbLine
 10
241.2849572259
 20
406.8802594001
 30
0.0
 11
241.2849572259
 21
320.8802594001
 31
0.0
  0
LINE
  5
1ED
330
1D7
100
AcDbEntity
  8
TELAIO_AMERICANO
  6
Continuous
 62
     7
100
AcDbLine
 10
241.2849572259
 20
418.3885173047
 30
0.0
 11
241.2849572259
 21
406.8802594001
 31
0.0
  0
LINE
  5
1EE
330
1D7
100
AcDbEntity
  8
TELAIO_AMERICANO
  6
Continuous
 62
     7
100
AcDbLine
 10
241.2849572259
 20
320.8802594001
 30
0.0
 11
241.2849572259
 21
309.3720014954
 31
0.0
  0
LINE
  5
1EF
330
1D7
100
AcDbEntity
  8
TELAIO_AMERICANO
  6
Continuous
 62
     7
100
AcDbLine
 10
205.2934117115
 20
263.8802594001
 30
0.0
 11
241.2849572259
 21
263.8802594001
 31
0.0
  0
LINE
  5
1F0
330
1D7
100
AcDbEntity
  8
TELAIO_AMERICANO
  6
Continuous
 62
     7
100
AcDbLine
 10
241.2849572259
 20
263.8802594001
 30
0.0
 11
241.2849572259
 21
309.3720014954
 31
0.0
  0
LINE
  5
1F1
330
1D7
100
AcDbEntity
  8
TELAIO_AMERICANO
  6
Continuous
 62
     7
100
AcDbLine
 10
241.2849572259
 20
463.8802594001
 30
0.0
 11
205.2934117115
 21
463.8802594001
 31
0.0
  0
LINE
  5
1F2
330
1D7
100
AcDbEntity
  8
TELAIO_AMERICANO
  6
Continuous
 62
     7
100
AcDbLine
 10
214.2849572259
 20
309.3720014954
 30
0.0
 11
241.2849572259
 21
309.3720014954
 31
0.0
  0
LINE
  5
1F3
330
1D7
100
AcDbEntity
  8
TELAIO_AMERICANO
  6
Continuous
 62
     7
100
AcDbLine
 10
241.2849572259
 20
418.3885173047
 30
0.0
 11
241.2849572259
 21
463.8802594001
 31
0.0
  0
LINE
  5
1F4
330
1D7
100
AcDbEntity
  8
TELAIO_AMERICANO
  6
Continuous
 62
     7
100
AcDbLine
 10
214.2849572259
 20
309.3720014954
 30
0.0
 11
214.2849572259
 21
418.3885173047
 31
0.0
  0
ENDBLK
  5
1F6
330
1D7
100
AcDbEntity
  8
0
100
AcDbBlockEnd
  0
BLOCK
  5
202
330
1F8
100
AcDbEntity
  8
0
100
AcDbBlockBegin
  2
DMBLK167
 70
     0
 10
0.0
 20
0.0
 30
0.0
  3
DMBLK167
  1

  0
HATCH
  5
1F9
330
1F8
100
AcDbEntity
  8
0
  6
Continuous
 62
     7
100
AcDbHatch
 10
0.0
 20
0.0
 30
0.0
210
0.0
220
0.0
230
1.0
  2
SOLID
 70
     1
 71
     0
 91
        1
 92
        1
 93
        3
 72
     1
 10
74.97584796046544
 20
246.6583215604876
 11
77.97584798654248
 21
247.1583215648338
 72
     1
 10
77.97584798654248
 20
247.1583215648338
 11
74.97584796046544
 21
247.6583215691799
 72
     1
 10
74.97584796046544
 20
247.6583215691799
 11
74.97584796046544
 21
246.6583215604876
 97
        0
 75
     0
 76
     1
 98
        0
  0
HATCH
  5
1FA
330
1F8
100
AcDbEntity
  8
0
  6
Continuous
 62
     7
100
AcDbHatch
 10
0.0
 20
0.0
 30
0.0
210
0.0
220
0.0
230
1.0
  2
SOLID
 70
     1
 71
     0
 91
        1
 92
        1
 93
        3
 72
     1
 10
104.9758480126195
 20
246.6583215604876
 11
104.9758480126195
 21
247.6583215691799
 72
     1
 10
104.9758480126195
 20
247.6583215691799
 11
101.9758479865425
 21
247.1583215648338
 72
     1
 10
101.9758479865425
 20
247.1583215648338
 11
104.9758480126195
 21
246.6583215604876
 97
        0
 75
     0
 76
     1
 98
        0
  0
LINE
  5
1FB
330
1F8
100
AcDbEntity
  8
0
  6
Continuous
 62
     7
100
AcDbLine
 10
77.9758479865
 20
320.8802594001
 30
0.0
 11
77.9758479865
 21
245.6583215518
 31
0.0
  0
LINE
  5
1FC
330
1F8
100
AcDbEntity
  8
0
  6
Continuous
 62
     7
100
AcDbLine
 10
101.9758479865
 20
320.8802594001
 30
0.0
 11
101.9758479865
 21
245.6583215518
 31
0.0
  0
LINE
  5
1FD
330
1F8
100
AcDbEntity
  8
0
  6
Continuous
 62
     7
100
AcDbLine
 10
50.3359616222
 20
247.1583215648
 30
0.0
 11
107.975847316
 21
247.1583215648
 31
0.0
  0
TEXT
  5
1FE
330
1F8
100
AcDbEntity
  8
0
  6
Continuous
 62
     7
100
AcDbText
 10
51.3859604689
 20
247.9083215648
 30
0.0
 40
3.0
  1
24mm
  7
SEACAD_Solid_Edge_ISO
 11
51.3859604689
 21
250.9083215648
 31
0.0
100
AcDbText
 73
     3
  0
TEXT
  5
1FF
330
1F8
100
AcDbEntity
  8
0
  6
Continuous
 62
     7
100
AcDbText
 10
60.5495968326
 20
247.9083215648
 30
0.0
 40
3.0
  1
(
  7
SEACAD_Solid_Edge_ISO
 11
60.5495968326
 21
250.9083215648
 31
0.0
100
AcDbText
 73
     3
  0
TEXT
  5
200
330
1F8
100
AcDbEntity
  8
0
  6
Continuous
 62
     7
100
AcDbText
 10
62.7995968326
 20
247.9083215648
 30
0.0
 40
3.0
  1
0.945"
  7
SEACAD_Solid_Edge_ISO
 11
62.7995968326
 21
250.9083215648
 31
0.0
100
AcDbText
 73
     3
  0
TEXT
  5
201
330
1F8
100
AcDbEntity
  8
0
  6
Continuous
 62
     7
100
AcDbText
 10
73.1632331962
 20
247.9083215648
 30
0.0
 40
3.0
  1
)
  7
SEACAD_Solid_Edge_ISO
 11
73.1632331962
 21
250.9083215648
 31
0.0
100
AcDbText
 73
     3
  0
ENDBLK
  5
203
330
1F8
100
AcDbEntity
  8
0
100
AcDbBlockEnd
  0
BLOCK
  5
20F
330
205
100
AcDbEntity
  8
0
100
AcDbBlockBegin
  2
DMBLK168
 70
     0
 10
0.0
 20
0.0
 30
0.0
  3
DMBLK168
  1

  0
HATCH
  5
206
330
205
100
AcDbEntity
  8
0
  6
Continuous
 62
     7
100
AcDbHatch
 10
0.0
 20
0.0
 30
0.0
210
0.0
220
0.0
230
1.0
  2
SOLID
 70
     1
 71
     0
 91
        1
 92
        1
 93
        3
 72
     1
 10
747.6926307157421
 20
246.6583215604875
 11
750.6926307418191
 21
247.1583215648337
 72
     1
 10
750.6926307418191
 20
247.1583215648337
 11
747.6926307157421
 21
247.6583215691799
 72
     1
 10
747.6926307157421
 20
247.6583215691799
 11
747.6926307157421
 21
246.6583215604875
 97
        0
 75
     0
 76
     1
 98
        0
  0
HATCH
  5
207
330
205
100
AcDbEntity
  8
0
  6
Continuous
 62
     7
100
AcDbHatch
 10
0.0
 20
0.0
 30
0.0
210
0.0
220
0.0
230
1.0
  2
SOLID
 70
     1
 71
     0
 91
        1
 92
        1
 93
        3
 72
     1
 10
777.6926307678962
 20
246.6583215604875
 11
777.6926307678962
 21
247.6583215691799
 72
     1
 10
777.6926307678962
 20
247.6583215691799
 11
774.6926307418191
 21
247.1583215648337
 72
     1
 10
774.6926307418191
 20
247.1583215648337
 11
777.6926307678962
 21
246.6583215604875
 97
        0
 75
     0
 76
     1
 98
        0
  0
LINE
  5
208
330
205
100
AcDbEntity
  8
0
  6
Continuous
 62
     7
100
AcDbLine
 10
750.6926307418
 20
320.8802594001
 30
0.0
 11
750.6926307418
 21
245.6583215518
 31
0.0
  0
LINE
  5
209
330
205
100
AcDbEntity
  8
0
  6
Continuous
 62
     7
100
AcDbLine
 10
774.6926307418
 20
320.8802594001
 30
0.0
 11
774.6926307418
 21
245.6583215518
 31
0.0
  0
LINE
  5
20A
330
205
100
AcDbEntity
  8
0
  6
Continuous
 62
     7
100
AcDbLine
 10
744.6926306897
 20
247.1583215648
 30
0.0
 11
802.6034446397
 21
247.1583215648
 31
0.0
  0
TEXT
  5
20B
330
205
100
AcDbEntity
  8
0
  6
Continuous
 62
     7
100
AcDbText
 10
779.0261707374
 20
247.9083215648
 30
0.0
 40
3.0
  1
24mm
  7
SEACAD_Solid_Edge_ISO
 11
779.0261707374
 21
250.9083215648
 31
0.0
100
AcDbText
 73
     3
  0
TEXT
  5
20C
330
205
100
AcDbEntity
  8
0
  6
Continuous
 62
     7
100
AcDbText
 10
788.189807101
 20
247.9083215648
 30
0.0
 40
3.0
  1
(
  7
SEACAD_Solid_Edge_ISO
 11
788.189807101
 21
250.9083215648
 31
0.0
100
AcDbText
 73
     3
  0
TEXT
  5
20D
330
205
100
AcDbEntity
  8
0
  6
Continuous
 62
     7
100
AcDbText
 10
790.439807101
 20
247.9083215648
 30
0.0
 40
3.0
  1
0.945"
  7
SEACAD_Solid_Edge_ISO
 11
790.439807101
 21
250.9083215648
 31
0.0
100
AcDbText
 73
     3
  0
TEXT
  5
20E
330
205
100
AcDbEntity
  8
0
  6
Continuous
 62
     7
100
AcDbText
 10
800.8034434646
 20
247.9083215648
 30
0.0
 40
3.0
  1
)
  7
SEACAD_Solid_Edge_ISO
 11
800.8034434646
 21
250.9083215648
 31
0.0
100
AcDbText
 73
     3
  0
ENDBLK
  5
210
330
205
100
AcDbEntity
  8
0
100
AcDbBlockEnd
  0
BLOCK
  5
22E
330
211
100
AcDbEntity
  8
0
100
AcDbBlockBegin
  2
SE4
 70
     0
 10
0.0
 20
0.0
 30
0.0
  3
SE4
  1

  0
LINE
  5
213
330
211
100
AcDbEntity
  8
CAMPIONE_PORTA_A
  6
Continuous
 62
     7
100
AcDbLine
 10
679.8711826091
 20
387.3802594002
 30
0.0
 11
679.8711826091
 21
340.3802593999
 31
0.0
  0
LINE
  5
214
330
211
100
AcDbEntity
  8
CAMPIONE_PORTA_A
  6
Continuous
 62
     7
100
AcDbLine
 10
521.8711826091
 20
375.3802594002
 30
0.0
 11
521.8711826091
 21
387.3802594002
 31
0.0
  0
LINE
  5
215
330
211
100
AcDbEntity
  8
CAMPIONE_PORTA_A
  6
Continuous
 62
     7
100
AcDbLine
 10
521.8711826091
 20
340.3802593999
 30
0.0
 11
521.8711826091
 21
352.3802593999
 31
0.0
  0
LINE
  5
216
330
211
100
AcDbEntity
  8
CAMPIONE_PORTA_A
  6
Continuous
 62
     7
100
AcDbLine
 10
466.8711826091
 20
324.8802594001
 30
0.0
 11
466.8711826091
 21
336.8802594001
 31
0.0
  0
LINE
  5
217
330
211
100
AcDbEntity
  8
CAMPIONE_PORTA_A
  6
Continuous
 62
     7
100
AcDbLine
 10
466.8711826091
 20
390.8802594001
 30
0.0
 11
466.8711826091
 21
402.8802594001
 31
0.0
  0
LINE
  5
218
330
211
100
AcDbEntity
  8
CAMPIONE_PORTA_A
  6
Continuous
 62
     7
100
AcDbLine
 10
459.8711826091
 20
406.8802594001
 30
0.0
 11
459.8711826091
 21
418.8802594001
 31
0.0
  0
LINE
  5
219
330
211
100
AcDbEntity
  8
CAMPIONE_PORTA_A
  6
Continuous
 62
     7
100
AcDbLine
 10
459.8711826091
 20
320.8802594001
 30
0.0
 11
459.8711826091
 21
406.8802594001
 31
0.0
  0
LINE
  5
21A
330
211
100
AcDbEntity
  8
CAMPIONE_PORTA_A
  6
Continuous
 62
     7
100
AcDbLine
 10
459.8711826091
 20
308.8802594001
 30
0.0
 11
459.8711826091
 21
320.8802594001
 31
0.0
  0
LINE
  5
21B
330
211
100
AcDbEntity
  8
CAMPIONE_PORTA_A
  6
Continuous
 62
     7
100
AcDbLine
 10
466.8711826091
 20
408.3802594001
 30
0.0
 11
466.8711826091
 21
411.3802594001
 31
0.0
  0
LINE
  5
21C
330
211
100
AcDbEntity
  8
CAMPIONE_PORTA_A
  6
Continuous
 62
     7
100
AcDbLine
 10
466.8711826091
 20
319.3802594001
 30
0.0
 11
466.8711826091
 21
316.3802594001
 31
0.0
  0
LINE
  5
21D
330
211
100
AcDbEntity
  8
CAMPIONE_PORTA_A
  6
Continuous
 62
     7
100
AcDbLine
 10
459.8711826091
 20
263.8802594001
 30
0.0
 11
709.8711826091
 21
263.8802594001
 31
0.0
  0
LINE
  5
21E
330
211
100
AcDbEntity
  8
CAMPIONE_PORTA_A
  6
Continuous
 62
     7
100
AcDbLine
 10
709.8711826091
 20
463.8802594001
 30
0.0
 11
709.8711826091
 21
263.8802594001
 31
0.0
  0
LINE
  5
21F
330
211
100
AcDbEntity
  8
CAMPIONE_PORTA_A
  6
Continuous
 62
     7
100
AcDbLine
 10
459.8711826091
 20
308.8802594001
 30
0.0
 11
459.8711826091
 21
263.8802594001
 31
0.0
  0
LINE
  5
220
330
211
100
AcDbEntity
  8
CAMPIONE_PORTA_A
  6
Continuous
 62
     7
100
AcDbLine
 10
709.8711826091
 20
463.8802594001
 30
0.0
 11
459.8711826091
 21
463.8802594001
 31
0.0
  0
LINE
  5
221
330
211
100
AcDbEntity
  8
CAMPIONE_PORTA_A
  6
Continuous
 62
     7
100
AcDbLine
 10
459.8711826091
 20
308.8802594001
 30
0.0
 11
466.8711826091
 21
308.8802594001
 31
0.0
  0
LINE
  5
222
330
211
100
AcDbEntity
  8
CAMPIONE_PORTA_A
  6
Continuous
 62
     7
100
AcDbLine
 10
466.8711826091
 20
316.3802594001
 30
0.0
 11
466.8711826091
 21
308.8802594001
 31
0.0
  0
LINE
  5
223
330
211
100
AcDbEntity
  8
CAMPIONE_PORTA_A
  6
Continuous
 62
     7
100
AcDbLine
 10
459.8711826091
 20
463.8802594001
 30
0.0
 11
459.8711826091
 21
418.8802594001
 31
0.0
  0
LINE
  5
224
330
211
100
AcDbEntity
  8
CAMPIONE_PORTA_A
  6
Continuous
 62
     7
100
AcDbLine
 10
466.8711826091
 20
418.8802594001
 30
0.0
 11
459.8711826091
 21
418.8802594001
 31
0.0
  0
LINE
  5
225
330
211
100
AcDbEntity
  8
CAMPIONE_PORTA_A
  6
Continuous
 62
     7
100
AcDbLine
 10
466.8711826091
 20
418.8802594001
 30
0.0
 11
466.8711826091
 21
411.3802594001
 31
0.0
  0
LINE
  5
226
330
211
100
AcDbEntity
  8
CAMPIONE_PORTA_A
  6
Continuous
 62
     7
100
AcDbLine
 10
466.8711826091
 20
324.8802594001
 30
0.0
 11
466.8711826091
 21
319.3802594001
 31
0.0
  0
LINE
  5
227
330
211
100
AcDbEntity
  8
CAMPIONE_PORTA_A
  6
Continuous
 62
     7
100
AcDbLine
 10
466.8711826091
 20
408.3802594001
 30
0.0
 11
466.8711826091
 21
402.8802594001
 31
0.0
  0
LINE
  5
228
330
211
100
AcDbEntity
  8
CAMPIONE_PORTA_A
  6
Continuous
 62
     7
100
AcDbLine
 10
521.8711826091
 20
324.8802594001
 30
0.0
 11
466.8711826091
 21
324.8802594001
 31
0.0
  0
LINE
  5
229
330
211
100
AcDbEntity
  8
CAMPIONE_PORTA_A
  6
Continuous
 62
     7
100
AcDbLine
 10
466.8711826091
 20
402.8802594001
 30
0.0
 11
521.8711826091
 21
402.8802594001
 31
0.0
  0
LINE
  5
22A
330
211
100
AcDbEntity
  8
CAMPIONE_PORTA_A
  6
Continuous
 62
     7
100
AcDbLine
 10
521.8711826091
 20
387.3802594002
 30
0.0
 11
521.8711826091
 21
402.8802594001
 31
0.0
  0
LINE
  5
22B
330
211
100
AcDbEntity
  8
CAMPIONE_PORTA_A
  6
Continuous
 62
     7
100
AcDbLine
 10
521.8711826091
 20
324.8802594001
 30
0.0
 11
521.8711826091
 21
340.3802593999
 31
0.0
  0
LINE
  5
22C
330
211
100
AcDbEntity
  8
CAMPIONE_PORTA_A
  6
Continuous
 62
     7
100
AcDbLine
 10
679.8711826091
 20
387.3802594002
 30
0.0
 11
521.8711826091
 21
387.3802594002
 31
0.0
  0
LINE
  5
22D
330
211
100
AcDbEntity
  8
CAMPIONE_PORTA_A
  6
Continuous
 62
     7
100
AcDbLine
 10
521.8711826091
 20
340.3802593999
 30
0.0
 11
679.8711826091
 21
340.3802593999
 31
0.0
  0
ENDBLK
  5
22F
330
211
100
AcDbEntity
  8
0
100
AcDbBlockEnd
  0
ENDSEC
  0
SECTION
  2
ENTITIES
  0
INSERT
  5
6F
330
1F
100
AcDbEntity
  8
0
100
AcDbBlockReference
  2
SEANNOT_GROUP
 10
0.0
 20
0.0
 30
0.0
  0
MULTILEADER
  5
77
330
1F
100
AcDbEntity
  8
0
  6
Continuous
 62
     7
 92
      861
310
5D030000100000000C00000013000000993A0000F800000026000000DE99A72E5C2171402C4E9B2231787A40000000000000000000000000000000000000000000000000000000000000F03F000000000000F03F0000000000000000000000000000000046006900780069006E006700200070006C00610074006500200041
310
004E002000310034003000200033004400200046005A00000019000000010000000000000000000840000000000000F03F0000000000000000000000000000F03F00000000000000000000000000000000000000000000000000000000000000002200000053006F006C006900640020004500640067006500200049005300
310
4F000000000000000000000000000C00000013000000112700000C0000001300000001000000880000001D00000008FC751F49F1F83F105A78DA5B81044000000000000000005ADE9ADD7D397440105A78DA5B8104C008FC751F49F1F83F00000000000000001A2936C48D5979400000000000000000000000000000000000
310
000000000008400000000000000000000000000000000000000000000000000000000000000000000000000000F03F0C00000012000000FF7F00000C0000001400000001000000350000002100000026000000050081D5A643BDF4FD53F409021D5A643BDF4FC5BF0000000000000000C756990EF7D3F14FC50000000C0000
310
001400000002000000540000002000000002000000000000000000000000000000000000000000000000000000000000000000F0BF0000000000000000000000000000000000000000000000000000000000000000000000000000F03F080000001F000000880000001D000000000000000000F03F00000000000000000000
310
00000000000000000000000000000000000000000000000000000000F03F0000000000000000000000000000000000000000000000000000000000000000000000000000F03F0000000000000000000000000000000000000000000000000000000000000000000000000000F03F080000001F0000000C0000001300000089
310
1300000C00000012000000000000005400000020000000020000005E687B948C207440CE19EB7B90827940000000000000000071B2AB846A807340B7BA821EDB897A40000000000000000000000000000000000000000000000000000000000000F03F
100
AcDbMLeader
300
CONTEXT_DATA{
 40
1.0
 10
272.3160054309
 20
425.1159958941
 30
0.0
 41
3.0
140
3.0
145
1.05
174
     1
175
     1
176
     0
177
     0
290
     1
304
{\pxsm0.9;\fSolid Edge ISO|b0||i0||c0|p34;\W1.;Fixing plate AN 140 3D FZ\P}
 11
0.0
 21
0.0
 31
1.0
340
11
 12
274.3160054309
 22
426.5149958941
 32
0.0
 13
1.0
 23
0.0
 33
0.0
 42
0.0
 43
0.0
 44
0.0
 45
1.0
170
     1
 90
-1073741824
171
     1
172
     1
 91
-939524096
141
1.5
 92
        0
291
     0
292
     0
173
     0
293
     0
142
0.0
143
0.0
294
     0
295
     0
296
     0
110
0.0
120
0.0
130
0.0
111
1.0
121
0.0
131
0.0
112
0.0
122
1.0
132
0.0
297
     0
302
LEADER{
290
     1
291
     1
 10
312.0260054309
 20
424.6159958941
 30
0.0
 11
-1.0
 21
0.0
 31
0.0
 90
        0
 40
0.0
304
LEADER_LINE{
 10
323.5932289171
 20
405.5971109501
 30
0.0
 91
        0
305
}
303
}
301
}
340
6C
 90
 35052448
170
     1
 91
-1056964608
341
14
171
    -2
290
     1
291
     1
 41
0.0
342
72
 42
4.0
172
     2
343
11
173
     1
 95
        1
174
     1
175
     0
 92
-1073741824
292
     0
 93
-1023410169
 10
1.0
 20
1.0
 30
1.0
 43
0.0
176
     0
293
     0
294
     0
178
     0
179
     1
 45
1.0
1001
ACAD_MLEADERVER
1070
     2
  0
MTEXT
  5
79
330
1F
100
AcDbEntity
  8
Predefinito
100
AcDbMText
 10
746.7249318934
 20
20.6621922954
 30
0.0
 40
7.0
 41
86.975011
 46
11.4545554545
 71
     1
 72
     1
  1
{\fSolid Edge ISO|b0||i0||c0|p34;\C7;\H7.;\W1.;Anselmi AN 108 3D SC45\P}
 73
     1
 44
1.0
1001
ACAD
1000
ACAD_MTEXT_DEFINED_HEIGHT_BEGIN
1070
    46
1040
11.4545554545
1000
ACAD_MTEXT_DEFINED_HEIGHT_END
  0
MTEXT
  5
7A
330
1F
100
AcDbEntity
  8
0
100
AcDbMText
 10
255.8377753666
 20
273.723203104
 30
0.0
 40
3.5
 41
22.8282896346
 46
11.4545554545
 71
     7
 72
     1
  1
{\fSolid Edge ISO|b0||i0||c0|p34;\C7;\H3.5;\W1.;Template \P}{\fSolid Edge ISO|b0||i0||c0|p34;\C7;\H3.5;\W1.;casing frame}
 73
     1
 44
1.0
1001
ACAD
1000
ACAD_MTEXT_DEFINED_HEIGHT_BEGIN
1070
    46
1040
11.4545554545
1000
ACAD_MTEXT_DEFINED_HEIGHT_END
  0
MTEXT
  5
7B
330
1F
100
AcDbEntity
  8
0
100
AcDbMText
 10
433.9877604244
 20
273.723203104
 30
0.0
 40
3.5
 41
22.8282896346
 46
11.4545554545
 71
     7
 72
     1
  1
{\fSolid Edge ISO|b0||i0||c0|p34;\C7;\H3.5;\W1.;Template \P}{\fSolid Edge ISO|b0||i0||c0|p34;\C7;\H3.5;\W1.;door panel}
 73
     1
 44
1.0
1001
ACAD
1000
ACAD_MTEXT_DEFINED_HEIGHT_BEGIN
1070
    46
1040
11.4545554545
1000
ACAD_MTEXT_DEFINED_HEIGHT_END
  0
HATCH
  5
7C
330
1F
100
AcDbEntity
  8
0
  6
Continuous
 62
     7
100
AcDbHatch
 10
0.0
 20
0.0
 30
0.0
210
0.0
220
0.0
230
1.0
  2
LINE
 70
     0
 71
     0
 91
        1
 92
        1
 93
        8
 72
     1
 10
241.2849572259476
 20
263.8802594000502
 11
241.2849572259476
 21
309.3720014953976
 72
     1
 10
241.2849572259476
 20
309.3720014953976
 11
214.2849572259476
 21
309.3720014953976
 72
     1
 10
214.2849572259476
 20
309.3720014953976
 11
214.2849572259476
 21
418.388517304703
 72
     1
 10
214.2849572259476
 20
418.3885173047029
 11
241.2849572259476
 21
418.3885173047029
 72
     1
 10
241.2849572259476
 20
418.3885173047029
 11
241.2849572259476
 21
463.8802594000502
 72
     1
 10
241.2849572259476
 20
463.8802594000503
 11
205.3868679233547
 21
463.8802594000503
 72
     1
 10
205.3868679233547
 20
463.8802594000503
 11
205.3868679233548
 21
263.8802594000502
 72
     1
 10
205.3868679233548
 20
263.8802594000502
 11
241.2849572259476
 21
263.8802594000502
 97
        0
 75
     0
 76
     1
 52
-45.0
 41
2.2047244094
 77
     0
 78
     1
 53
-45.0
 43
0.0
 44
0.0
 45
4.949747468305833
 46
4.949747468305833
 79
     0
 98
        0
  0
LINE
  5
7D
330
1F
100
AcDbEntity
  8
0
  6
Continuous
 62
     7
100
AcDbLine
 10
205.3868679234
 20
463.8802594001
 30
0.0
 11
205.3868679234
 21
263.8802594001
 31
0.0
  0
HATCH
  5
7E
330
1F
100
AcDbEntity
  8
0
  6
Continuous
 62
     7
100
AcDbHatch
 10
0.0
 20
0.0
 30
0.0
210
0.0
220
0.0
230
1.0
  2
LINE
 70
     0
 71
     0
 91
        1
 92
        1
 93
       20
 72
     1
 10
521.8711826091079
 20
387.3802594001567
 11
679.8711826091079
 21
387.3802594001567
 72
     1
 10
679.8711826091079
 20
387.3802594001567
 11
679.8711826091079
 21
340.3802593999438
 72
     1
 10
679.8711826091079
 20
340.3802593999438
 11
521.8711826091078
 21
340.3802593999439
 72
     1
 10
521.8711826091078
 20
340.3802593999439
 11
521.8711826091079
 21
324.8802594000503
 72
     1
 10
521.8711826091079
 20
324.8802594000502
 11
466.8711826091079
 21
324.8802594000502
 72
     1
 10
466.8711826091079
 20
324.8802594000502
 11
466.8711826091078
 21
319.3802594000503
 72
     1
 10
466.8711826091078
 20
319.3802594000503
 11
466.8711826091078
 21
316.3802594000503
 72
     1
 10
466.8711826091078
 20
316.3802594000503
 11
466.8711826091078
 21
308.8802594000502
 72
     1
 10
466.8711826091078
 20
308.8802594000502
 11
459.8711826091078
 21
308.8802594000502
 72
     1
 10
459.8711826091078
 20
308.8802594000502
 11
459.8711826091078
 21
263.8802594000502
 72
     1
 10
459.8711826091078
 20
263.8802594000502
 11
709.8711826091078
 21
263.8802594000502
 72
     1
 10
709.8711826091079
 20
263.8802594000502
 11
709.8711826091079
 21
463.8802594000503
 72
     1
 10
709.8711826091079
 20
463.8802594000503
 11
459.8711826091079
 21
463.8802594000503
 72
     1
 10
459.8711826091078
 20
463.8802594000503
 11
459.8711826091078
 21
418.8802594000504
 72
     1
 10
459.8711826091078
 20
418.8802594000504
 11
466.8711826091078
 21
418.8802594000504
 72
     1
 10
466.8711826091078
 20
418.8802594000504
 11
466.8711826091078
 21
411.3802594000502
 72
     1
 10
466.8711826091078
 20
411.3802594000502
 11
466.8711826091078
 21
408.3802594000502
 72
     1
 10
466.8711826091078
 20
408.3802594000502
 11
466.8711826091078
 21
402.8802594000502
 72
     1
 10
466.8711826091078
 20
402.8802594000502
 11
521.8711826091078
 21
402.8802594000502
 72
     1
 10
521.8711826091078
 20
402.8802594000502
 11
521.8711826091078
 21
387.3802594001567
 97
        0
 75
     0
 76
     1
 52
45.0
 41
2.2047244094
 77
     0
 78
     1
 53
45.0
 43
0.0
 44
0.0
 45
-4.949747468305833
 46
4.949747468305833
 79
     0
 98
        0
  0
INSERT
  5
80
330
1F
100
AcDbEntity
  8
0
100
AcDbBlockReference
  2
SE
 10
0.0
 20
0.0
 30
0.0
  0
INSERT
  5
DC
330
1F
100
AcDbEntity
  8
0
100
AcDbBlockReference
  2
SE1
 10
0.0
 20
0.0
 30
0.0
  0
INSERT
  5
FB
330
1F
100
AcDbEntity
  8
0
100
AcDbBlockReference
  2
SE2
 10
0.0
 20
0.0
 30
0.0
  0
DIMENSION
  5
118
330
1F
100
AcDbEntity
  8
0
  6
Continuous
 62
     7
100
AcDbDimension
  2
DMBLK152
 10
73.9758479865
 20
256.1583249027
 30
0.0
 11
69.2859545769
 21
256.1583249027
 31
0.0
 70
   160
  1
\A1;<>
 71
     5
 42
-1.0
 73
     0
 74
     0
 75
     0
  3
ISO
100
AcDbAlignedDimension
 13
77.9758479865
 23
320.8802594001
 33
0.0
 14
73.9758479865
 24
263.8802594001
 34
0.0
100
AcDbRotatedDimension
1001
ACAD
1000
DSTYLE
1002
{
1070
     3
1000

1002
}
  0
DIMENSION
  5
125
330
1F
100
AcDbEntity
  8
0
  6
Continuous
 62
     7
100
AcDbDimension
  2
DMBLK153
 10
66.0828623297
 20
418.8802594001
 30
0.0
 11
66.0828623297
 21
363.8802596981
 31
0.0
 70
   161
  1
\A1;<>
 71
     5
 42
-1.0
 73
     0
 74
     0
 75
     0
  3
ISO
100
AcDbAlignedDimension
 13
89.9758479865
 23
418.8802594001
 33
0.0
 14
89.9758479865
 24
308.8802594001
 34
0.0
1001
ACAD
1000
DSTYLE
1002
{
1070
   273
1070
     3
1070
     0
1002
}
  0
DIMENSION
  5
132
330
1F
100
AcDbEntity
  8
0
  6
Continuous
 62
     7
100
AcDbDimension
  2
DMBLK154
 10
89.9758479865
 20
406.8802594001
 30
0.0
 11
91.203127266
 21
401.24288244
 31
0.0
 70
   164
  1
\A1;<>
 71
     5
 42
-1.0
 73
     0
 74
     0
 75
     0
  3
ISO
100
AcDbRadialDimension
 15
87.4231918203
 25
418.605614256
 35
0.0
 40
0.0
1001
ACAD
1000
DSTYLE
1002
{
1070
   283
1070
     1
1070
     0
1002
}
  0
DIMENSION
  5
13D
330
1F
100
AcDbEntity
  8
0
  6
Continuous
 62
     7
100
AcDbDimension
  2
DMBLK155
 10
214.2849572259
 20
256.1583249325
 30
0.0
 11
227.7849568758
 21
256.1583249325
 31
0.0
 70
   160
  1
\A1;<>
 71
     5
 42
-1.0
 73
     0
 74
     0
 75
     0
  3
ISO
100
AcDbAlignedDimension
 13
241.2849572259
 23
263.8802594001
 33
0.0
 14
214.2849572259
 24
309.3720014954
 34
0.0
100
AcDbRotatedDimension
1001
ACAD
1000
DSTYLE
1002
{
1070
     3
1000

1002
}
  0
DIMENSION
  5
14A
330
1F
100
AcDbEntity
  8
0
  6
Continuous
 62
     7
100
AcDbDimension
  2
DMBLK156
 10
466.8711826091
 20
256.1583249325
 30
0.0
 11
471.000987496
 21
256.1583249325
 31
0.0
 70
   160
  1
\A1;<>
 71
     5
 42
-1.0
 73
     0
 74
     0
 75
     0
  3
ISO
100
AcDbAlignedDimension
 13
459.8711826091
 23
263.8802594001
 33
0.0
 14
466.8711826091
 24
322.1302594001
 34
0.0
100
AcDbRotatedDimension
1001
ACAD
1000
DSTYLE
1002
{
1070
     3
1000

1002
}
  0
DIMENSION
  5
157
330
1F
100
AcDbEntity
  8
0
  6
Continuous
 62
     7
100
AcDbDimension
  2
DMBLK157
 10
521.8711826091
 20
248.6583246345
 30
0.0
 11
490.8711821025
 21
248.6583246345
 31
0.0
 70
   160
  1
\A1;<>
 71
     5
 42
-1.0
 73
     0
 74
     0
 75
     0
  3
ISO
100
AcDbAlignedDimension
 13
459.8711826091
 23
263.8802594001
 33
0.0
 14
521.8711826091
 24
324.8802594001
 34
0.0
100
AcDbRotatedDimension
1001
ACAD
1000
DSTYLE
1002
{
1070
     3
1000

1002
}
  0
DIMENSION
  5
164
330
1F
100
AcDbEntity
  8
0
  6
Continuous
 62
     7
100
AcDbDimension
  2
DMBLK158
 10
679.8711826091
 20
241.1583243364
 30
0.0
 11
569.8711820131
 21
241.1583243364
 31
0.0
 70
   160
  1
\A1;<>
 71
     5
 42
-1.0
 73
     0
 74
     0
 75
     0
  3
ISO
100
AcDbAlignedDimension
 13
459.8711826091
 23
263.8802594001
 33
0.0
 14
679.8711826091
 24
387.3802594002
 34
0.0
100
AcDbRotatedDimension
1001
ACAD
1000
DSTYLE
1002
{
1070
     3
1000

1002
}
  0
DIMENSION
  5
171
330
1F
100
AcDbEntity
  8
0
  6
Continuous
 62
     7
100
AcDbDimension
  2
DMBLK159
 10
774.6926307418
 20
256.1583249325
 30
0.0
 11
783.4376009815
 21
256.1583249325
 31
0.0
 70
   160
  1
\A1;<>
 71
     5
 42
-1.0
 73
     0
 74
     0
 75
     0
  3
ISO
100
AcDbAlignedDimension
 13
778.6926307418
 23
263.8802594001
 33
0.0
 14
774.6926307418
 24
320.8802594001
 34
0.0
100
AcDbRotatedDimension
1001
ACAD
1000
DSTYLE
1002
{
1070
     3
1000

1002
}
  0
DIMENSION
  5
17E
330
1F
100
AcDbEntity
  8
0
  6
Continuous
 62
     7
100
AcDbDimension
  2
DMBLK160
 10
785.4762882777
 20
340.3802593999
 30
0.0
 11
785.4762882777
 21
363.8802585953
 31
0.0
 70
   161
  1
\A1;<>
 71
     5
 42
-1.0
 73
     0
 74
     0
 75
     0
  3
ISO
100
AcDbAlignedDimension
 13
762.6926307418
 23
340.3802593999
 33
0.0
 14
762.6926307418
 24
387.3802594002
 34
0.0
1001
ACAD
1000
DSTYLE
1002
{
1070
     3
1000

1002
}
  0
DIMENSION
  5
18B
330
1F
100
AcDbEntity
  8
0
  6
Continuous
 62
     7
100
AcDbDimension
  2
DMBLK161
 10
792.9762885758
 20
402.8802594001
 30
0.0
 11
792.9762885758
 21
363.8802585954
 31
0.0
 70
   161
  1
\A1;<>
 71
     5
 42
-1.0
 73
     0
 74
     0
 75
     0
  3
ISO
100
AcDbAlignedDimension
 13
762.6926307418
 23
402.8802594001
 33
0.0
 14
762.6926307418
 24
324.8802594001
 34
0.0
1001
ACAD
1000
DSTYLE
1002
{
1070
     3
1000

1002
}
  0
DIMENSION
  5
198
330
1F
100
AcDbEntity
  8
0
  6
Continuous
 62
     7
100
AcDbDimension
  2
DMBLK162
 10
800.4762870111
 20
409.8802594001
 30
0.0
 11
800.4762870111
 21
363.8802593106
 31
0.0
 70
   161
  1
\A1;<>
 71
     5
 42
-1.0
 73
     0
 74
     0
 75
     0
  3
ISO
100
AcDbAlignedDimension
 13
762.6926307418
 23
409.8802594001
 33
0.0
 14
762.6926307418
 24
317.8802594001
 34
0.0
1001
ACAD
1000
DSTYLE
1002
{
1070
     3
1000

1002
}
  0
DIMENSION
  5
1A5
330
1F
100
AcDbEntity
  8
0
  6
Continuous
 62
     7
100
AcDbDimension
  2
DMBLK163
 10
807.9762873092
 20
418.8802594001
 30
0.0
 11
807.9762873092
 21
363.8802596981
 31
0.0
 70
   161
  1
\A1;<>
 71
     5
 42
-1.0
 73
     0
 74
     0
 75
     0
  3
ISO
100
AcDbAlignedDimension
 13
762.6926307418
 23
418.8802594001
 33
0.0
 14
762.6926307418
 24
308.8802594001
 34
0.0
1001
ACAD
1000
DSTYLE
1002
{
1070
     3
1000

1002
}
  0
DIMENSION
  5
1B2
330
1F
100
AcDbEntity
  8
0
  6
Continuous
 62
     7
100
AcDbDimension
  2
DMBLK164
 10
762.6926307418
 20
469.8274954015
 30
0.0
 11
777.5793928859
 21
469.8274954015
 31
0.0
 70
   160
  1
\A1;<>
 71
     5
 42
-1.0
 73
     0
 74
     0
 75
     0
  3
ISO
100
AcDbAlignedDimension
 13
774.6926307418
 23
406.8802594001
 33
0.0
 14
762.6926307418
 24
409.8802594001
 34
0.0
100
AcDbRotatedDimension
1001
ACAD
1000
DSTYLE
1002
{
1070
     3
1000

1002
}
  0
DIMENSION
  5
1BF
330
1F
100
AcDbEntity
  8
0
  6
Continuous
 62
     7
100
AcDbDimension
  2
DMBLK165
 10
750.6926307418
 20
469.8274967724
 30
0.0
 11
749.2259447315
 21
469.8274967724
 31
0.0
 70
   160
  1
\A1;<>
 71
     5
 42
-1.0
 73
     0
 74
     0
 75
     0
  3
ISO
100
AcDbAlignedDimension
 13
762.6926307418
 23
409.8802594001
 33
0.0
 14
750.6926307418
 24
406.8802594001
 34
0.0
100
AcDbRotatedDimension
1001
ACAD
1000
DSTYLE
1002
{
1070
     3
1000

1002
}
  0
DIMENSION
  5
1CC
330
1F
100
AcDbEntity
  8
0
  6
Continuous
 62
     7
100
AcDbDimension
  2
DMBLK166
 10
762.6926307418
 20
375.3802594002
 30
0.0
 11
762.0229442383
 21
372.623597211
 31
0.0
 70
   164
  1
\A1;<>
 71
     5
 42
-1.0
 73
     0
 74
     0
 75
     0
  3
ISO
100
AcDbRadialDimension
 15
765.5254431034
 25
387.0410987406
 35
0.0
 40
0.0
1001
ACAD
1000
DSTYLE
1002
{
1070
   283
1070
     1
1070
     0
1002
}
  0
INSERT
  5
1D8
330
1F
100
AcDbEntity
  8
0
100
AcDbBlockReference
  2
SE3
 10
0.0
 20
0.0
 30
0.0
  0
DIMENSION
  5
1F7
330
1F
100
AcDbEntity
  8
0
  6
Continuous
 62
     7
100
AcDbDimension
  2
DMBLK167
 10
77.9758479865
 20
247.1583215648
 30
0.0
 11
74.9632331962
 21
247.1583215648
 31
0.0
 70
   161
  1
\A1;<>
 71
     5
 42
-1.0
 73
     0
 74
     0
 75
     0
  3
ISO
100
AcDbAlignedDimension
 13
77.9758479865
 23
320.8802594001
 33
0.0
 14
101.9758479865
 24
320.8802594001
 34
0.0
1001
ACAD
1000
DSTYLE
1002
{
1070
     3
1000

1002
}
  0
DIMENSION
  5
204
330
1F
100
AcDbEntity
  8
0
  6
Continuous
 62
     7
100
AcDbDimension
  2
DMBLK168
 10
750.6926307418
 20
247.1583215648
 30
0.0
 11
777.9761707374
 21
247.1583215648
 31
0.0
 70
   161
  1
\A1;<>
 71
     5
 42
-1.0
 73
     0
 74
     0
 75
     0
  3
ISO
100
AcDbAlignedDimension
 13
750.6926307418
 23
320.8802594001
 33
0.0
 14
774.6926307418
 24
320.8802594001
 34
0.0
1001
ACAD
1000
DSTYLE
1002
{
1070
     3
1000

1002
}
  0
INSERT
  5
212
330
1F
100
AcDbEntity
  8
0
100
AcDbBlockReference
  2
SE4
 10
0.0
 20
0.0
 30
0.0
  0
ENDSEC
  0
SECTION
  2
OBJECTS
  0
DICTIONARY
  5
C
330
0
100
AcDbDictionary
281
     1
  3
ACAD_DETAILVIEWSTYLE
350
26B
  3
ACAD_GROUP
350
D
  3
ACAD_LAYOUT
350
1A
  3
ACAD_MATERIAL
350
43
  3
ACAD_MLEADERSTYLE
350
6B
  3
ACAD_MLINESTYLE
350
17
  3
ACAD_PLOTSETTINGS
350
19
  3
ACAD_PLOTSTYLENAME
350
E
  3
ACAD_SCALELIST
350
47
  3
ACAD_SECTIONVIEWSTYLE
350
26C
  3
ACAD_TABLESTYLE
350
69
  3
ACAD_VISUALSTYLE
350
2A
  3
ACDB_RECOMPOSE_DATA
350
268
  3
AcDbVariableDictionary
350
231
  0
SUN
  5
6D
330
29
100
AcDbSun
 90
        1
290
     0
 63
     7
421
 16777215
 40
1.0
291
     1
 91
  2455826
 92
 54000000
292
     0
 70
     2
 71
   256
280
     1
  0
DICTIONARY
  5
26B
102
{ACAD_REACTORS
330
C
102
}
330
C
100
AcDbDictionary
281
     1
  0
DICTIONARY
  5
D
102
{ACAD_REACTORS
330
C
102
}
330
C
100
AcDbDictionary
281
     1
  0
DICTIONARY
  5
1A
102
{ACAD_REACTORS
330
C
102
}
330
C
100
AcDbDictionary
281
     1
  3
Layout1
350
1E
  3
Model
350
22
  0
DICTIONARY
  5
43
102
{ACAD_REACTORS
330
C
102
}
330
C
100
AcDbDictionary
281
     1
  3
ByBlock
350
45
  3
ByLayer
350
44
  3
Global
350
46
  0
DICTIONARY
  5
6B
102
{ACAD_REACTORS
330
C
102
}
330
C
100
AcDbDictionary
281
     1
  3
Standard
350
6C
  0
DICTIONARY
  5
17
102
{ACAD_REACTORS
330
C
102
}
330
C
100
AcDbDictionary
281
     1
  3
Standard
350
18
  0
DICTIONARY
  5
19
102
{ACAD_REACTORS
330
C
102
}
330
C
100
AcDbDictionary
281
     1
  0
ACDBDICTIONARYWDFLT
  5
E
102
{ACAD_REACTORS
330
C
102
}
330
C
100
AcDbDictionary
281
     1
  3
Normal
350
F
100
AcDbDictionaryWithDefault
340
F
  0
DICTIONARY
  5
47
102
{ACAD_REACTORS
330
C
102
}
330
C
100
AcDbDictionary
281
     1
  3
A0
350
48
  3
A1
350
49
  3
A2
350
4A
  3
A3
350
4B
  3
A4
350
4C
  3
A5
350
4D
  3
A6
350
4E
  3
A7
350
4F
  3
A8
350
50
  3
A9
350
51
  3
B0
350
52
  3
B1
350
53
  3
B2
350
54
  3
B3
350
55
  3
B4
350
56
  3
B5
350
57
  3
B6
350
58
  3
B7
350
59
  3
B8
350
5A
  3
B9
350
5B
  3
C0
350
5C
  3
C1
350
5D
  3
C2
350
5E
  3
C3
350
5F
  3
C4
350
60
  3
C5
350
61
  3
C6
350
62
  3
C7
350
63
  3
C8
350
64
  3
C9
350
65
  3
D0
350
66
  3
D1
350
67
  3
D2
350
68
  0
DICTIONARY
  5
26C
102
{ACAD_REACTORS
330
C
102
}
330
C
100
AcDbDictionary
281
     1
  0
DICTIONARY
  5
69
102
{ACAD_REACTORS
330
C
102
}
330
C
100
AcDbDictionary
281
     1
  3
Standard
350
6A
  0
DICTIONARY
  5
2A
102
{ACAD_REACTORS
330
C
102
}
330
C
100
AcDbDictionary
281
     1
  3
2dWireframe
350
2F
  3
Basic
350
32
  3
Brighten
350
36
  3
ColorChange
350
3A
  3
Conceptual
350
34
  3
Dim
350
35
  3
EdgeColorOff
350
3D
  3
Facepattern
350
39
  3
Flat
350
2B
  3
FlatWithEdges
350
2C
  3
Gouraud
350
2D
  3
GouraudWithEdges
350
2E
  3
Hidden
350
31
  3
JitterOff
350
3B
  3
Linepattern
350
38
  3
OverhangOff
350
3C
  3
Realistic
350
33
  3
Shaded
350
42
  3
Shaded with edges
350
41
  3
Shades of Gray
350
3E
  3
Sketchy
350
3F
  3
Thicken
350
37
  3
Wireframe
350
30
  3
X-Ray
350
40
  0
XRECORD
  5
268
102
{ACAD_REACTORS
330
C
102
}
330
C
100
AcDbXrecord
280
     1
 90
        1
330
6A
  0
DICTIONARY
  5
231
102
{ACAD_REACTORS
330
C
102
}
330
C
100
AcDbDictionary
281
     1
  3
CANNOSCALE
350
232
  3
CMLEADERSTYLE
350
26A
  3
CTABLESTYLE
350
269
  3
SECTIONTHICKNESSINC
350
26D
  3
XCLIPFRAME
350
233
  0
LAYOUT
  5
1E
102
{ACAD_REACTORS
330
1A
102
}
330
1A
100
AcDbPlotSettings
  1

  2
none_device
  4

  6

 40
0.0
 41
0.0
 42
0.0
 43
0.0
 44
0.0
 45
0.0
 46
0.0
 47
0.0
 48
0.0
 49
0.0
140
0.0
141
0.0
142
1.0
143
1.0
 70
   688
 72
     1
 73
     0
 74
     5
  7

 75
    16
 76
     0
 77
     2
 78
   300
147
1.0
148
0.0
149
0.0
100
AcDbLayout
  1
Layout1
 70
     1
 71
     1
 10
0.0
 20
0.0
 11
841.0
 21
594.0
 12
0.0
 22
0.0
 32
0.0
 14
0.0
 24
0.0
 34
0.0
 15
841.0
 25
594.0
 35
0.0
146
0.0
 13
0.0
 23
0.0
 33
0.0
 16
1.0
 26
0.0
 36
0.0
 17
0.0
 27
1.0
 37
0.0
 76
     0
330
1B
  0
LAYOUT
  5
22
102
{ACAD_REACTORS
330
1A
102
}
330
1A
100
AcDbPlotSettings
  1

  2
none_device
  4
Letter_(8.50_x_11.00_Inches)
  6

 40
6.35
 41
6.35
 42
6.35000508
 43
6.35000508
 44
215.9
 45
279.4
 46
0.0
 47
0.0
 48
0.0
 49
0.0
140
0.0
141
0.0
142
1.0
143
1.0
 70
  1712
 72
     1
 73
     0
 74
     0
  7

 75
     0
 76
     0
 77
     2
 78
   300
147
1.0
148
0.0
149
0.0
100
AcDbLayout
  1
Model
 70
     1
 71
     0
 10
0.0
 20
0.0
 11
841.0
 21
594.0
 12
0.0
 22
0.0
 32
0.0
 14
0.0
 24
0.0
 34
0.0
 15
841.0
 25
594.0
 35
0.0
146
0.0
 13
0.0
 23
0.0
 33
0.0
 16
1.0
 26
0.0
 36
0.0
 17
0.0
 27
1.0
 37
0.0
 76
     0
330
1F
331
29
  0
MATERIAL
  5
45
102
{ACAD_REACTORS
330
43
102
}
330
43
100
AcDbMaterial
  1
ByBlock
 72
     1
 94
      127
  0
MATERIAL
  5
44
102
{ACAD_REACTORS
330
43
102
}
330
43
100
AcDbMaterial
  1
ByLayer
 72
     1
 94
      127
  0
MATERIAL
  5
46
102
{ACAD_REACTORS
330
43
102
}
330
43
100
AcDbMaterial
  1
Global
 72
     1
 94
      127
  0
MLEADERSTYLE
  5
6C
102
{ACAD_REACTORS
330
6B
102
}
102
{ACAD_XDICTIONARY
360
266
102
}
330
6B
100
AcDbMLeaderStyle
170
     2
171
     1
172
     0
 90
        2
 40
0.0
 41
0.0
173
     1
 91
-1056964608
340
14
 92
       -2
290
     1
 42
2.0
291
     1
 43
8.0
  3
Standard
341
0
 44
4.0
300

342
11
174
     1
178
     6
175
     1
176
     0
 93
-1056964608
 45
4.0
292
     0
297
     0
 46
4.0
343
0
 94
-1056964608
 47
1.0
 49
1.0
140
1.0
293
     1
141
0.0
294
     1
177
     0
142
1.0
295
     0
296
     0
143
3.75
1001
ACAD_MLEADERVER
1070
     2
  0
MLINESTYLE
  5
18
102
{ACAD_REACTORS
330
17
102
}
330
17
100
AcDbMlineStyle
  2
Standard
 70
     0
  3

 62
   256
 51
90.0
 52
90.0
 71
     2
 49
0.5
 62
   256
  6
BYLAYER
 49
-0.5
 62
   256
  6
BYLAYER
  0
ACDBPLACEHOLDER
  5
F
102
{ACAD_REACTORS
330
E
102
}
330
E
  0
SCALE
  5
48
102
{ACAD_REACTORS
330
47
102
}
330
47
100
AcDbScale
 70
     0
300
1:1
140
1.0
141
1.0
290
     1
  0
SCALE
  5
49
102
{ACAD_REACTORS
330
47
102
}
330
47
100
AcDbScale
 70
     0
300
1:2
140
1.0
141
2.0
290
     0
  0
SCALE
  5
4A
102
{ACAD_REACTORS
330
47
102
}
330
47
100
AcDbScale
 70
     0
300
1:4
140
1.0
141
4.0
290
     0
  0
SCALE
  5
4B
102
{ACAD_REACTORS
330
47
102
}
330
47
100
AcDbScale
 70
     0
300
1:5
140
1.0
141
5.0
290
     0
  0
SCALE
  5
4C
102
{ACAD_REACTORS
330
47
102
}
330
47
100
AcDbScale
 70
     0
300
1:8
140
1.0
141
8.0
290
     0
  0
SCALE
  5
4D
102
{ACAD_REACTORS
330
47
102
}
330
47
100
AcDbScale
 70
     0
300
1:10
140
1.0
141
10.0
290
     0
  0
SCALE
  5
4E
102
{ACAD_REACTORS
330
47
102
}
330
47
100
AcDbScale
 70
     0
300
1:16
140
1.0
141
16.0
290
     0
  0
SCALE
  5
4F
102
{ACAD_REACTORS
330
47
102
}
330
47
100
AcDbScale
 70
     0
300
1:20
140
1.0
141
20.0
290
     0
  0
SCALE
  5
50
102
{ACAD_REACTORS
330
47
102
}
330
47
100
AcDbScale
 70
     0
300
1:30
140
1.0
141
30.0
290
     0
  0
SCALE
  5
51
102
{ACAD_REACTORS
330
47
102
}
330
47
100
AcDbScale
 70
     0
300
1:40
140
1.0
141
40.0
290
     0
  0
SCALE
  5
52
102
{ACAD_REACTORS
330
47
102
}
330
47
100
AcDbScale
 70
     0
300
1:50
140
1.0
141
50.0
290
     0
  0
SCALE
  5
53
102
{ACAD_REACTORS
330
47
102
}
330
47
100
AcDbScale
 70
     0
300
1:100
140
1.0
141
100.0
290
     0
  0
SCALE
  5
54
102
{ACAD_REACTORS
330
47
102
}
330
47
100
AcDbScale
 70
     0
300
2:1
140
2.0
141
1.0
290
     0
  0
SCALE
  5
55
102
{ACAD_REACTORS
330
47
102
}
330
47
100
AcDbScale
 70
     0
300
4:1
140
4.0
141
1.0
290
     0
  0
SCALE
  5
56
102
{ACAD_REACTORS
330
47
102
}
330
47
100
AcDbScale
 70
     0
300
8:1
140
8.0
141
1.0
290
     0
  0
SCALE
  5
57
102
{ACAD_REACTORS
330
47
102
}
330
47
100
AcDbScale
 70
     0
300
10:1
140
10.0
141
1.0
290
     0
  0
SCALE
  5
58
102
{ACAD_REACTORS
330
47
102
}
330
47
100
AcDbScale
 70
     0
300
100:1
140
100.0
141
1.0
290
     0
  0
SCALE
  5
59
102
{ACAD_REACTORS
330
47
102
}
330
47
100
AcDbScale
 70
     0
300
1/128" = 1'-0"
140
0.0078125
141
12.0
290
     0
  0
SCALE
  5
5A
102
{ACAD_REACTORS
330
47
102
}
330
47
100
AcDbScale
 70
     0
300
1/64" = 1'-0"
140
0.015625
141
12.0
290
     0
  0
SCALE
  5
5B
102
{ACAD_REACTORS
330
47
102
}
330
47
100
AcDbScale
 70
     0
300
1/32" = 1'-0"
140
0.03125
141
12.0
290
     0
  0
SCALE
  5
5C
102
{ACAD_REACTORS
330
47
102
}
330
47
100
AcDbScale
 70
     0
300
1/16" = 1'-0"
140
0.0625
141
12.0
290
     0
  0
SCALE
  5
5D
102
{ACAD_REACTORS
330
47
102
}
330
47
100
AcDbScale
 70
     0
300
3/32" = 1'-0"
140
0.09375
141
12.0
290
     0
  0
SCALE
  5
5E
102
{ACAD_REACTORS
330
47
102
}
330
47
100
AcDbScale
 70
     0
300
1/8" = 1'-0"
140
0.125
141
12.0
290
     0
  0
SCALE
  5
5F
102
{ACAD_REACTORS
330
47
102
}
330
47
100
AcDbScale
 70
     0
300
3/16" = 1'-0"
140
0.1875
141
12.0
290
     0
  0
SCALE
  5
60
102
{ACAD_REACTORS
330
47
102
}
330
47
100
AcDbScale
 70
     0
300
1/4" = 1'-0"
140
0.25
141
12.0
290
     0
  0
SCALE
  5
61
102
{ACAD_REACTORS
330
47
102
}
330
47
100
AcDbScale
 70
     0
300
3/8" = 1'-0"
140
0.375
141
12.0
290
     0
  0
SCALE
  5
62
102
{ACAD_REACTORS
330
47
102
}
330
47
100
AcDbScale
 70
     0
300
1/2" = 1'-0"
140
0.5
141
12.0
290
     0
  0
SCALE
  5
63
102
{ACAD_REACTORS
330
47
102
}
330
47
100
AcDbScale
 70
     0
300
3/4" = 1'-0"
140
0.75
141
12.0
290
     0
  0
SCALE
  5
64
102
{ACAD_REACTORS
330
47
102
}
330
47
100
AcDbScale
 70
     0
300
1" = 1'-0"
140
1.0
141
12.0
290
     0
  0
SCALE
  5
65
102
{ACAD_REACTORS
330
47
102
}
330
47
100
AcDbScale
 70
     0
300
1-1/2" = 1'-0"
140
1.5
141
12.0
290
     0
  0
SCALE
  5
66
102
{ACAD_REACTORS
330
47
102
}
330
47
100
AcDbScale
 70
     0
300
3" = 1'-0"
140
3.0
141
12.0
290
     0
  0
SCALE
  5
67
102
{ACAD_REACTORS
330
47
102
}
330
47
100
AcDbScale
 70
     0
300
6" = 1'-0"
140
6.0
141
12.0
290
     0
  0
SCALE
  5
68
102
{ACAD_REACTORS
330
47
102
}
330
47
100
AcDbScale
 70
     0
300
1'-0" = 1'-0"
140
12.0
141
12.0
290
     0
  0
TABLESTYLE
  5
6A
102
{ACAD_REACTORS
330
69
102
}
102
{ACAD_XDICTIONARY
360
264
102
}
330
69
100
AcDbTableStyle
  3
Standard
 70
     0
 71
     0
 40
0.06
 41
0.06
280
     0
281
     0
  7
Standard
140
4.5
170
     2
 62
     0
 63
   257
283
     0
 90
        4
 91
        0
  1

274
    -2
284
     1
 64
     0
275
    -2
285
     1
 65
     0
276
    -2
286
     1
 66
     0
277
    -2
287
     1
 67
     0
278
    -2
288
     1
 68
     0
279
    -2
289
     1
 69
     0
  7
Standard
140
6.0
170
     5
 62
     0
 63
   257
283
     0
 90
        4
 91
        0
  1

274
    -2
284
     1
 64
     0
275
    -2
285
     1
 65
     0
276
    -2
286
     1
 66
     0
277
    -2
287
     1
 67
     0
278
    -2
288
     1
 68
     0
279
    -2
289
     1
 69
     0
  7
Standard
140
4.5
170
     5
 62
     0
 63
   257
283
     0
 90
        4
 91
        0
  1

274
    -2
284
     1
 64
     0
275
    -2
285
     1
 65
     0
276
    -2
286
     1
 66
     0
277
    -2
287
     1
 67
     0
278
    -2
288
     1
 68
     0
279
    -2
289
     1
 69
     0
  0
VISUALSTYLE
  5
2F
102
{ACAD_REACTORS
330
2A
102
}
102
{ACAD_XDICTIONARY
360
23C
102
}
330
2A
100
AcDbVisualStyle
  2
2dWireframe
 70
     4
 71
     0
 72
     2
 73
     0
 90
        0
 40
0.6
 41
30.0
 62
     5
 63
     7
421
 16777215
 74
     1
 91
        4
 64
     7
 65
   257
 75
     1
175
     1
 42
1.0
 92
        0
 66
   257
 43
1.0
 76
     1
 77
     6
 78
     2
 67
     7
 79
     5
170
     0
171
     0
290
     0
174
     0
 93
        1
 44
0.0
173
     0
291
     0
 45
0.0
  0
VISUALSTYLE
  5
32
102
{ACAD_REACTORS
330
2A
102
}
102
{ACAD_XDICTIONARY
360
242
102
}
330
2A
100
AcDbVisualStyle
  2
Basic
 70
     7
 71
     1
 72
     0
 73
     1
 90
        0
 40
0.6
 41
30.0
 62
     5
 63
     7
421
 16777215
 74
     0
 91
        4
 64
     7
 65
   257
 75
     1
175
     1
 42
1.0
 92
        8
 66
     7
 43
1.0
 76
     1
 77
     6
 78
     2
 67
     7
 79
     5
170
     0
171
     0
290
     0
174
     0
 93
        1
 44
0.0
173
     0
291
     1
 45
0.0
  0
VISUALSTYLE
  5
36
102
{ACAD_REACTORS
330
2A
102
}
102
{ACAD_XDICTIONARY
360
24A
102
}
330
2A
100
AcDbVisualStyle
  2
Brighten
 70
    12
 71
     2
 72
     2
 73
     0
 90
        0
 40
0.6
 41
30.0
 62
     5
 63
     7
421
 16777215
 74
     1
 91
        4
 64
     7
 65
   257
 75
     1
175
     1
 42
1.0
 92
        8
 66
     7
 43
1.0
 76
     1
 77
     6
 78
     2
 67
     7
 79
     5
170
     0
171
     0
290
     0
174
     0
 93
        1
 44
50.0
173
     0
291
     1
 45
0.0
  0
VISUALSTYLE
  5
3A
102
{ACAD_REACTORS
330
2A
102
}
102
{ACAD_XDICTIONARY
360
252
102
}
330
2A
100
AcDbVisualStyle
  2
ColorChange
 70
    16
 71
     2
 72
     2
 73
     3
 90
        0
 40
0.6
 41
30.0
 62
     5
 63
     8
421
  8421504
 74
     1
 91
        4
 64
     7
 65
   257
 75
     1
175
     1
 42
1.0
 92
        8
 66
     8
424
  8421504
 43
1.0
 76
     1
 77
     6
 78
     2
 67
     7
 79
     5
170
     0
171
     0
290
     0
174
     0
 93
        1
 44
0.0
173
     0
291
     1
 45
0.0
  0
VISUALSTYLE
  5
34
102
{ACAD_REACTORS
330
2A
102
}
102
{ACAD_XDICTIONARY
360
246
102
}
330
2A
100
AcDbVisualStyle
  2
Conceptual
 70
     9
 71
     3
 72
     2
 73
     0
 90
        0
 40
0.6
 41
30.0
 62
     5
 63
     7
421
 16777215
 74
     2
 91
        2
 64
     7
 65
   257
 75
     1
175
     1
 42
179.0
 92
        8
 66
     7
 43
1.0
 76
     1
 77
     6
 78
     2
 67
     7
 79
     3
170
     0
171
     0
290
     0
174
     0
 93
        1
 44
0.0
173
     0
291
     0
 45
0.0
  0
VISUALSTYLE
  5
35
102
{ACAD_REACTORS
330
2A
102
}
102
{ACAD_XDICTIONARY
360
248
102
}
330
2A
100
AcDbVisualStyle
  2
Dim
 70
    11
 71
     2
 72
     2
 73
     0
 90
        0
 40
0.6
 41
30.0
 62
     5
 63
     7
421
 16777215
 74
     1
 91
        4
 64
     7
 65
   257
 75
     1
175
     1
 42
1.0
 92
        8
 66
     7
 43
1.0
 76
     1
 77
     6
 78
     2
 67
     7
 79
     5
170
     0
171
     0
290
     0
174
     0
 93
        1
 44
-50.0
173
     0
291
     1
 45
0.0
  0
VISUALSTYLE
  5
3D
102
{ACAD_REACTORS
330
2A
102
}
102
{ACAD_XDICTIONARY
360
258
102
}
330
2A
100
AcDbVisualStyle
  2
EdgeColorOff
 70
    22
 71
     2
 72
     2
 73
     0
 90
        0
 40
0.6
 41
30.0
 62
     5
 63
     7
421
 16777215
 74
     1
 91
        4
 64
     7
 65
   257
 75
     1
175
     1
 42
1.0
 92
        8
 66
     7
 43
1.0
 76
     1
 77
     6
 78
     2
 67
     7
 79
     5
170
     0
171
     0
290
     0
174
     0
 93
        1
 44
0.0
173
     0
291
     1
 45
0.0
  0
VISUALSTYLE
  5
39
102
{ACAD_REACTORS
330
2A
102
}
102
{ACAD_XDICTIONARY
360
250
102
}
330
2A
100
AcDbVisualStyle
  2
Facepattern
 70
    15
 71
     2
 72
     2
 73
     0
 90
        0
 40
0.6
 41
30.0
 62
     5
 63
     7
421
 16777215
 74
     1
 91
        4
 64
     7
 65
   257
 75
     1
175
     1
 42
1.0
 92
        8
 66
     7
 43
1.0
 76
     1
 77
     6
 78
     2
 67
     7
 79
     5
170
     0
171
     0
290
     0
174
     0
 93
        1
 44
0.0
173
     0
291
     1
 45
0.0
  0
VISUALSTYLE
  5
2B
102
{ACAD_REACTORS
330
2A
102
}
102
{ACAD_XDICTIONARY
360
234
102
}
330
2A
100
AcDbVisualStyle
  2
Flat
 70
     0
 71
     2
 72
     1
 73
     1
 90
        2
 40
0.6
 41
30.0
 62
     5
 63
     7
421
 16777215
 74
     0
 91
        0
 64
     7
 65
   257
 75
     1
175
     1
 42
1.0
 92
        8
 66
     7
 43
1.0
 76
     1
 77
     6
 78
     2
 67
     7
 79
     5
170
     0
171
     0
290
     0
174
     0
 93
       13
 44
0.0
173
     0
291
     1
 45
0.0
  0
VISUALSTYLE
  5
2C
102
{ACAD_REACTORS
330
2A
102
}
102
{ACAD_XDICTIONARY
360
236
102
}
330
2A
100
AcDbVisualStyle
  2
FlatWithEdges
 70
     1
 71
     2
 72
     1
 73
     1
 90
        2
 40
0.6
 41
30.0
 62
     5
 63
     7
421
 16777215
 74
     1
 91
        0
 64
     7
 65
   257
 75
     1
175
     1
 42
1.0
 92
        0
 66
   257
 43
1.0
 76
     1
 77
     6
 78
     2
 67
     7
 79
     5
170
     0
171
     0
290
     0
174
     0
 93
       13
 44
0.0
173
     0
291
     1
 45
0.0
  0
VISUALSTYLE
  5
2D
102
{ACAD_REACTORS
330
2A
102
}
102
{ACAD_XDICTIONARY
360
238
102
}
330
2A
100
AcDbVisualStyle
  2
Gouraud
 70
     2
 71
     2
 72
     2
 73
     1
 90
        2
 40
0.6
 41
30.0
 62
     5
 63
     7
421
 16777215
 74
     0
 91
        0
 64
     7
 65
   257
 75
     1
175
     1
 42
1.0
 92
        0
 66
     7
 43
1.0
 76
     1
 77
     6
 78
     2
 67
     7
 79
     5
170
     0
171
     0
290
     0
174
     0
 93
       13
 44
0.0
173
     0
291
     1
 45
0.0
  0
VISUALSTYLE
  5
2E
102
{ACAD_REACTORS
330
2A
102
}
102
{ACAD_XDICTIONARY
360
23A
102
}
330
2A
100
AcDbVisualStyle
  2
GouraudWithEdges
 70
     3
 71
     2
 72
     2
 73
     1
 90
        2
 40
0.6
 41
30.0
 62
     5
 63
     7
421
 16777215
 74
     1
 91
        0
 64
     7
 65
   257
 75
     1
175
     1
 42
1.0
 92
        0
 66
   257
 43
1.0
 76
     1
 77
     6
 78
     2
 67
     7
 79
     5
170
     0
171
     0
290
     0
174
     0
 93
       13
 44
0.0
173
     0
291
     1
 45
0.0
  0
VISUALSTYLE
  5
31
102
{ACAD_REACTORS
330
2A
102
}
102
{ACAD_XDICTIONARY
360
240
102
}
330
2A
100
AcDbVisualStyle
  2
Hidden
 70
     6
 71
     1
 72
     2
 73
     2
 90
        0
 40
0.6
 41
30.0
 62
     5
 63
     7
421
 16777215
 74
     2
 91
        2
 64
     7
 65
   257
 75
     2
175
     1
 42
40.0
 92
        0
 66
   257
 43
1.0
 76
     1
 77
     6
 78
     2
 67
     7
 79
     3
170
     0
171
     0
290
     0
174
     0
 93
        1
 44
0.0
173
     0
291
     0
 45
0.0
  0
VISUALSTYLE
  5
3B
102
{ACAD_REACTORS
330
2A
102
}
102
{ACAD_XDICTIONARY
360
254
102
}
330
2A
100
AcDbVisualStyle
  2
JitterOff
 70
    20
 71
     2
 72
     2
 73
     0
 90
        0
 40
0.6
 41
30.0
 62
     5
 63
     7
421
 16777215
 74
     1
 91
        4
 64
     7
 65
   257
 75
     1
175
     1
 42
1.0
 92
       10
 66
     7
 43
1.0
 76
     1
 77
     6
 78
     2
 67
     7
 79
     5
170
     0
171
     0
290
     0
174
     0
 93
        1
 44
0.0
173
     0
291
     1
 45
0.0
  0
VISUALSTYLE
  5
38
102
{ACAD_REACTORS
330
2A
102
}
102
{ACAD_XDICTIONARY
360
24E
102
}
330
2A
100
AcDbVisualStyle
  2
Linepattern
 70
    14
 71
     2
 72
     2
 73
     0
 90
        0
 40
0.6
 41
30.0
 62
     5
 63
     7
421
 16777215
 74
     1
 91
        4
 64
     7
 65
   257
 75
     7
175
     7
 42
1.0
 92
        8
 66
     7
 43
1.0
 76
     1
 77
     6
 78
     2
 67
     7
 79
     5
170
     0
171
     0
290
     0
174
     0
 93
        1
 44
0.0
173
     0
291
     1
 45
0.0
  0
VISUALSTYLE
  5
3C
102
{ACAD_REACTORS
330
2A
102
}
102
{ACAD_XDICTIONARY
360
256
102
}
330
2A
100
AcDbVisualStyle
  2
OverhangOff
 70
    21
 71
     2
 72
     2
 73
     0
 90
        0
 40
0.6
 41
30.0
 62
     5
 63
     7
421
 16777215
 74
     1
 91
        4
 64
     7
 65
   257
 75
     1
175
     1
 42
1.0
 92
        9
 66
     7
 43
1.0
 76
     1
 77
     6
 78
     2
 67
     7
 79
     5
170
     0
171
     0
290
     0
174
     0
 93
        1
 44
0.0
173
     0
291
     1
 45
0.0
  0
VISUALSTYLE
  5
33
102
{ACAD_REACTORS
330
2A
102
}
102
{ACAD_XDICTIONARY
360
244
102
}
330
2A
100
AcDbVisualStyle
  2
Realistic
 70
     8
 71
     2
 72
     3
 73
     0
 90
        2
 40
0.6
 41
30.0
 62
     5
 63
     7
421
 16777215
 74
     0
 91
        0
 64
     7
 65
   257
 75
     1
175
     1
 42
1.0
 92
        8
 66
   257
 43
1.0
 76
     1
 77
     6
 78
     2
 67
     7
 79
     3
170
     0
171
     0
290
     0
174
     0
 93
       13
 44
0.0
173
     0
291
     0
 45
0.0
  0
VISUALSTYLE
  5
42
102
{ACAD_REACTORS
330
2A
102
}
102
{ACAD_XDICTIONARY
360
262
102
}
330
2A
100
AcDbVisualStyle
  2
Shaded
 70
    27
 71
     2
 72
     2
 73
     1
 90
        2
 40
0.6
 41
30.0
 62
     5
 63
     7
421
 16777215
 74
     0
 91
        4
 64
     7
 65
   257
 75
     1
175
     1
 42
1.0
 92
        8
 66
   257
 43
1.0
 76
     1
 77
     6
 78
     2
 67
     8
425
  7895160
 79
     3
170
     0
171
     0
290
     0
174
     0
 93
        5
 44
0.0
173
     0
291
     0
 45
0.0
  0
VISUALSTYLE
  5
41
102
{ACAD_REACTORS
330
2A
102
}
102
{ACAD_XDICTIONARY
360
260
102
}
330
2A
100
AcDbVisualStyle
  2
Shaded with edges
 70
    26
 71
     2
 72
     2
 73
     1
 90
        2
 40
0.6
 41
30.0
 62
     5
 63
     7
421
 16777215
 74
     1
 91
       10
 64
     7
 65
   257
 75
     2
175
     1
 42
1.0
 92
        8
 66
   257
 43
1.0
 76
     1
 77
     6
 78
     2
 67
     7
 79
     3
170
     0
171
     0
290
     0
174
     0
 93
        5
 44
0.0
173
     0
291
     0
 45
0.0
  0
VISUALSTYLE
  5
3E
102
{ACAD_REACTORS
330
2A
102
}
102
{ACAD_XDICTIONARY
360
25A
102
}
330
2A
100
AcDbVisualStyle
  2
Shades of Gray
 70
    23
 71
     2
 72
     2
 73
     3
 90
        0
 40
0.6
 41
30.0
 62
     5
 63
     7
421
 16777215
 74
     2
 91
        2
 64
     7
 65
     7
 75
     1
175
     1
 42
40.0
 92
        8
 66
     7
 43
1.0
 76
     1
 77
     6
 78
     2
 67
     7
 79
     3
170
     0
171
     0
290
     0
174
     0
 93
        1
 44
0.0
173
     0
291
     0
 45
0.0
  0
VISUALSTYLE
  5
3F
102
{ACAD_REACTORS
330
2A
102
}
102
{ACAD_XDICTIONARY
360
25C
102
}
330
2A
100
AcDbVisualStyle
  2
Sketchy
 70
    24
 71
     1
 72
     2
 73
     2
 90
        0
 40
0.6
 41
30.0
 62
     5
 63
     7
421
 16777215
 74
     2
 91
        2
 64
     7
 65
     7
 75
     1
175
     1
 42
40.0
 92
       11
 66
     7
 43
1.0
 76
     1
 77
     6
 78
     2
 67
     7
 79
     6
170
     0
171
     0
290
     0
174
     0
 93
        1
 44
0.0
173
     0
291
     0
 45
0.0
  0
VISUALSTYLE
  5
37
102
{ACAD_REACTORS
330
2A
102
}
102
{ACAD_XDICTIONARY
360
24C
102
}
330
2A
100
AcDbVisualStyle
  2
Thicken
 70
    13
 71
     2
 72
     2
 73
     0
 90
        0
 40
0.6
 41
30.0
 62
     5
 63
     7
421
 16777215
 74
     1
 91
        4
 64
     7
 65
   257
 75
     1
175
     1
 42
1.0
 92
       12
 66
     7
 43
1.0
 76
     1
 77
     6
 78
     2
 67
     7
 79
     5
170
     0
171
     0
290
     0
174
     0
 93
        1
 44
0.0
173
     0
291
     1
 45
0.0
  0
VISUALSTYLE
  5
30
102
{ACAD_REACTORS
330
2A
102
}
102
{ACAD_XDICTIONARY
360
23E
102
}
330
2A
100
AcDbVisualStyle
  2
Wireframe
 70
     5
 71
     0
 72
     2
 73
     0
 90
        0
 40
0.6
 41
30.0
 62
     5
 63
     7
421
 16777215
 74
     1
 91
        4
 64
     7
 65
   257
 75
     1
175
     1
 42
1.0
 92
        0
 66
   257
 43
1.0
 76
     1
 77
     6
 78
     2
 67
     7
 79
     3
170
     0
171
     0
290
     0
174
     0
 93
        1
 44
0.0
173
     0
291
     0
 45
0.0
  0
VISUALSTYLE
  5
40
102
{ACAD_REACTORS
330
2A
102
}
102
{ACAD_XDICTIONARY
360
25E
102
}
330
2A
100
AcDbVisualStyle
  2
X-Ray
 70
    25
 71
     2
 72
     2
 73
     1
 90
        1
 40
0.5
 41
30.0
 62
     5
 63
     7
421
 16777215
 74
     1
 91
        0
 64
     7
 65
   257
 75
     1
175
     1
 42
1.0
 92
        8
 66
     7
 43
1.0
 76
     1
 77
     6
 78
     2
 67
     7
 79
     3
170
     0
171
     0
290
     0
174
     0
 93
       13
 44
0.0
173
     0
291
     0
 45
0.0
  0
DICTIONARYVAR
  5
232
102
{ACAD_REACTORS
330
231
102
}
330
231
100
DictionaryVariables
280
     0
  1
1:1
  0
DICTIONARYVAR
  5
26A
102
{ACAD_REACTORS
330
231
102
}
330
231
100
DictionaryVariables
280
     0
  1
Standard
  0
DICTIONARYVAR
  5
269
102
{ACAD_REACTORS
330
231
102
}
330
231
100
DictionaryVariables
280
     0
  1
Standard
  0
DICTIONARYVAR
  5
26D
102
{ACAD_REACTORS
330
231
102
}
330
231
100
DictionaryVariables
280
     0
  1
6.000000
  0
DICTIONARYVAR
  5
233
102
{ACAD_REACTORS
330
231
102
}
330
231
100
DictionaryVariables
280
     0
  1
2
  0
DICTIONARY
  5
266
330
6C
100
AcDbDictionary
280
     1
281
     1
  3
ACAD_XREC_ROUNDTRIP
360
267
  0
DICTIONARY
  5
264
330
6A
100
AcDbDictionary
280
     1
281
     1
  3
ACAD_ROUNDTRIP_2008_TABLESTYLE_CELLSTYLEMAP
360
265
  0
DICTIONARY
  5
23C
330
2F
100
AcDbDictionary
280
     1
281
     1
  3
ACAD_XREC_ROUNDTRIP
360
23D
  0
DICTIONARY
  5
242
330
32
100
AcDbDictionary
280
     1
281
     1
  3
ACAD_XREC_ROUNDTRIP
360
243
  0
DICTIONARY
  5
24A
330
36
100
AcDbDictionary
280
     1
281
     1
  3
ACAD_XREC_ROUNDTRIP
360
24B
  0
DICTIONARY
  5
252
330
3A
100
AcDbDictionary
280
     1
281
     1
  3
ACAD_XREC_ROUNDTRIP
360
253
  0
DICTIONARY
  5
246
330
34
100
AcDbDictionary
280
     1
281
     1
  3
ACAD_XREC_ROUNDTRIP
360
247
  0
DICTIONARY
  5
248
330
35
100
AcDbDictionary
280
     1
281
     1
  3
ACAD_XREC_ROUNDTRIP
360
249
  0
DICTIONARY
  5
258
330
3D
100
AcDbDictionary
280
     1
281
     1
  3
ACAD_XREC_ROUNDTRIP
360
259
  0
DICTIONARY
  5
250
330
39
100
AcDbDictionary
280
     1
281
     1
  3
ACAD_XREC_ROUNDTRIP
360
251
  0
DICTIONARY
  5
234
330
2B
100
AcDbDictionary
280
     1
281
     1
  3
ACAD_XREC_ROUNDTRIP
360
235
  0
DICTIONARY
  5
236
330
2C
100
AcDbDictionary
280
     1
281
     1
  3
ACAD_XREC_ROUNDTRIP
360
237
  0
DICTIONARY
  5
238
330
2D
100
AcDbDictionary
280
     1
281
     1
  3
ACAD_XREC_ROUNDTRIP
360
239
  0
DICTIONARY
  5
23A
330
2E
100
AcDbDictionary
280
     1
281
     1
  3
ACAD_XREC_ROUNDTRIP
360
23B
  0
DICTIONARY
  5
240
330
31
100
AcDbDictionary
280
     1
281
     1
  3
ACAD_XREC_ROUNDTRIP
360
241
  0
DICTIONARY
  5
254
330
3B
100
AcDbDictionary
280
     1
281
     1
  3
ACAD_XREC_ROUNDTRIP
360
255
  0
DICTIONARY
  5
24E
330
38
100
AcDbDictionary
280
     1
281
     1
  3
ACAD_XREC_ROUNDTRIP
360
24F
  0
DICTIONARY
  5
256
330
3C
100
AcDbDictionary
280
     1
281
     1
  3
ACAD_XREC_ROUNDTRIP
360
257
  0
DICTIONARY
  5
244
330
33
100
AcDbDictionary
280
     1
281
     1
  3
ACAD_XREC_ROUNDTRIP
360
245
  0
DICTIONARY
  5
262
330
42
100
AcDbDictionary
280
     1
281
     1
  3
ACAD_XREC_ROUNDTRIP
360
263
  0
DICTIONARY
  5
260
330
41
100
AcDbDictionary
280
     1
281
     1
  3
ACAD_XREC_ROUNDTRIP
360
261
  0
DICTIONARY
  5
25A
330
3E
100
AcDbDictionary
280
     1
281
     1
  3
ACAD_XREC_ROUNDTRIP
360
25B
  0
DICTIONARY
  5
25C
330
3F
100
AcDbDictionary
280
     1
281
     1
  3
ACAD_XREC_ROUNDTRIP
360
25D
  0
DICTIONARY
  5
24C
330
37
100
AcDbDictionary
280
     1
281
     1
  3
ACAD_XREC_ROUNDTRIP
360
24D
  0
DICTIONARY
  5
23E
330
30
100
AcDbDictionary
280
     1
281
     1
  3
ACAD_XREC_ROUNDTRIP
360
23F
  0
DICTIONARY
  5
25E
330
40
100
AcDbDictionary
280
     1
281
     1
  3
ACAD_XREC_ROUNDTRIP
360
25F
  0
XRECORD
  5
267
102
{ACAD_REACTORS
330
266
102
}
330
266
100
AcDbXrecord
280
     1
102
ACAD_ROUNDTRIP_2010_MLEADER_STYLE
  0
CELLSTYLEMAP
  5
265
102
{ACAD_REACTORS
330
264
102
}
330
264
100
AcDbCellStyleMap
 90
        3
300
CELLSTYLE
  1
TABLEFORMAT_BEGIN
 90
        5
170
     1
 91
        0
 92
    32768
 62
   257
 93
        1
300
CONTENTFORMAT
  1
CONTENTFORMAT_BEGIN
 90
        0
 91
        0
 92
        4
 93
        0
300

 40
0.0
140
1.0
 94
        5
 62
     0
340
11
144
6.0
309
CONTENTFORMAT_END
171
     1
301
MARGIN
  1
CELLMARGIN_BEGIN
 40
1.5
 40
1.5
 40
1.5
 40
1.5
 40
1.5
 40
1.5
309
CELLMARGIN_END
 94
        6
 95
        1
302
GRIDFORMAT
  1
GRIDFORMAT_BEGIN
 90
        0
 91
        1
 62
     0
 92
       -2
340
14
 93
        0
 40
0.045
309
GRIDFORMAT_END
 95
        2
302
GRIDFORMAT
  1
GRIDFORMAT_BEGIN
 90
        0
 91
        1
 62
     0
 92
       -2
340
14
 93
        0
 40
0.045
309
GRIDFORMAT_END
 95
        4
302
GRIDFORMAT
  1
GRIDFORMAT_BEGIN
 90
        0
 91
        1
 62
     0
 92
       -2
340
14
 93
        0
 40
0.045
309
GRIDFORMAT_END
 95
        8
302
GRIDFORMAT
  1
GRIDFORMAT_BEGIN
 90
        0
 91
        1
 62
     0
 92
       -2
340
14
 93
        0
 40
0.045
309
GRIDFORMAT_END
 95
       16
302
GRIDFORMAT
  1
GRIDFORMAT_BEGIN
 90
        0
 91
        1
 62
     0
 92
       -2
340
14
 93
        0
 40
0.045
309
GRIDFORMAT_END
 95
       32
302
GRIDFORMAT
  1
GRIDFORMAT_BEGIN
 90
        0
 91
        1
 62
     0
 92
       -2
340
14
 93
        0
 40
0.045
309
GRIDFORMAT_END
309
TABLEFORMAT_END
  1
CELLSTYLE_BEGIN
 90
        1
 91
        1
300
_TITLE
309
CELLSTYLE_END
300
CELLSTYLE
  1
TABLEFORMAT_BEGIN
 90
        5
170
     1
 91
        0
 92
        0
 62
   257
 93
        1
300
CONTENTFORMAT
  1
CONTENTFORMAT_BEGIN
 90
        0
 91
        0
 92
        4
 93
        0
300

 40
0.0
140
1.0
 94
        5
 62
     0
340
11
144
4.5
309
CONTENTFORMAT_END
171
     1
301
MARGIN
  1
CELLMARGIN_BEGIN
 40
1.5
 40
1.5
 40
1.5
 40
1.5
 40
1.5
 40
1.5
309
CELLMARGIN_END
 94
        6
 95
        1
302
GRIDFORMAT
  1
GRIDFORMAT_BEGIN
 90
        0
 91
        1
 62
     0
 92
       -2
340
14
 93
        0
 40
0.045
309
GRIDFORMAT_END
 95
        2
302
GRIDFORMAT
  1
GRIDFORMAT_BEGIN
 90
        0
 91
        1
 62
     0
 92
       -2
340
14
 93
        0
 40
0.045
309
GRIDFORMAT_END
 95
        4
302
GRIDFORMAT
  1
GRIDFORMAT_BEGIN
 90
        0
 91
        1
 62
     0
 92
       -2
340
14
 93
        0
 40
0.045
309
GRIDFORMAT_END
 95
        8
302
GRIDFORMAT
  1
GRIDFORMAT_BEGIN
 90
        0
 91
        1
 62
     0
 92
       -2
340
14
 93
        0
 40
0.045
309
GRIDFORMAT_END
 95
       16
302
GRIDFORMAT
  1
GRIDFORMAT_BEGIN
 90
        0
 91
        1
 62
     0
 92
       -2
340
14
 93
        0
 40
0.045
309
GRIDFORMAT_END
 95
       32
302
GRIDFORMAT
  1
GRIDFORMAT_BEGIN
 90
        0
 91
        1
 62
     0
 92
       -2
340
14
 93
        0
 40
0.045
309
GRIDFORMAT_END
309
TABLEFORMAT_END
  1
CELLSTYLE_BEGIN
 90
        2
 91
        1
300
_HEADER
309
CELLSTYLE_END
300
CELLSTYLE
  1
TABLEFORMAT_BEGIN
 90
        5
170
     1
 91
        0
 92
        0
 62
   257
 93
        1
300
CONTENTFORMAT
  1
CONTENTFORMAT_BEGIN
 90
        0
 91
        0
 92
        4
 93
        0
300

 40
0.0
140
1.0
 94
        2
 62
     0
340
11
144
4.5
309
CONTENTFORMAT_END
171
     1
301
MARGIN
  1
CELLMARGIN_BEGIN
 40
1.5
 40
1.5
 40
1.5
 40
1.5
 40
1.5
 40
1.5
309
CELLMARGIN_END
 94
        6
 95
        1
302
GRIDFORMAT
  1
GRIDFORMAT_BEGIN
 90
        0
 91
        1
 62
     0
 92
       -2
340
14
 93
        0
 40
0.045
309
GRIDFORMAT_END
 95
        2
302
GRIDFORMAT
  1
GRIDFORMAT_BEGIN
 90
        0
 91
        1
 62
     0
 92
       -2
340
14
 93
        0
 40
0.045
309
GRIDFORMAT_END
 95
        4
302
GRIDFORMAT
  1
GRIDFORMAT_BEGIN
 90
        0
 91
        1
 62
     0
 92
       -2
340
14
 93
        0
 40
0.045
309
GRIDFORMAT_END
 95
        8
302
GRIDFORMAT
  1
GRIDFORMAT_BEGIN
 90
        0
 91
        1
 62
     0
 92
       -2
340
14
 93
        0
 40
0.045
309
GRIDFORMAT_END
 95
       16
302
GRIDFORMAT
  1
GRIDFORMAT_BEGIN
 90
        0
 91
        1
 62
     0
 92
       -2
340
14
 93
        0
 40
0.045
309
GRIDFORMAT_END
 95
       32
302
GRIDFORMAT
  1
GRIDFORMAT_BEGIN
 90
        0
 91
        1
 62
     0
 92
       -2
340
14
 93
        0
 40
0.045
309
GRIDFORMAT_END
309
TABLEFORMAT_END
  1
CELLSTYLE_BEGIN
 90
        3
 91
        2
300
_DATA
309
CELLSTYLE_END
  0
XRECORD
  5
23D
102
{ACAD_REACTORS
330
23C
102
}
330
23C
100
AcDbXrecord
280
     1
102
RTVSPropertyOp0
 70
     1
102
RTVSPropertyOp1
 70
     1
102
RTVSPropertyOp2
 70
     1
102
RTVSPropertyOp3
 70
     1
102
RTVSPropertyOp4
 70
     1
102
RTVSPropertyOp5
 70
     1
102
RTVSPropertyOp6
 70
     1
102
RTVSPropertyOp7
 70
     1
102
RTVSPropertyOp8
 70
     1
102
RTVSPropertyOp9
 70
     1
102
RTVSPropertyOp10
 70
     1
102
RTVSPropertyOp11
 70
     1
102
RTVSPropertyOp12
 70
     1
102
RTVSPropertyOp13
 70
     1
102
RTVSPropertyOp14
 70
     1
102
RTVSPropertyOp15
 70
     1
102
RTVSPropertyOp16
 70
     1
102
RTVSPropertyOp17
 70
     1
102
RTVSPropertyOp18
 70
     1
102
RTVSPropertyOp19
 70
     1
102
RTVSPropertyOp20
 70
     1
102
RTVSPropertyOp21
 70
     1
102
RTVSPropertyOp22
 70
     1
102
RTVSPropertyOp23
 70
     1
102
RTVSPropertyOp24
 70
     1
102
RTVSPropertyOp25
 70
     1
102
RTVSPropertyOp26
 70
     1
102
RTVSPropertyOp27
 70
     1
102
RTVSPropertyOp28
 70
     1
102
RTVSPropertyOp29
 70
     1
102
RTVSPropertyOp30
 70
     1
102
RTVSPropertyOp31
 70
     1
102
RTVSPropertyOp32
 70
     1
102
RTVSPropertyOp33
 70
     1
102
RTVSPropertyOp34
 70
     1
102
RTVSPropertyOp35
 70
     1
102
RTVSPropertyOp36
 70
     1
102
RTVSPropertyOp37
 70
     1
102
RTVSPropertyOp38
 70
     1
102
RTVSPropertyOp39
 70
     1
102
RTVSPropertyOp40
 70
     1
102
RTVSPropertyOp41
 70
     1
102
RTVSPropertyOp42
 70
     1
102
RTVSPropertyOp43
 70
     1
102
RTVSPropertyOp44
 70
     1
102
RTVSPropertyOp45
 70
     1
102
RTVSPropertyOp46
 70
     1
102
RTVSPropertyOp47
 70
     1
102
RTVSPropertyOp48
 70
     1
102
RTVSPropertyOp49
 70
     1
102
RTVSPropertyOp50
 70
     1
102
RTVSPropertyOp51
 70
     0
102
RTVSPropertyOp52
 70
     0
102
RTVSPropertyOp53
 70
     1
102
RTVSPropertyOp54
 70
     1
102
RTVSPropertyOp55
 70
     1
102
RTVSPropertyOp56
 70
     1
102
RTVSPropertyOp57
 70
     1
102
RTVSPost2010Prop28
280
     1
102
RTVSPost2010PropOp28
 70
     1
102
RTVSPost2010Prop29
280
     1
102
RTVSPost2010PropOp29
 70
     1
102
RTVSPost2010Prop30
280
     0
102
RTVSPost2010PropOp30
 70
     1
102
RTVSPost2010Prop31
280
     0
102
RTVSPost2010PropOp31
 70
     1
102
RTVSPost2010Prop32
280
     0
102
RTVSPost2010PropOp32
 70
     1
102
RTVSPost2010Prop33
280
     0
102
RTVSPost2010PropOp33
 70
     1
102
RTVSPost2010Prop34
280
     0
102
RTVSPost2010PropOp34
 70
     1
102
RTVSPost2010Prop35
280
     0
102
RTVSPost2010PropOp35
 70
     1
102
RTVSPost2010Prop36
280
     0
102
RTVSPost2010PropOp36
 70
     1
102
RTVSPost2010Prop37
 90
       50
102
RTVSPost2010PropOp37
 70
     1
102
RTVSPost2010Prop38
140
0.0
102
RTVSPost2010PropOp38
 70
     1
102
RTVSPost2010Prop39
140
1.0
102
RTVSPost2010PropOp39
 70
     1
102
RTVSPost2010Prop40
 90
        0
102
RTVSPost2010PropOp40
 70
     1
102
RTVSPost2010Prop41ColorIndex
 90
       18
102
RTVSPost2010Prop41ColorRGB
 90
        0
102
RTVSPost2010PropOp41
 70
     1
102
RTVSPost2010Prop42
 90
       50
102
RTVSPost2010PropOp42
 70
     1
102
RTVSPost2010Prop43
 90
        3
102
RTVSPost2010PropOp43
 70
     1
102
RTVSPost2010Prop44ColorIndex
 90
        5
102
RTVSPost2010Prop44ColorRGB
 90
      255
102
RTVSPost2010PropOp44
 70
     1
102
RTVSPost2010Prop45
280
     0
102
RTVSPost2010PropOp45
 70
     1
102
RTVSPost2010Prop46
 90
       50
102
RTVSPost2010PropOp46
 70
     1
102
RTVSPost2010Prop47
 90
       50
102
RTVSPost2010PropOp47
 70
     1
102
RTVSPost2010Prop48
 90
       50
102
RTVSPost2010PropOp48
 70
     1
102
RTVSPost2010Prop49
280
     0
102
RTVSPost2010PropOp49
 70
     1
102
RTVSPost2010Prop50
 90
       50
102
RTVSPost2010PropOp50
 70
     1
102
RTVSPost2010Prop51ColorIndex
 90
      256
102
RTVSPost2010Prop51ColorRGB
 90
-16777216
102
RTVSPost2010PropOp51
 70
     0
102
RTVSPost2010Prop52
140
1.0
102
RTVSPost2010PropOp52
 70
     0
102
RTVSPost2010Prop53
 90
        2
102
RTVSPost2010PropOp53
 70
     1
102
RTVSPost2010Prop54
  1
strokes_ogs.tif
102
RTVSPost2010PropOp54
 70
     1
102
RTVSPost2010Prop55
280
     0
102
RTVSPost2010PropOp55
 70
     1
102
RTVSPost2010Prop56
140
1.0
102
RTVSPost2010PropOp56
 70
     1
102
RTVSPost2010Prop57
140
1.0
102
RTVSPost2010PropOp57
 70
     1
  0
XRECORD
  5
243
102
{ACAD_REACTORS
330
242
102
}
330
242
100
AcDbXrecord
280
     1
102
RTVSPropertyOp0
 70
     1
102
RTVSPropertyOp1
 70
     1
102
RTVSPropertyOp2
 70
     1
102
RTVSPropertyOp3
 70
     1
102
RTVSPropertyOp4
 70
     1
102
RTVSPropertyOp5
 70
     1
102
RTVSPropertyOp6
 70
     1
102
RTVSPropertyOp7
 70
     1
102
RTVSPropertyOp8
 70
     1
102
RTVSPropertyOp9
 70
     1
102
RTVSPropertyOp10
 70
     1
102
RTVSPropertyOp11
 70
     1
102
RTVSPropertyOp12
 70
     1
102
RTVSPropertyOp13
 70
     1
102
RTVSPropertyOp14
 70
     1
102
RTVSPropertyOp15
 70
     1
102
RTVSPropertyOp16
 70
     1
102
RTVSPropertyOp17
 70
     1
102
RTVSPropertyOp18
 70
     1
102
RTVSPropertyOp19
 70
     1
102
RTVSPropertyOp20
 70
     1
102
RTVSPropertyOp21
 70
     1
102
RTVSPropertyOp22
 70
     1
102
RTVSPropertyOp23
 70
     1
102
RTVSPropertyOp24
 70
     1
102
RTVSPropertyOp25
 70
     1
102
RTVSPropertyOp26
 70
     1
102
RTVSPropertyOp27
 70
     1
102
RTVSPropertyOp28
 70
     1
102
RTVSPropertyOp29
 70
     1
102
RTVSPropertyOp30
 70
     1
102
RTVSPropertyOp31
 70
     1
102
RTVSPropertyOp32
 70
     1
102
RTVSPropertyOp33
 70
     1
102
RTVSPropertyOp34
 70
     1
102
RTVSPropertyOp35
 70
     1
102
RTVSPropertyOp36
 70
     1
102
RTVSPropertyOp37
 70
     1
102
RTVSPropertyOp38
 70
     1
102
RTVSPropertyOp39
 70
     1
102
RTVSPropertyOp40
 70
     1
102
RTVSPropertyOp41
 70
     1
102
RTVSPropertyOp42
 70
     1
102
RTVSPropertyOp43
 70
     1
102
RTVSPropertyOp44
 70
     1
102
RTVSPropertyOp45
 70
     1
102
RTVSPropertyOp46
 70
     1
102
RTVSPropertyOp47
 70
     1
102
RTVSPropertyOp48
 70
     1
102
RTVSPropertyOp49
 70
     1
102
RTVSPropertyOp50
 70
     1
102
RTVSPropertyOp51
 70
     0
102
RTVSPropertyOp52
 70
     0
102
RTVSPropertyOp53
 70
     1
102
RTVSPropertyOp54
 70
     1
102
RTVSPropertyOp55
 70
     1
102
RTVSPropertyOp56
 70
     1
102
RTVSPropertyOp57
 70
     1
102
RTVSPost2010Prop28
280
     0
102
RTVSPost2010PropOp28
 70
     1
102
RTVSPost2010Prop29
280
     1
102
RTVSPost2010PropOp29
 70
     1
102
RTVSPost2010Prop30
280
     1
102
RTVSPost2010PropOp30
 70
     1
102
RTVSPost2010Prop31
280
     0
102
RTVSPost2010PropOp31
 70
     1
102
RTVSPost2010Prop32
280
     0
102
RTVSPost2010PropOp32
 70
     1
102
RTVSPost2010Prop33
280
     0
102
RTVSPost2010PropOp33
 70
     1
102
RTVSPost2010Prop34
280
     0
102
RTVSPost2010PropOp34
 70
     1
102
RTVSPost2010Prop35
280
     0
102
RTVSPost2010PropOp35
 70
     1
102
RTVSPost2010Prop36
280
     0
102
RTVSPost2010PropOp36
 70
     1
102
RTVSPost2010Prop37
 90
       50
102
RTVSPost2010PropOp37
 70
     1
102
RTVSPost2010Prop38
140
0.0
102
RTVSPost2010PropOp38
 70
     1
102
RTVSPost2010Prop39
140
1.0
102
RTVSPost2010PropOp39
 70
     1
102
RTVSPost2010Prop40
 90
        0
102
RTVSPost2010PropOp40
 70
     1
102
RTVSPost2010Prop41ColorIndex
 90
       18
102
RTVSPost2010Prop41ColorRGB
 90
        0
102
RTVSPost2010PropOp41
 70
     1
102
RTVSPost2010Prop42
 90
       50
102
RTVSPost2010PropOp42
 70
     1
102
RTVSPost2010Prop43
 90
        3
102
RTVSPost2010PropOp43
 70
     1
102
RTVSPost2010Prop44ColorIndex
 90
        5
102
RTVSPost2010Prop44ColorRGB
 90
      255
102
RTVSPost2010PropOp44
 70
     1
102
RTVSPost2010Prop45
280
     0
102
RTVSPost2010PropOp45
 70
     1
102
RTVSPost2010Prop46
 90
       50
102
RTVSPost2010PropOp46
 70
     1
102
RTVSPost2010Prop47
 90
       50
102
RTVSPost2010PropOp47
 70
     1
102
RTVSPost2010Prop48
 90
       50
102
RTVSPost2010PropOp48
 70
     1
102
RTVSPost2010Prop49
280
     0
102
RTVSPost2010PropOp49
 70
     1
102
RTVSPost2010Prop50
 90
       50
102
RTVSPost2010PropOp50
 70
     1
102
RTVSPost2010Prop51ColorIndex
 90
      256
102
RTVSPost2010Prop51ColorRGB
 90
-16777216
102
RTVSPost2010PropOp51
 70
     0
102
RTVSPost2010Prop52
140
1.0
102
RTVSPost2010PropOp52
 70
     0
102
RTVSPost2010Prop53
 90
        2
102
RTVSPost2010PropOp53
 70
     1
102
RTVSPost2010Prop54
  1
strokes_ogs.tif
102
RTVSPost2010PropOp54
 70
     1
102
RTVSPost2010Prop55
280
     0
102
RTVSPost2010PropOp55
 70
     1
102
RTVSPost2010Prop56
140
1.0
102
RTVSPost2010PropOp56
 70
     1
102
RTVSPost2010Prop57
140
1.0
102
RTVSPost2010PropOp57
 70
     1
  0
XRECORD
  5
24B
102
{ACAD_REACTORS
330
24A
102
}
330
24A
100
AcDbXrecord
280
     1
102
RTVSPropertyOp0
 70
     1
102
RTVSPropertyOp1
 70
     1
102
RTVSPropertyOp2
 70
     1
102
RTVSPropertyOp3
 70
     1
102
RTVSPropertyOp4
 70
     1
102
RTVSPropertyOp5
 70
     1
102
RTVSPropertyOp6
 70
     1
102
RTVSPropertyOp7
 70
     1
102
RTVSPropertyOp8
 70
     1
102
RTVSPropertyOp9
 70
     1
102
RTVSPropertyOp10
 70
     1
102
RTVSPropertyOp11
 70
     1
102
RTVSPropertyOp12
 70
     1
102
RTVSPropertyOp13
 70
     1
102
RTVSPropertyOp14
 70
     1
102
RTVSPropertyOp15
 70
     1
102
RTVSPropertyOp16
 70
     1
102
RTVSPropertyOp17
 70
     1
102
RTVSPropertyOp18
 70
     1
102
RTVSPropertyOp19
 70
     1
102
RTVSPropertyOp20
 70
     1
102
RTVSPropertyOp21
 70
     1
102
RTVSPropertyOp22
 70
     1
102
RTVSPropertyOp23
 70
     1
102
RTVSPropertyOp24
 70
     1
102
RTVSPropertyOp25
 70
     1
102
RTVSPropertyOp26
 70
     1
102
RTVSPropertyOp27
 70
     1
102
RTVSPropertyOp28
 70
     1
102
RTVSPropertyOp29
 70
     1
102
RTVSPropertyOp30
 70
     1
102
RTVSPropertyOp31
 70
     1
102
RTVSPropertyOp32
 70
     1
102
RTVSPropertyOp33
 70
     1
102
RTVSPropertyOp34
 70
     1
102
RTVSPropertyOp35
 70
     1
102
RTVSPropertyOp36
 70
     1
102
RTVSPropertyOp37
 70
     1
102
RTVSPropertyOp38
 70
     1
102
RTVSPropertyOp39
 70
     1
102
RTVSPropertyOp40
 70
     1
102
RTVSPropertyOp41
 70
     1
102
RTVSPropertyOp42
 70
     1
102
RTVSPropertyOp43
 70
     1
102
RTVSPropertyOp44
 70
     1
102
RTVSPropertyOp45
 70
     1
102
RTVSPropertyOp46
 70
     1
102
RTVSPropertyOp47
 70
     1
102
RTVSPropertyOp48
 70
     1
102
RTVSPropertyOp49
 70
     1
102
RTVSPropertyOp50
 70
     1
102
RTVSPropertyOp51
 70
     0
102
RTVSPropertyOp52
 70
     0
102
RTVSPropertyOp53
 70
     1
102
RTVSPropertyOp54
 70
     1
102
RTVSPropertyOp55
 70
     1
102
RTVSPropertyOp56
 70
     1
102
RTVSPropertyOp57
 70
     1
102
RTVSPost2010Prop28
280
     0
102
RTVSPost2010PropOp28
 70
     1
102
RTVSPost2010Prop29
280
     1
102
RTVSPost2010PropOp29
 70
     1
102
RTVSPost2010Prop30
280
     1
102
RTVSPost2010PropOp30
 70
     1
102
RTVSPost2010Prop31
280
     0
102
RTVSPost2010PropOp31
 70
     1
102
RTVSPost2010Prop32
280
     0
102
RTVSPost2010PropOp32
 70
     1
102
RTVSPost2010Prop33
280
     0
102
RTVSPost2010PropOp33
 70
     1
102
RTVSPost2010Prop34
280
     0
102
RTVSPost2010PropOp34
 70
     1
102
RTVSPost2010Prop35
280
     0
102
RTVSPost2010PropOp35
 70
     1
102
RTVSPost2010Prop36
280
     0
102
RTVSPost2010PropOp36
 70
     1
102
RTVSPost2010Prop37
 90
       50
102
RTVSPost2010PropOp37
 70
     1
102
RTVSPost2010Prop38
140
0.0
102
RTVSPost2010PropOp38
 70
     1
102
RTVSPost2010Prop39
140
1.0
102
RTVSPost2010PropOp39
 70
     1
102
RTVSPost2010Prop40
 90
        0
102
RTVSPost2010PropOp40
 70
     1
102
RTVSPost2010Prop41ColorIndex
 90
       18
102
RTVSPost2010Prop41ColorRGB
 90
        0
102
RTVSPost2010PropOp41
 70
     1
102
RTVSPost2010Prop42
 90
       50
102
RTVSPost2010PropOp42
 70
     1
102
RTVSPost2010Prop43
 90
        3
102
RTVSPost2010PropOp43
 70
     1
102
RTVSPost2010Prop44ColorIndex
 90
        5
102
RTVSPost2010Prop44ColorRGB
 90
      255
102
RTVSPost2010PropOp44
 70
     1
102
RTVSPost2010Prop45
280
     0
102
RTVSPost2010PropOp45
 70
     1
102
RTVSPost2010Prop46
 90
       50
102
RTVSPost2010PropOp46
 70
     1
102
RTVSPost2010Prop47
 90
       50
102
RTVSPost2010PropOp47
 70
     1
102
RTVSPost2010Prop48
 90
       50
102
RTVSPost2010PropOp48
 70
     1
102
RTVSPost2010Prop49
280
     0
102
RTVSPost2010PropOp49
 70
     1
102
RTVSPost2010Prop50
 90
       50
102
RTVSPost2010PropOp50
 70
     1
102
RTVSPost2010Prop51ColorIndex
 90
      256
102
RTVSPost2010Prop51ColorRGB
 90
-16777216
102
RTVSPost2010PropOp51
 70
     0
102
RTVSPost2010Prop52
140
1.0
102
RTVSPost2010PropOp52
 70
     0
102
RTVSPost2010Prop53
 90
        2
102
RTVSPost2010PropOp53
 70
     1
102
RTVSPost2010Prop54
  1
strokes_ogs.tif
102
RTVSPost2010PropOp54
 70
     1
102
RTVSPost2010Prop55
280
     0
102
RTVSPost2010PropOp55
 70
     1
102
RTVSPost2010Prop56
140
1.0
102
RTVSPost2010PropOp56
 70
     1
102
RTVSPost2010Prop57
140
1.0
102
RTVSPost2010PropOp57
 70
     1
  0
XRECORD
  5
253
102
{ACAD_REACTORS
330
252
102
}
330
252
100
AcDbXrecord
280
     1
102
RTVSPropertyOp0
 70
     1
102
RTVSPropertyOp1
 70
     1
102
RTVSPropertyOp2
 70
     1
102
RTVSPropertyOp3
 70
     1
102
RTVSPropertyOp4
 70
     1
102
RTVSPropertyOp5
 70
     1
102
RTVSPropertyOp6
 70
     1
102
RTVSPropertyOp7
 70
     1
102
RTVSPropertyOp8
 70
     1
102
RTVSPropertyOp9
 70
     1
102
RTVSPropertyOp10
 70
     1
102
RTVSPropertyOp11
 70
     1
102
RTVSPropertyOp12
 70
     1
102
RTVSPropertyOp13
 70
     1
102
RTVSPropertyOp14
 70
     1
102
RTVSPropertyOp15
 70
     1
102
RTVSPropertyOp16
 70
     1
102
RTVSPropertyOp17
 70
     1
102
RTVSPropertyOp18
 70
     1
102
RTVSPropertyOp19
 70
     1
102
RTVSPropertyOp20
 70
     1
102
RTVSPropertyOp21
 70
     1
102
RTVSPropertyOp22
 70
     1
102
RTVSPropertyOp23
 70
     1
102
RTVSPropertyOp24
 70
     1
102
RTVSPropertyOp25
 70
     1
102
RTVSPropertyOp26
 70
     1
102
RTVSPropertyOp27
 70
     1
102
RTVSPropertyOp28
 70
     1
102
RTVSPropertyOp29
 70
     1
102
RTVSPropertyOp30
 70
     1
102
RTVSPropertyOp31
 70
     1
102
RTVSPropertyOp32
 70
     1
102
RTVSPropertyOp33
 70
     1
102
RTVSPropertyOp34
 70
     1
102
RTVSPropertyOp35
 70
     1
102
RTVSPropertyOp36
 70
     1
102
RTVSPropertyOp37
 70
     1
102
RTVSPropertyOp38
 70
     1
102
RTVSPropertyOp39
 70
     1
102
RTVSPropertyOp40
 70
     1
102
RTVSPropertyOp41
 70
     1
102
RTVSPropertyOp42
 70
     1
102
RTVSPropertyOp43
 70
     1
102
RTVSPropertyOp44
 70
     1
102
RTVSPropertyOp45
 70
     1
102
RTVSPropertyOp46
 70
     1
102
RTVSPropertyOp47
 70
     1
102
RTVSPropertyOp48
 70
     1
102
RTVSPropertyOp49
 70
     1
102
RTVSPropertyOp50
 70
     1
102
RTVSPropertyOp51
 70
     0
102
RTVSPropertyOp52
 70
     0
102
RTVSPropertyOp53
 70
     1
102
RTVSPropertyOp54
 70
     1
102
RTVSPropertyOp55
 70
     1
102
RTVSPropertyOp56
 70
     1
102
RTVSPropertyOp57
 70
     1
102
RTVSPost2010Prop28
280
     0
102
RTVSPost2010PropOp28
 70
     1
102
RTVSPost2010Prop29
280
     1
102
RTVSPost2010PropOp29
 70
     1
102
RTVSPost2010Prop30
280
     1
102
RTVSPost2010PropOp30
 70
     1
102
RTVSPost2010Prop31
280
     0
102
RTVSPost2010PropOp31
 70
     1
102
RTVSPost2010Prop32
280
     0
102
RTVSPost2010PropOp32
 70
     1
102
RTVSPost2010Prop33
280
     0
102
RTVSPost2010PropOp33
 70
     1
102
RTVSPost2010Prop34
280
     0
102
RTVSPost2010PropOp34
 70
     1
102
RTVSPost2010Prop35
280
     0
102
RTVSPost2010PropOp35
 70
     1
102
RTVSPost2010Prop36
280
     0
102
RTVSPost2010PropOp36
 70
     1
102
RTVSPost2010Prop37
 90
       50
102
RTVSPost2010PropOp37
 70
     1
102
RTVSPost2010Prop38
140
0.0
102
RTVSPost2010PropOp38
 70
     1
102
RTVSPost2010Prop39
140
1.0
102
RTVSPost2010PropOp39
 70
     1
102
RTVSPost2010Prop40
 90
        0
102
RTVSPost2010PropOp40
 70
     1
102
RTVSPost2010Prop41ColorIndex
 90
       18
102
RTVSPost2010Prop41ColorRGB
 90
        0
102
RTVSPost2010PropOp41
 70
     1
102
RTVSPost2010Prop42
 90
       50
102
RTVSPost2010PropOp42
 70
     1
102
RTVSPost2010Prop43
 90
        3
102
RTVSPost2010PropOp43
 70
     1
102
RTVSPost2010Prop44ColorIndex
 90
        5
102
RTVSPost2010Prop44ColorRGB
 90
      255
102
RTVSPost2010PropOp44
 70
     1
102
RTVSPost2010Prop45
280
     0
102
RTVSPost2010PropOp45
 70
     1
102
RTVSPost2010Prop46
 90
       50
102
RTVSPost2010PropOp46
 70
     1
102
RTVSPost2010Prop47
 90
       50
102
RTVSPost2010PropOp47
 70
     1
102
RTVSPost2010Prop48
 90
       50
102
RTVSPost2010PropOp48
 70
     1
102
RTVSPost2010Prop49
280
     0
102
RTVSPost2010PropOp49
 70
     1
102
RTVSPost2010Prop50
 90
       50
102
RTVSPost2010PropOp50
 70
     1
102
RTVSPost2010Prop51ColorIndex
 90
      256
102
RTVSPost2010Prop51ColorRGB
 90
-16777216
102
RTVSPost2010PropOp51
 70
     0
102
RTVSPost2010Prop52
140
1.0
102
RTVSPost2010PropOp52
 70
     0
102
RTVSPost2010Prop53
 90
        2
102
RTVSPost2010PropOp53
 70
     1
102
RTVSPost2010Prop54
  1
strokes_ogs.tif
102
RTVSPost2010PropOp54
 70
     1
102
RTVSPost2010Prop55
280
     0
102
RTVSPost2010PropOp55
 70
     1
102
RTVSPost2010Prop56
140
1.0
102
RTVSPost2010PropOp56
 70
     1
102
RTVSPost2010Prop57
140
1.0
102
RTVSPost2010PropOp57
 70
     1
  0
XRECORD
  5
247
102
{ACAD_REACTORS
330
246
102
}
330
246
100
AcDbXrecord
280
     1
102
RTVSPropertyOp0
 70
     1
102
RTVSPropertyOp1
 70
     1
102
RTVSPropertyOp2
 70
     1
102
RTVSPropertyOp3
 70
     1
102
RTVSPropertyOp4
 70
     1
102
RTVSPropertyOp5
 70
     1
102
RTVSPropertyOp6
 70
     1
102
RTVSPropertyOp7
 70
     1
102
RTVSPropertyOp8
 70
     1
102
RTVSPropertyOp9
 70
     1
102
RTVSPropertyOp10
 70
     1
102
RTVSPropertyOp11
 70
     1
102
RTVSPropertyOp12
 70
     1
102
RTVSPropertyOp13
 70
     1
102
RTVSPropertyOp14
 70
     1
102
RTVSPropertyOp15
 70
     1
102
RTVSPropertyOp16
 70
     1
102
RTVSPropertyOp17
 70
     1
102
RTVSPropertyOp18
 70
     1
102
RTVSPropertyOp19
 70
     1
102
RTVSPropertyOp20
 70
     1
102
RTVSPropertyOp21
 70
     1
102
RTVSPropertyOp22
 70
     1
102
RTVSPropertyOp23
 70
     1
102
RTVSPropertyOp24
 70
     1
102
RTVSPropertyOp25
 70
     1
102
RTVSPropertyOp26
 70
     1
102
RTVSPropertyOp27
 70
     1
102
RTVSPropertyOp28
 70
     1
102
RTVSPropertyOp29
 70
     1
102
RTVSPropertyOp30
 70
     1
102
RTVSPropertyOp31
 70
     1
102
RTVSPropertyOp32
 70
     1
102
RTVSPropertyOp33
 70
     1
102
RTVSPropertyOp34
 70
     1
102
RTVSPropertyOp35
 70
     1
102
RTVSPropertyOp36
 70
     1
102
RTVSPropertyOp37
 70
     1
102
RTVSPropertyOp38
 70
     1
102
RTVSPropertyOp39
 70
     1
102
RTVSPropertyOp40
 70
     1
102
RTVSPropertyOp41
 70
     1
102
RTVSPropertyOp42
 70
     1
102
RTVSPropertyOp43
 70
     1
102
RTVSPropertyOp44
 70
     1
102
RTVSPropertyOp45
 70
     1
102
RTVSPropertyOp46
 70
     1
102
RTVSPropertyOp47
 70
     1
102
RTVSPropertyOp48
 70
     1
102
RTVSPropertyOp49
 70
     1
102
RTVSPropertyOp50
 70
     1
102
RTVSPropertyOp51
 70
     0
102
RTVSPropertyOp52
 70
     0
102
RTVSPropertyOp53
 70
     1
102
RTVSPropertyOp54
 70
     1
102
RTVSPropertyOp55
 70
     1
102
RTVSPropertyOp56
 70
     1
102
RTVSPropertyOp57
 70
     1
102
RTVSPost2010Prop28
280
     0
102
RTVSPost2010PropOp28
 70
     1
102
RTVSPost2010Prop29
280
     1
102
RTVSPost2010PropOp29
 70
     1
102
RTVSPost2010Prop30
280
     1
102
RTVSPost2010PropOp30
 70
     1
102
RTVSPost2010Prop31
280
     0
102
RTVSPost2010PropOp31
 70
     1
102
RTVSPost2010Prop32
280
     0
102
RTVSPost2010PropOp32
 70
     1
102
RTVSPost2010Prop33
280
     0
102
RTVSPost2010PropOp33
 70
     1
102
RTVSPost2010Prop34
280
     0
102
RTVSPost2010PropOp34
 70
     1
102
RTVSPost2010Prop35
280
     0
102
RTVSPost2010PropOp35
 70
     1
102
RTVSPost2010Prop36
280
     0
102
RTVSPost2010PropOp36
 70
     1
102
RTVSPost2010Prop37
 90
       50
102
RTVSPost2010PropOp37
 70
     1
102
RTVSPost2010Prop38
140
0.0
102
RTVSPost2010PropOp38
 70
     1
102
RTVSPost2010Prop39
140
1.0
102
RTVSPost2010PropOp39
 70
     1
102
RTVSPost2010Prop40
 90
        0
102
RTVSPost2010PropOp40
 70
     1
102
RTVSPost2010Prop41ColorIndex
 90
       18
102
RTVSPost2010Prop41ColorRGB
 90
        0
102
RTVSPost2010PropOp41
 70
     1
102
RTVSPost2010Prop42
 90
       50
102
RTVSPost2010PropOp42
 70
     1
102
RTVSPost2010Prop43
 90
        3
102
RTVSPost2010PropOp43
 70
     1
102
RTVSPost2010Prop44ColorIndex
 90
        5
102
RTVSPost2010Prop44ColorRGB
 90
      255
102
RTVSPost2010PropOp44
 70
     1
102
RTVSPost2010Prop45
280
     0
102
RTVSPost2010PropOp45
 70
     1
102
RTVSPost2010Prop46
 90
       50
102
RTVSPost2010PropOp46
 70
     1
102
RTVSPost2010Prop47
 90
       50
102
RTVSPost2010PropOp47
 70
     1
102
RTVSPost2010Prop48
 90
       50
102
RTVSPost2010PropOp48
 70
     1
102
RTVSPost2010Prop49
280
     0
102
RTVSPost2010PropOp49
 70
     1
102
RTVSPost2010Prop50
 90
       50
102
RTVSPost2010PropOp50
 70
     1
102
RTVSPost2010Prop51ColorIndex
 90
      256
102
RTVSPost2010Prop51ColorRGB
 90
-16777216
102
RTVSPost2010PropOp51
 70
     0
102
RTVSPost2010Prop52
140
1.0
102
RTVSPost2010PropOp52
 70
     0
102
RTVSPost2010Prop53
 90
        2
102
RTVSPost2010PropOp53
 70
     1
102
RTVSPost2010Prop54
  1
strokes_ogs.tif
102
RTVSPost2010PropOp54
 70
     1
102
RTVSPost2010Prop55
280
     0
102
RTVSPost2010PropOp55
 70
     1
102
RTVSPost2010Prop56
140
1.0
102
RTVSPost2010PropOp56
 70
     1
102
RTVSPost2010Prop57
140
1.0
102
RTVSPost2010PropOp57
 70
     1
  0
XRECORD
  5
249
102
{ACAD_REACTORS
330
248
102
}
330
248
100
AcDbXrecord
280
     1
102
RTVSPropertyOp0
 70
     1
102
RTVSPropertyOp1
 70
     1
102
RTVSPropertyOp2
 70
     1
102
RTVSPropertyOp3
 70
     1
102
RTVSPropertyOp4
 70
     1
102
RTVSPropertyOp5
 70
     1
102
RTVSPropertyOp6
 70
     1
102
RTVSPropertyOp7
 70
     1
102
RTVSPropertyOp8
 70
     1
102
RTVSPropertyOp9
 70
     1
102
RTVSPropertyOp10
 70
     1
102
RTVSPropertyOp11
 70
     1
102
RTVSPropertyOp12
 70
     1
102
RTVSPropertyOp13
 70
     1
102
RTVSPropertyOp14
 70
     1
102
RTVSPropertyOp15
 70
     1
102
RTVSPropertyOp16
 70
     1
102
RTVSPropertyOp17
 70
     1
102
RTVSPropertyOp18
 70
     1
102
RTVSPropertyOp19
 70
     1
102
RTVSPropertyOp20
 70
     1
102
RTVSPropertyOp21
 70
     1
102
RTVSPropertyOp22
 70
     1
102
RTVSPropertyOp23
 70
     1
102
RTVSPropertyOp24
 70
     1
102
RTVSPropertyOp25
 70
     1
102
RTVSPropertyOp26
 70
     1
102
RTVSPropertyOp27
 70
     1
102
RTVSPropertyOp28
 70
     1
102
RTVSPropertyOp29
 70
     1
102
RTVSPropertyOp30
 70
     1
102
RTVSPropertyOp31
 70
     1
102
RTVSPropertyOp32
 70
     1
102
RTVSPropertyOp33
 70
     1
102
RTVSPropertyOp34
 70
     1
102
RTVSPropertyOp35
 70
     1
102
RTVSPropertyOp36
 70
     1
102
RTVSPropertyOp37
 70
     1
102
RTVSPropertyOp38
 70
     1
102
RTVSPropertyOp39
 70
     1
102
RTVSPropertyOp40
 70
     1
102
RTVSPropertyOp41
 70
     1
102
RTVSPropertyOp42
 70
     1
102
RTVSPropertyOp43
 70
     1
102
RTVSPropertyOp44
 70
     1
102
RTVSPropertyOp45
 70
     1
102
RTVSPropertyOp46
 70
     1
102
RTVSPropertyOp47
 70
     1
102
RTVSPropertyOp48
 70
     1
102
RTVSPropertyOp49
 70
     1
102
RTVSPropertyOp50
 70
     1
102
RTVSPropertyOp51
 70
     0
102
RTVSPropertyOp52
 70
     0
102
RTVSPropertyOp53
 70
     1
102
RTVSPropertyOp54
 70
     1
102
RTVSPropertyOp55
 70
     1
102
RTVSPropertyOp56
 70
     1
102
RTVSPropertyOp57
 70
     1
102
RTVSPost2010Prop28
280
     0
102
RTVSPost2010PropOp28
 70
     1
102
RTVSPost2010Prop29
280
     1
102
RTVSPost2010PropOp29
 70
     1
102
RTVSPost2010Prop30
280
     1
102
RTVSPost2010PropOp30
 70
     1
102
RTVSPost2010Prop31
280
     0
102
RTVSPost2010PropOp31
 70
     1
102
RTVSPost2010Prop32
280
     0
102
RTVSPost2010PropOp32
 70
     1
102
RTVSPost2010Prop33
280
     0
102
RTVSPost2010PropOp33
 70
     1
102
RTVSPost2010Prop34
280
     0
102
RTVSPost2010PropOp34
 70
     1
102
RTVSPost2010Prop35
280
     0
102
RTVSPost2010PropOp35
 70
     1
102
RTVSPost2010Prop36
280
     0
102
RTVSPost2010PropOp36
 70
     1
102
RTVSPost2010Prop37
 90
       50
102
RTVSPost2010PropOp37
 70
     1
102
RTVSPost2010Prop38
140
0.0
102
RTVSPost2010PropOp38
 70
     1
102
RTVSPost2010Prop39
140
1.0
102
RTVSPost2010PropOp39
 70
     1
102
RTVSPost2010Prop40
 90
        0
102
RTVSPost2010PropOp40
 70
     1
102
RTVSPost2010Prop41ColorIndex
 90
       18
102
RTVSPost2010Prop41ColorRGB
 90
        0
102
RTVSPost2010PropOp41
 70
     1
102
RTVSPost2010Prop42
 90
       50
102
RTVSPost2010PropOp42
 70
     1
102
RTVSPost2010Prop43
 90
        3
102
RTVSPost2010PropOp43
 70
     1
102
RTVSPost2010Prop44ColorIndex
 90
        5
102
RTVSPost2010Prop44ColorRGB
 90
      255
102
RTVSPost2010PropOp44
 70
     1
102
RTVSPost2010Prop45
280
     0
102
RTVSPost2010PropOp45
 70
     1
102
RTVSPost2010Prop46
 90
       50
102
RTVSPost2010PropOp46
 70
     1
102
RTVSPost2010Prop47
 90
       50
102
RTVSPost2010PropOp47
 70
     1
102
RTVSPost2010Prop48
 90
       50
102
RTVSPost2010PropOp48
 70
     1
102
RTVSPost2010Prop49
280
     0
102
RTVSPost2010PropOp49
 70
     1
102
RTVSPost2010Prop50
 90
       50
102
RTVSPost2010PropOp50
 70
     1
102
RTVSPost2010Prop51ColorIndex
 90
      256
102
RTVSPost2010Prop51ColorRGB
 90
-16777216
102
RTVSPost2010PropOp51
 70
     0
102
RTVSPost2010Prop52
140
1.0
102
RTVSPost2010PropOp52
 70
     0
102
RTVSPost2010Prop53
 90
        2
102
RTVSPost2010PropOp53
 70
     1
102
RTVSPost2010Prop54
  1
strokes_ogs.tif
102
RTVSPost2010PropOp54
 70
     1
102
RTVSPost2010Prop55
280
     0
102
RTVSPost2010PropOp55
 70
     1
102
RTVSPost2010Prop56
140
1.0
102
RTVSPost2010PropOp56
 70
     1
102
RTVSPost2010Prop57
140
1.0
102
RTVSPost2010PropOp57
 70
     1
  0
XRECORD
  5
259
102
{ACAD_REACTORS
330
258
102
}
330
258
100
AcDbXrecord
280
     1
102
RTVSPropertyOp0
 70
     0
102
RTVSPropertyOp1
 70
     0
102
RTVSPropertyOp2
 70
     0
102
RTVSPropertyOp3
 70
     0
102
RTVSPropertyOp4
 70
     0
102
RTVSPropertyOp5
 70
     0
102
RTVSPropertyOp6
 70
     0
102
RTVSPropertyOp7
 70
     0
102
RTVSPropertyOp8
 70
     0
102
RTVSPropertyOp9
 70
     0
102
RTVSPropertyOp10
 70
     0
102
RTVSPropertyOp11
 70
     0
102
RTVSPropertyOp12
 70
     0
102
RTVSPropertyOp13
 70
     0
102
RTVSPropertyOp14
 70
     2
102
RTVSPropertyOp15
 70
     0
102
RTVSPropertyOp16
 70
     0
102
RTVSPropertyOp17
 70
     0
102
RTVSPropertyOp18
 70
     0
102
RTVSPropertyOp19
 70
     0
102
RTVSPropertyOp20
 70
     0
102
RTVSPropertyOp21
 70
     0
102
RTVSPropertyOp22
 70
     0
102
RTVSPropertyOp23
 70
     0
102
RTVSPropertyOp24
 70
     0
102
RTVSPropertyOp25
 70
     0
102
RTVSPropertyOp26
 70
     0
102
RTVSPropertyOp27
 70
     0
102
RTVSPropertyOp28
 70
     0
102
RTVSPropertyOp29
 70
     0
102
RTVSPropertyOp30
 70
     0
102
RTVSPropertyOp31
 70
     0
102
RTVSPropertyOp32
 70
     0
102
RTVSPropertyOp33
 70
     0
102
RTVSPropertyOp34
 70
     0
102
RTVSPropertyOp35
 70
     0
102
RTVSPropertyOp36
 70
     0
102
RTVSPropertyOp37
 70
     0
102
RTVSPropertyOp38
 70
     0
102
RTVSPropertyOp39
 70
     0
102
RTVSPropertyOp40
 70
     0
102
RTVSPropertyOp41
 70
     0
102
RTVSPropertyOp42
 70
     0
102
RTVSPropertyOp43
 70
     0
102
RTVSPropertyOp44
 70
     0
102
RTVSPropertyOp45
 70
     0
102
RTVSPropertyOp46
 70
     0
102
RTVSPropertyOp47
 70
     0
102
RTVSPropertyOp48
 70
     0
102
RTVSPropertyOp49
 70
     0
102
RTVSPropertyOp50
 70
     0
102
RTVSPropertyOp51
 70
     0
102
RTVSPropertyOp52
 70
     0
102
RTVSPropertyOp53
 70
     0
102
RTVSPropertyOp54
 70
     0
102
RTVSPropertyOp55
 70
     0
102
RTVSPropertyOp56
 70
     0
102
RTVSPropertyOp57
 70
     0
102
RTVSPost2010Prop28
280
     0
102
RTVSPost2010PropOp28
 70
     0
102
RTVSPost2010Prop29
280
     1
102
RTVSPost2010PropOp29
 70
     0
102
RTVSPost2010Prop30
280
     1
102
RTVSPost2010PropOp30
 70
     0
102
RTVSPost2010Prop31
280
     0
102
RTVSPost2010PropOp31
 70
     0
102
RTVSPost2010Prop32
280
     0
102
RTVSPost2010PropOp32
 70
     0
102
RTVSPost2010Prop33
280
     0
102
RTVSPost2010PropOp33
 70
     0
102
RTVSPost2010Prop34
280
     0
102
RTVSPost2010PropOp34
 70
     0
102
RTVSPost2010Prop35
280
     0
102
RTVSPost2010PropOp35
 70
     0
102
RTVSPost2010Prop36
280
     0
102
RTVSPost2010PropOp36
 70
     0
102
RTVSPost2010Prop37
 90
       50
102
RTVSPost2010PropOp37
 70
     0
102
RTVSPost2010Prop38
140
0.0
102
RTVSPost2010PropOp38
 70
     0
102
RTVSPost2010Prop39
140
1.0
102
RTVSPost2010PropOp39
 70
     0
102
RTVSPost2010Prop40
 90
        0
102
RTVSPost2010PropOp40
 70
     0
102
RTVSPost2010Prop41ColorIndex
 90
       18
102
RTVSPost2010Prop41ColorRGB
 90
        0
102
RTVSPost2010PropOp41
 70
     0
102
RTVSPost2010Prop42
 90
       50
102
RTVSPost2010PropOp42
 70
     0
102
RTVSPost2010Prop43
 90
        3
102
RTVSPost2010PropOp43
 70
     0
102
RTVSPost2010Prop44ColorIndex
 90
        5
102
RTVSPost2010Prop44ColorRGB
 90
      255
102
RTVSPost2010PropOp44
 70
     0
102
RTVSPost2010Prop45
280
     0
102
RTVSPost2010PropOp45
 70
     0
102
RTVSPost2010Prop46
 90
       50
102
RTVSPost2010PropOp46
 70
     0
102
RTVSPost2010Prop47
 90
       50
102
RTVSPost2010PropOp47
 70
     0
102
RTVSPost2010Prop48
 90
       50
102
RTVSPost2010PropOp48
 70
     0
102
RTVSPost2010Prop49
280
     0
102
RTVSPost2010PropOp49
 70
     0
102
RTVSPost2010Prop50
 90
       50
102
RTVSPost2010PropOp50
 70
     0
102
RTVSPost2010Prop51ColorIndex
 90
      256
102
RTVSPost2010Prop51ColorRGB
 90
-16777216
102
RTVSPost2010PropOp51
 70
     0
102
RTVSPost2010Prop52
140
1.0
102
RTVSPost2010PropOp52
 70
     0
102
RTVSPost2010Prop53
 90
        2
102
RTVSPost2010PropOp53
 70
     0
102
RTVSPost2010Prop54
  1
strokes_ogs.tif
102
RTVSPost2010PropOp54
 70
     0
102
RTVSPost2010Prop55
280
     0
102
RTVSPost2010PropOp55
 70
     0
102
RTVSPost2010Prop56
140
1.0
102
RTVSPost2010PropOp56
 70
     0
102
RTVSPost2010Prop57
140
1.0
102
RTVSPost2010PropOp57
 70
     0
  0
XRECORD
  5
251
102
{ACAD_REACTORS
330
250
102
}
330
250
100
AcDbXrecord
280
     1
102
RTVSPropertyOp0
 70
     1
102
RTVSPropertyOp1
 70
     1
102
RTVSPropertyOp2
 70
     1
102
RTVSPropertyOp3
 70
     1
102
RTVSPropertyOp4
 70
     1
102
RTVSPropertyOp5
 70
     1
102
RTVSPropertyOp6
 70
     1
102
RTVSPropertyOp7
 70
     1
102
RTVSPropertyOp8
 70
     1
102
RTVSPropertyOp9
 70
     1
102
RTVSPropertyOp10
 70
     1
102
RTVSPropertyOp11
 70
     1
102
RTVSPropertyOp12
 70
     1
102
RTVSPropertyOp13
 70
     1
102
RTVSPropertyOp14
 70
     1
102
RTVSPropertyOp15
 70
     1
102
RTVSPropertyOp16
 70
     1
102
RTVSPropertyOp17
 70
     1
102
RTVSPropertyOp18
 70
     1
102
RTVSPropertyOp19
 70
     1
102
RTVSPropertyOp20
 70
     1
102
RTVSPropertyOp21
 70
     1
102
RTVSPropertyOp22
 70
     1
102
RTVSPropertyOp23
 70
     1
102
RTVSPropertyOp24
 70
     1
102
RTVSPropertyOp25
 70
     1
102
RTVSPropertyOp26
 70
     1
102
RTVSPropertyOp27
 70
     1
102
RTVSPropertyOp28
 70
     1
102
RTVSPropertyOp29
 70
     1
102
RTVSPropertyOp30
 70
     1
102
RTVSPropertyOp31
 70
     1
102
RTVSPropertyOp32
 70
     1
102
RTVSPropertyOp33
 70
     1
102
RTVSPropertyOp34
 70
     1
102
RTVSPropertyOp35
 70
     1
102
RTVSPropertyOp36
 70
     1
102
RTVSPropertyOp37
 70
     1
102
RTVSPropertyOp38
 70
     1
102
RTVSPropertyOp39
 70
     1
102
RTVSPropertyOp40
 70
     1
102
RTVSPropertyOp41
 70
     1
102
RTVSPropertyOp42
 70
     1
102
RTVSPropertyOp43
 70
     1
102
RTVSPropertyOp44
 70
     1
102
RTVSPropertyOp45
 70
     1
102
RTVSPropertyOp46
 70
     1
102
RTVSPropertyOp47
 70
     1
102
RTVSPropertyOp48
 70
     1
102
RTVSPropertyOp49
 70
     1
102
RTVSPropertyOp50
 70
     1
102
RTVSPropertyOp51
 70
     0
102
RTVSPropertyOp52
 70
     0
102
RTVSPropertyOp53
 70
     1
102
RTVSPropertyOp54
 70
     1
102
RTVSPropertyOp55
 70
     1
102
RTVSPropertyOp56
 70
     1
102
RTVSPropertyOp57
 70
     1
102
RTVSPost2010Prop28
280
     0
102
RTVSPost2010PropOp28
 70
     1
102
RTVSPost2010Prop29
280
     1
102
RTVSPost2010PropOp29
 70
     1
102
RTVSPost2010Prop30
280
     1
102
RTVSPost2010PropOp30
 70
     1
102
RTVSPost2010Prop31
280
     0
102
RTVSPost2010PropOp31
 70
     1
102
RTVSPost2010Prop32
280
     0
102
RTVSPost2010PropOp32
 70
     1
102
RTVSPost2010Prop33
280
     0
102
RTVSPost2010PropOp33
 70
     1
102
RTVSPost2010Prop34
280
     0
102
RTVSPost2010PropOp34
 70
     1
102
RTVSPost2010Prop35
280
     0
102
RTVSPost2010PropOp35
 70
     1
102
RTVSPost2010Prop36
280
     0
102
RTVSPost2010PropOp36
 70
     1
102
RTVSPost2010Prop37
 90
       50
102
RTVSPost2010PropOp37
 70
     1
102
RTVSPost2010Prop38
140
0.0
102
RTVSPost2010PropOp38
 70
     1
102
RTVSPost2010Prop39
140
1.0
102
RTVSPost2010PropOp39
 70
     1
102
RTVSPost2010Prop40
 90
        0
102
RTVSPost2010PropOp40
 70
     1
102
RTVSPost2010Prop41ColorIndex
 90
       18
102
RTVSPost2010Prop41ColorRGB
 90
        0
102
RTVSPost2010PropOp41
 70
     1
102
RTVSPost2010Prop42
 90
       50
102
RTVSPost2010PropOp42
 70
     1
102
RTVSPost2010Prop43
 90
        3
102
RTVSPost2010PropOp43
 70
     1
102
RTVSPost2010Prop44ColorIndex
 90
        5
102
RTVSPost2010Prop44ColorRGB
 90
      255
102
RTVSPost2010PropOp44
 70
     1
102
RTVSPost2010Prop45
280
     0
102
RTVSPost2010PropOp45
 70
     1
102
RTVSPost2010Prop46
 90
       50
102
RTVSPost2010PropOp46
 70
     1
102
RTVSPost2010Prop47
 90
       50
102
RTVSPost2010PropOp47
 70
     1
102
RTVSPost2010Prop48
 90
       50
102
RTVSPost2010PropOp48
 70
     1
102
RTVSPost2010Prop49
280
     0
102
RTVSPost2010PropOp49
 70
     1
102
RTVSPost2010Prop50
 90
       50
102
RTVSPost2010PropOp50
 70
     1
102
RTVSPost2010Prop51ColorIndex
 90
      256
102
RTVSPost2010Prop51ColorRGB
 90
-16777216
102
RTVSPost2010PropOp51
 70
     0
102
RTVSPost2010Prop52
140
1.0
102
RTVSPost2010PropOp52
 70
     0
102
RTVSPost2010Prop53
 90
        2
102
RTVSPost2010PropOp53
 70
     1
102
RTVSPost2010Prop54
  1
strokes_ogs.tif
102
RTVSPost2010PropOp54
 70
     1
102
RTVSPost2010Prop55
280
     0
102
RTVSPost2010PropOp55
 70
     1
102
RTVSPost2010Prop56
140
1.0
102
RTVSPost2010PropOp56
 70
     1
102
RTVSPost2010Prop57
140
1.0
102
RTVSPost2010PropOp57
 70
     1
  0
XRECORD
  5
235
102
{ACAD_REACTORS
330
234
102
}
330
234
100
AcDbXrecord
280
     1
102
RTVSPropertyOp0
 70
     1
102
RTVSPropertyOp1
 70
     1
102
RTVSPropertyOp2
 70
     1
102
RTVSPropertyOp3
 70
     1
102
RTVSPropertyOp4
 70
     1
102
RTVSPropertyOp5
 70
     1
102
RTVSPropertyOp6
 70
     1
102
RTVSPropertyOp7
 70
     1
102
RTVSPropertyOp8
 70
     1
102
RTVSPropertyOp9
 70
     1
102
RTVSPropertyOp10
 70
     1
102
RTVSPropertyOp11
 70
     1
102
RTVSPropertyOp12
 70
     1
102
RTVSPropertyOp13
 70
     1
102
RTVSPropertyOp14
 70
     1
102
RTVSPropertyOp15
 70
     1
102
RTVSPropertyOp16
 70
     1
102
RTVSPropertyOp17
 70
     1
102
RTVSPropertyOp18
 70
     1
102
RTVSPropertyOp19
 70
     1
102
RTVSPropertyOp20
 70
     1
102
RTVSPropertyOp21
 70
     1
102
RTVSPropertyOp22
 70
     1
102
RTVSPropertyOp23
 70
     1
102
RTVSPropertyOp24
 70
     1
102
RTVSPropertyOp25
 70
     1
102
RTVSPropertyOp26
 70
     1
102
RTVSPropertyOp27
 70
     1
102
RTVSPropertyOp28
 70
     1
102
RTVSPropertyOp29
 70
     1
102
RTVSPropertyOp30
 70
     1
102
RTVSPropertyOp31
 70
     1
102
RTVSPropertyOp32
 70
     1
102
RTVSPropertyOp33
 70
     1
102
RTVSPropertyOp34
 70
     1
102
RTVSPropertyOp35
 70
     1
102
RTVSPropertyOp36
 70
     1
102
RTVSPropertyOp37
 70
     1
102
RTVSPropertyOp38
 70
     1
102
RTVSPropertyOp39
 70
     1
102
RTVSPropertyOp40
 70
     1
102
RTVSPropertyOp41
 70
     1
102
RTVSPropertyOp42
 70
     1
102
RTVSPropertyOp43
 70
     1
102
RTVSPropertyOp44
 70
     1
102
RTVSPropertyOp45
 70
     1
102
RTVSPropertyOp46
 70
     1
102
RTVSPropertyOp47
 70
     1
102
RTVSPropertyOp48
 70
     1
102
RTVSPropertyOp49
 70
     1
102
RTVSPropertyOp50
 70
     1
102
RTVSPropertyOp51
 70
     0
102
RTVSPropertyOp52
 70
     0
102
RTVSPropertyOp53
 70
     1
102
RTVSPropertyOp54
 70
     1
102
RTVSPropertyOp55
 70
     1
102
RTVSPropertyOp56
 70
     1
102
RTVSPropertyOp57
 70
     1
102
RTVSPost2010Prop28
280
     0
102
RTVSPost2010PropOp28
 70
     1
102
RTVSPost2010Prop29
280
     1
102
RTVSPost2010PropOp29
 70
     1
102
RTVSPost2010Prop30
280
     1
102
RTVSPost2010PropOp30
 70
     1
102
RTVSPost2010Prop31
280
     0
102
RTVSPost2010PropOp31
 70
     1
102
RTVSPost2010Prop32
280
     0
102
RTVSPost2010PropOp32
 70
     1
102
RTVSPost2010Prop33
280
     0
102
RTVSPost2010PropOp33
 70
     1
102
RTVSPost2010Prop34
280
     0
102
RTVSPost2010PropOp34
 70
     1
102
RTVSPost2010Prop35
280
     0
102
RTVSPost2010PropOp35
 70
     1
102
RTVSPost2010Prop36
280
     0
102
RTVSPost2010PropOp36
 70
     1
102
RTVSPost2010Prop37
 90
       50
102
RTVSPost2010PropOp37
 70
     1
102
RTVSPost2010Prop38
140
0.0
102
RTVSPost2010PropOp38
 70
     1
102
RTVSPost2010Prop39
140
1.0
102
RTVSPost2010PropOp39
 70
     1
102
RTVSPost2010Prop40
 90
        0
102
RTVSPost2010PropOp40
 70
     1
102
RTVSPost2010Prop41ColorIndex
 90
       18
102
RTVSPost2010Prop41ColorRGB
 90
        0
102
RTVSPost2010PropOp41
 70
     1
102
RTVSPost2010Prop42
 90
       50
102
RTVSPost2010PropOp42
 70
     1
102
RTVSPost2010Prop43
 90
        3
102
RTVSPost2010PropOp43
 70
     1
102
RTVSPost2010Prop44ColorIndex
 90
        5
102
RTVSPost2010Prop44ColorRGB
 90
      255
102
RTVSPost2010PropOp44
 70
     1
102
RTVSPost2010Prop45
280
     0
102
RTVSPost2010PropOp45
 70
     1
102
RTVSPost2010Prop46
 90
       50
102
RTVSPost2010PropOp46
 70
     1
102
RTVSPost2010Prop47
 90
       50
102
RTVSPost2010PropOp47
 70
     1
102
RTVSPost2010Prop48
 90
       50
102
RTVSPost2010PropOp48
 70
     1
102
RTVSPost2010Prop49
280
     0
102
RTVSPost2010PropOp49
 70
     1
102
RTVSPost2010Prop50
 90
       50
102
RTVSPost2010PropOp50
 70
     1
102
RTVSPost2010Prop51ColorIndex
 90
      256
102
RTVSPost2010Prop51ColorRGB
 90
-16777216
102
RTVSPost2010PropOp51
 70
     0
102
RTVSPost2010Prop52
140
1.0
102
RTVSPost2010PropOp52
 70
     0
102
RTVSPost2010Prop53
 90
        2
102
RTVSPost2010PropOp53
 70
     1
102
RTVSPost2010Prop54
  1
strokes_ogs.tif
102
RTVSPost2010PropOp54
 70
     1
102
RTVSPost2010Prop55
280
     0
102
RTVSPost2010PropOp55
 70
     1
102
RTVSPost2010Prop56
140
1.0
102
RTVSPost2010PropOp56
 70
     1
102
RTVSPost2010Prop57
140
1.0
102
RTVSPost2010PropOp57
 70
     1
  0
XRECORD
  5
237
102
{ACAD_REACTORS
330
236
102
}
330
236
100
AcDbXrecord
280
     1
102
RTVSPropertyOp0
 70
     1
102
RTVSPropertyOp1
 70
     1
102
RTVSPropertyOp2
 70
     1
102
RTVSPropertyOp3
 70
     1
102
RTVSPropertyOp4
 70
     1
102
RTVSPropertyOp5
 70
     1
102
RTVSPropertyOp6
 70
     1
102
RTVSPropertyOp7
 70
     1
102
RTVSPropertyOp8
 70
     1
102
RTVSPropertyOp9
 70
     1
102
RTVSPropertyOp10
 70
     1
102
RTVSPropertyOp11
 70
     1
102
RTVSPropertyOp12
 70
     1
102
RTVSPropertyOp13
 70
     1
102
RTVSPropertyOp14
 70
     1
102
RTVSPropertyOp15
 70
     1
102
RTVSPropertyOp16
 70
     1
102
RTVSPropertyOp17
 70
     1
102
RTVSPropertyOp18
 70
     1
102
RTVSPropertyOp19
 70
     1
102
RTVSPropertyOp20
 70
     1
102
RTVSPropertyOp21
 70
     1
102
RTVSPropertyOp22
 70
     1
102
RTVSPropertyOp23
 70
     1
102
RTVSPropertyOp24
 70
     1
102
RTVSPropertyOp25
 70
     1
102
RTVSPropertyOp26
 70
     1
102
RTVSPropertyOp27
 70
     1
102
RTVSPropertyOp28
 70
     1
102
RTVSPropertyOp29
 70
     1
102
RTVSPropertyOp30
 70
     1
102
RTVSPropertyOp31
 70
     1
102
RTVSPropertyOp32
 70
     1
102
RTVSPropertyOp33
 70
     1
102
RTVSPropertyOp34
 70
     1
102
RTVSPropertyOp35
 70
     1
102
RTVSPropertyOp36
 70
     1
102
RTVSPropertyOp37
 70
     1
102
RTVSPropertyOp38
 70
     1
102
RTVSPropertyOp39
 70
     1
102
RTVSPropertyOp40
 70
     1
102
RTVSPropertyOp41
 70
     1
102
RTVSPropertyOp42
 70
     1
102
RTVSPropertyOp43
 70
     1
102
RTVSPropertyOp44
 70
     1
102
RTVSPropertyOp45
 70
     1
102
RTVSPropertyOp46
 70
     1
102
RTVSPropertyOp47
 70
     1
102
RTVSPropertyOp48
 70
     1
102
RTVSPropertyOp49
 70
     1
102
RTVSPropertyOp50
 70
     1
102
RTVSPropertyOp51
 70
     0
102
RTVSPropertyOp52
 70
     0
102
RTVSPropertyOp53
 70
     1
102
RTVSPropertyOp54
 70
     1
102
RTVSPropertyOp55
 70
     1
102
RTVSPropertyOp56
 70
     1
102
RTVSPropertyOp57
 70
     1
102
RTVSPost2010Prop28
280
     0
102
RTVSPost2010PropOp28
 70
     1
102
RTVSPost2010Prop29
280
     1
102
RTVSPost2010PropOp29
 70
     1
102
RTVSPost2010Prop30
280
     1
102
RTVSPost2010PropOp30
 70
     1
102
RTVSPost2010Prop31
280
     0
102
RTVSPost2010PropOp31
 70
     1
102
RTVSPost2010Prop32
280
     0
102
RTVSPost2010PropOp32
 70
     1
102
RTVSPost2010Prop33
280
     0
102
RTVSPost2010PropOp33
 70
     1
102
RTVSPost2010Prop34
280
     0
102
RTVSPost2010PropOp34
 70
     1
102
RTVSPost2010Prop35
280
     0
102
RTVSPost2010PropOp35
 70
     1
102
RTVSPost2010Prop36
280
     0
102
RTVSPost2010PropOp36
 70
     1
102
RTVSPost2010Prop37
 90
       50
102
RTVSPost2010PropOp37
 70
     1
102
RTVSPost2010Prop38
140
0.0
102
RTVSPost2010PropOp38
 70
     1
102
RTVSPost2010Prop39
140
1.0
102
RTVSPost2010PropOp39
 70
     1
102
RTVSPost2010Prop40
 90
        0
102
RTVSPost2010PropOp40
 70
     1
102
RTVSPost2010Prop41ColorIndex
 90
       18
102
RTVSPost2010Prop41ColorRGB
 90
        0
102
RTVSPost2010PropOp41
 70
     1
102
RTVSPost2010Prop42
 90
       50
102
RTVSPost2010PropOp42
 70
     1
102
RTVSPost2010Prop43
 90
        3
102
RTVSPost2010PropOp43
 70
     1
102
RTVSPost2010Prop44ColorIndex
 90
        5
102
RTVSPost2010Prop44ColorRGB
 90
      255
102
RTVSPost2010PropOp44
 70
     1
102
RTVSPost2010Prop45
280
     0
102
RTVSPost2010PropOp45
 70
     1
102
RTVSPost2010Prop46
 90
       50
102
RTVSPost2010PropOp46
 70
     1
102
RTVSPost2010Prop47
 90
       50
102
RTVSPost2010PropOp47
 70
     1
102
RTVSPost2010Prop48
 90
       50
102
RTVSPost2010PropOp48
 70
     1
102
RTVSPost2010Prop49
280
     0
102
RTVSPost2010PropOp49
 70
     1
102
RTVSPost2010Prop50
 90
       50
102
RTVSPost2010PropOp50
 70
     1
102
RTVSPost2010Prop51ColorIndex
 90
      256
102
RTVSPost2010Prop51ColorRGB
 90
-16777216
102
RTVSPost2010PropOp51
 70
     0
102
RTVSPost2010Prop52
140
1.0
102
RTVSPost2010PropOp52
 70
     0
102
RTVSPost2010Prop53
 90
        2
102
RTVSPost2010PropOp53
 70
     1
102
RTVSPost2010Prop54
  1
strokes_ogs.tif
102
RTVSPost2010PropOp54
 70
     1
102
RTVSPost2010Prop55
280
     0
102
RTVSPost2010PropOp55
 70
     1
102
RTVSPost2010Prop56
140
1.0
102
RTVSPost2010PropOp56
 70
     1
102
RTVSPost2010Prop57
140
1.0
102
RTVSPost2010PropOp57
 70
     1
  0
XRECORD
  5
239
102
{ACAD_REACTORS
330
238
102
}
330
238
100
AcDbXrecord
280
     1
102
RTVSPropertyOp0
 70
     1
102
RTVSPropertyOp1
 70
     1
102
RTVSPropertyOp2
 70
     1
102
RTVSPropertyOp3
 70
     1
102
RTVSPropertyOp4
 70
     1
102
RTVSPropertyOp5
 70
     1
102
RTVSPropertyOp6
 70
     1
102
RTVSPropertyOp7
 70
     1
102
RTVSPropertyOp8
 70
     1
102
RTVSPropertyOp9
 70
     1
102
RTVSPropertyOp10
 70
     1
102
RTVSPropertyOp11
 70
     1
102
RTVSPropertyOp12
 70
     1
102
RTVSPropertyOp13
 70
     1
102
RTVSPropertyOp14
 70
     1
102
RTVSPropertyOp15
 70
     1
102
RTVSPropertyOp16
 70
     1
102
RTVSPropertyOp17
 70
     1
102
RTVSPropertyOp18
 70
     1
102
RTVSPropertyOp19
 70
     1
102
RTVSPropertyOp20
 70
     1
102
RTVSPropertyOp21
 70
     1
102
RTVSPropertyOp22
 70
     1
102
RTVSPropertyOp23
 70
     1
102
RTVSPropertyOp24
 70
     1
102
RTVSPropertyOp25
 70
     1
102
RTVSPropertyOp26
 70
     1
102
RTVSPropertyOp27
 70
     1
102
RTVSPropertyOp28
 70
     1
102
RTVSPropertyOp29
 70
     1
102
RTVSPropertyOp30
 70
     1
102
RTVSPropertyOp31
 70
     1
102
RTVSPropertyOp32
 70
     1
102
RTVSPropertyOp33
 70
     1
102
RTVSPropertyOp34
 70
     1
102
RTVSPropertyOp35
 70
     1
102
RTVSPropertyOp36
 70
     1
102
RTVSPropertyOp37
 70
     1
102
RTVSPropertyOp38
 70
     1
102
RTVSPropertyOp39
 70
     1
102
RTVSPropertyOp40
 70
     1
102
RTVSPropertyOp41
 70
     1
102
RTVSPropertyOp42
 70
     1
102
RTVSPropertyOp43
 70
     1
102
RTVSPropertyOp44
 70
     1
102
RTVSPropertyOp45
 70
     1
102
RTVSPropertyOp46
 70
     1
102
RTVSPropertyOp47
 70
     1
102
RTVSPropertyOp48
 70
     1
102
RTVSPropertyOp49
 70
     1
102
RTVSPropertyOp50
 70
     1
102
RTVSPropertyOp51
 70
     0
102
RTVSPropertyOp52
 70
     0
102
RTVSPropertyOp53
 70
     1
102
RTVSPropertyOp54
 70
     1
102
RTVSPropertyOp55
 70
     1
102
RTVSPropertyOp56
 70
     1
102
RTVSPropertyOp57
 70
     1
102
RTVSPost2010Prop28
280
     0
102
RTVSPost2010PropOp28
 70
     1
102
RTVSPost2010Prop29
280
     1
102
RTVSPost2010PropOp29
 70
     1
102
RTVSPost2010Prop30
280
     1
102
RTVSPost2010PropOp30
 70
     1
102
RTVSPost2010Prop31
280
     0
102
RTVSPost2010PropOp31
 70
     1
102
RTVSPost2010Prop32
280
     0
102
RTVSPost2010PropOp32
 70
     1
102
RTVSPost2010Prop33
280
     0
102
RTVSPost2010PropOp33
 70
     1
102
RTVSPost2010Prop34
280
     0
102
RTVSPost2010PropOp34
 70
     1
102
RTVSPost2010Prop35
280
     0
102
RTVSPost2010PropOp35
 70
     1
102
RTVSPost2010Prop36
280
     0
102
RTVSPost2010PropOp36
 70
     1
102
RTVSPost2010Prop37
 90
       50
102
RTVSPost2010PropOp37
 70
     1
102
RTVSPost2010Prop38
140
0.0
102
RTVSPost2010PropOp38
 70
     1
102
RTVSPost2010Prop39
140
1.0
102
RTVSPost2010PropOp39
 70
     1
102
RTVSPost2010Prop40
 90
        0
102
RTVSPost2010PropOp40
 70
     1
102
RTVSPost2010Prop41ColorIndex
 90
       18
102
RTVSPost2010Prop41ColorRGB
 90
        0
102
RTVSPost2010PropOp41
 70
     1
102
RTVSPost2010Prop42
 90
       50
102
RTVSPost2010PropOp42
 70
     1
102
RTVSPost2010Prop43
 90
        3
102
RTVSPost2010PropOp43
 70
     1
102
RTVSPost2010Prop44ColorIndex
 90
        5
102
RTVSPost2010Prop44ColorRGB
 90
      255
102
RTVSPost2010PropOp44
 70
     1
102
RTVSPost2010Prop45
280
     0
102
RTVSPost2010PropOp45
 70
     1
102
RTVSPost2010Prop46
 90
       50
102
RTVSPost2010PropOp46
 70
     1
102
RTVSPost2010Prop47
 90
       50
102
RTVSPost2010PropOp47
 70
     1
102
RTVSPost2010Prop48
 90
       50
102
RTVSPost2010PropOp48
 70
     1
102
RTVSPost2010Prop49
280
     0
102
RTVSPost2010PropOp49
 70
     1
102
RTVSPost2010Prop50
 90
       50
102
RTVSPost2010PropOp50
 70
     1
102
RTVSPost2010Prop51ColorIndex
 90
      256
102
RTVSPost2010Prop51ColorRGB
 90
-16777216
102
RTVSPost2010PropOp51
 70
     0
102
RTVSPost2010Prop52
140
1.0
102
RTVSPost2010PropOp52
 70
     0
102
RTVSPost2010Prop53
 90
        2
102
RTVSPost2010PropOp53
 70
     1
102
RTVSPost2010Prop54
  1
strokes_ogs.tif
102
RTVSPost2010PropOp54
 70
     1
102
RTVSPost2010Prop55
280
     0
102
RTVSPost2010PropOp55
 70
     1
102
RTVSPost2010Prop56
140
1.0
102
RTVSPost2010PropOp56
 70
     1
102
RTVSPost2010Prop57
140
1.0
102
RTVSPost2010PropOp57
 70
     1
  0
XRECORD
  5
23B
102
{ACAD_REACTORS
330
23A
102
}
330
23A
100
AcDbXrecord
280
     1
102
RTVSPropertyOp0
 70
     1
102
RTVSPropertyOp1
 70
     1
102
RTVSPropertyOp2
 70
     1
102
RTVSPropertyOp3
 70
     1
102
RTVSPropertyOp4
 70
     1
102
RTVSPropertyOp5
 70
     1
102
RTVSPropertyOp6
 70
     1
102
RTVSPropertyOp7
 70
     1
102
RTVSPropertyOp8
 70
     1
102
RTVSPropertyOp9
 70
     1
102
RTVSPropertyOp10
 70
     1
102
RTVSPropertyOp11
 70
     1
102
RTVSPropertyOp12
 70
     1
102
RTVSPropertyOp13
 70
     1
102
RTVSPropertyOp14
 70
     1
102
RTVSPropertyOp15
 70
     1
102
RTVSPropertyOp16
 70
     1
102
RTVSPropertyOp17
 70
     1
102
RTVSPropertyOp18
 70
     1
102
RTVSPropertyOp19
 70
     1
102
RTVSPropertyOp20
 70
     1
102
RTVSPropertyOp21
 70
     1
102
RTVSPropertyOp22
 70
     1
102
RTVSPropertyOp23
 70
     1
102
RTVSPropertyOp24
 70
     1
102
RTVSPropertyOp25
 70
     1
102
RTVSPropertyOp26
 70
     1
102
RTVSPropertyOp27
 70
     1
102
RTVSPropertyOp28
 70
     1
102
RTVSPropertyOp29
 70
     1
102
RTVSPropertyOp30
 70
     1
102
RTVSPropertyOp31
 70
     1
102
RTVSPropertyOp32
 70
     1
102
RTVSPropertyOp33
 70
     1
102
RTVSPropertyOp34
 70
     1
102
RTVSPropertyOp35
 70
     1
102
RTVSPropertyOp36
 70
     1
102
RTVSPropertyOp37
 70
     1
102
RTVSPropertyOp38
 70
     1
102
RTVSPropertyOp39
 70
     1
102
RTVSPropertyOp40
 70
     1
102
RTVSPropertyOp41
 70
     1
102
RTVSPropertyOp42
 70
     1
102
RTVSPropertyOp43
 70
     1
102
RTVSPropertyOp44
 70
     1
102
RTVSPropertyOp45
 70
     1
102
RTVSPropertyOp46
 70
     1
102
RTVSPropertyOp47
 70
     1
102
RTVSPropertyOp48
 70
     1
102
RTVSPropertyOp49
 70
     1
102
RTVSPropertyOp50
 70
     1
102
RTVSPropertyOp51
 70
     0
102
RTVSPropertyOp52
 70
     0
102
RTVSPropertyOp53
 70
     1
102
RTVSPropertyOp54
 70
     1
102
RTVSPropertyOp55
 70
     1
102
RTVSPropertyOp56
 70
     1
102
RTVSPropertyOp57
 70
     1
102
RTVSPost2010Prop28
280
     0
102
RTVSPost2010PropOp28
 70
     1
102
RTVSPost2010Prop29
280
     1
102
RTVSPost2010PropOp29
 70
     1
102
RTVSPost2010Prop30
280
     1
102
RTVSPost2010PropOp30
 70
     1
102
RTVSPost2010Prop31
280
     0
102
RTVSPost2010PropOp31
 70
     1
102
RTVSPost2010Prop32
280
     0
102
RTVSPost2010PropOp32
 70
     1
102
RTVSPost2010Prop33
280
     0
102
RTVSPost2010PropOp33
 70
     1
102
RTVSPost2010Prop34
280
     0
102
RTVSPost2010PropOp34
 70
     1
102
RTVSPost2010Prop35
280
     0
102
RTVSPost2010PropOp35
 70
     1
102
RTVSPost2010Prop36
280
     0
102
RTVSPost2010PropOp36
 70
     1
102
RTVSPost2010Prop37
 90
       50
102
RTVSPost2010PropOp37
 70
     1
102
RTVSPost2010Prop38
140
0.0
102
RTVSPost2010PropOp38
 70
     1
102
RTVSPost2010Prop39
140
1.0
102
RTVSPost2010PropOp39
 70
     1
102
RTVSPost2010Prop40
 90
        0
102
RTVSPost2010PropOp40
 70
     1
102
RTVSPost2010Prop41ColorIndex
 90
       18
102
RTVSPost2010Prop41ColorRGB
 90
        0
102
RTVSPost2010PropOp41
 70
     1
102
RTVSPost2010Prop42
 90
       50
102
RTVSPost2010PropOp42
 70
     1
102
RTVSPost2010Prop43
 90
        3
102
RTVSPost2010PropOp43
 70
     1
102
RTVSPost2010Prop44ColorIndex
 90
        5
102
RTVSPost2010Prop44ColorRGB
 90
      255
102
RTVSPost2010PropOp44
 70
     1
102
RTVSPost2010Prop45
280
     0
102
RTVSPost2010PropOp45
 70
     1
102
RTVSPost2010Prop46
 90
       50
102
RTVSPost2010PropOp46
 70
     1
102
RTVSPost2010Prop47
 90
       50
102
RTVSPost2010PropOp47
 70
     1
102
RTVSPost2010Prop48
 90
       50
102
RTVSPost2010PropOp48
 70
     1
102
RTVSPost2010Prop49
280
     0
102
RTVSPost2010PropOp49
 70
     1
102
RTVSPost2010Prop50
 90
       50
102
RTVSPost2010PropOp50
 70
     1
102
RTVSPost2010Prop51ColorIndex
 90
      256
102
RTVSPost2010Prop51ColorRGB
 90
-16777216
102
RTVSPost2010PropOp51
 70
     0
102
RTVSPost2010Prop52
140
1.0
102
RTVSPost2010PropOp52
 70
     0
102
RTVSPost2010Prop53
 90
        2
102
RTVSPost2010PropOp53
 70
     1
102
RTVSPost2010Prop54
  1
strokes_ogs.tif
102
RTVSPost2010PropOp54
 70
     1
102
RTVSPost2010Prop55
280
     0
102
RTVSPost2010PropOp55
 70
     1
102
RTVSPost2010Prop56
140
1.0
102
RTVSPost2010PropOp56
 70
     1
102
RTVSPost2010Prop57
140
1.0
102
RTVSPost2010PropOp57
 70
     1
  0
XRECORD
  5
241
102
{ACAD_REACTORS
330
240
102
}
330
240
100
AcDbXrecord
280
     1
102
RTVSPropertyOp0
 70
     1
102
RTVSPropertyOp1
 70
     1
102
RTVSPropertyOp2
 70
     1
102
RTVSPropertyOp3
 70
     1
102
RTVSPropertyOp4
 70
     1
102
RTVSPropertyOp5
 70
     1
102
RTVSPropertyOp6
 70
     1
102
RTVSPropertyOp7
 70
     1
102
RTVSPropertyOp8
 70
     1
102
RTVSPropertyOp9
 70
     1
102
RTVSPropertyOp10
 70
     1
102
RTVSPropertyOp11
 70
     1
102
RTVSPropertyOp12
 70
     1
102
RTVSPropertyOp13
 70
     1
102
RTVSPropertyOp14
 70
     1
102
RTVSPropertyOp15
 70
     1
102
RTVSPropertyOp16
 70
     1
102
RTVSPropertyOp17
 70
     1
102
RTVSPropertyOp18
 70
     1
102
RTVSPropertyOp19
 70
     1
102
RTVSPropertyOp20
 70
     1
102
RTVSPropertyOp21
 70
     1
102
RTVSPropertyOp22
 70
     1
102
RTVSPropertyOp23
 70
     1
102
RTVSPropertyOp24
 70
     1
102
RTVSPropertyOp25
 70
     1
102
RTVSPropertyOp26
 70
     1
102
RTVSPropertyOp27
 70
     1
102
RTVSPropertyOp28
 70
     1
102
RTVSPropertyOp29
 70
     1
102
RTVSPropertyOp30
 70
     1
102
RTVSPropertyOp31
 70
     1
102
RTVSPropertyOp32
 70
     1
102
RTVSPropertyOp33
 70
     1
102
RTVSPropertyOp34
 70
     1
102
RTVSPropertyOp35
 70
     1
102
RTVSPropertyOp36
 70
     1
102
RTVSPropertyOp37
 70
     1
102
RTVSPropertyOp38
 70
     1
102
RTVSPropertyOp39
 70
     1
102
RTVSPropertyOp40
 70
     1
102
RTVSPropertyOp41
 70
     1
102
RTVSPropertyOp42
 70
     1
102
RTVSPropertyOp43
 70
     1
102
RTVSPropertyOp44
 70
     1
102
RTVSPropertyOp45
 70
     1
102
RTVSPropertyOp46
 70
     1
102
RTVSPropertyOp47
 70
     1
102
RTVSPropertyOp48
 70
     1
102
RTVSPropertyOp49
 70
     1
102
RTVSPropertyOp50
 70
     1
102
RTVSPropertyOp51
 70
     0
102
RTVSPropertyOp52
 70
     0
102
RTVSPropertyOp53
 70
     1
102
RTVSPropertyOp54
 70
     1
102
RTVSPropertyOp55
 70
     1
102
RTVSPropertyOp56
 70
     1
102
RTVSPropertyOp57
 70
     1
102
RTVSPost2010Prop28
280
     0
102
RTVSPost2010PropOp28
 70
     1
102
RTVSPost2010Prop29
280
     1
102
RTVSPost2010PropOp29
 70
     1
102
RTVSPost2010Prop30
280
     1
102
RTVSPost2010PropOp30
 70
     1
102
RTVSPost2010Prop31
280
     0
102
RTVSPost2010PropOp31
 70
     1
102
RTVSPost2010Prop32
280
     0
102
RTVSPost2010PropOp32
 70
     1
102
RTVSPost2010Prop33
280
     0
102
RTVSPost2010PropOp33
 70
     1
102
RTVSPost2010Prop34
280
     0
102
RTVSPost2010PropOp34
 70
     1
102
RTVSPost2010Prop35
280
     0
102
RTVSPost2010PropOp35
 70
     1
102
RTVSPost2010Prop36
280
     0
102
RTVSPost2010PropOp36
 70
     1
102
RTVSPost2010Prop37
 90
       50
102
RTVSPost2010PropOp37
 70
     1
102
RTVSPost2010Prop38
140
0.0
102
RTVSPost2010PropOp38
 70
     1
102
RTVSPost2010Prop39
140
1.0
102
RTVSPost2010PropOp39
 70
     1
102
RTVSPost2010Prop40
 90
        0
102
RTVSPost2010PropOp40
 70
     1
102
RTVSPost2010Prop41ColorIndex
 90
       18
102
RTVSPost2010Prop41ColorRGB
 90
        0
102
RTVSPost2010PropOp41
 70
     1
102
RTVSPost2010Prop42
 90
       50
102
RTVSPost2010PropOp42
 70
     1
102
RTVSPost2010Prop43
 90
        3
102
RTVSPost2010PropOp43
 70
     1
102
RTVSPost2010Prop44ColorIndex
 90
        5
102
RTVSPost2010Prop44ColorRGB
 90
      255
102
RTVSPost2010PropOp44
 70
     1
102
RTVSPost2010Prop45
280
     0
102
RTVSPost2010PropOp45
 70
     1
102
RTVSPost2010Prop46
 90
       50
102
RTVSPost2010PropOp46
 70
     1
102
RTVSPost2010Prop47
 90
       50
102
RTVSPost2010PropOp47
 70
     1
102
RTVSPost2010Prop48
 90
       50
102
RTVSPost2010PropOp48
 70
     1
102
RTVSPost2010Prop49
280
     0
102
RTVSPost2010PropOp49
 70
     1
102
RTVSPost2010Prop50
 90
       50
102
RTVSPost2010PropOp50
 70
     1
102
RTVSPost2010Prop51ColorIndex
 90
      256
102
RTVSPost2010Prop51ColorRGB
 90
-16777216
102
RTVSPost2010PropOp51
 70
     0
102
RTVSPost2010Prop52
140
1.0
102
RTVSPost2010PropOp52
 70
     0
102
RTVSPost2010Prop53
 90
        2
102
RTVSPost2010PropOp53
 70
     1
102
RTVSPost2010Prop54
  1
strokes_ogs.tif
102
RTVSPost2010PropOp54
 70
     1
102
RTVSPost2010Prop55
280
     0
102
RTVSPost2010PropOp55
 70
     1
102
RTVSPost2010Prop56
140
1.0
102
RTVSPost2010PropOp56
 70
     1
102
RTVSPost2010Prop57
140
1.0
102
RTVSPost2010PropOp57
 70
     1
  0
XRECORD
  5
255
102
{ACAD_REACTORS
330
254
102
}
330
254
100
AcDbXrecord
280
     1
102
RTVSPropertyOp0
 70
     0
102
RTVSPropertyOp1
 70
     0
102
RTVSPropertyOp2
 70
     0
102
RTVSPropertyOp3
 70
     0
102
RTVSPropertyOp4
 70
     0
102
RTVSPropertyOp5
 70
     0
102
RTVSPropertyOp6
 70
     0
102
RTVSPropertyOp7
 70
     0
102
RTVSPropertyOp8
 70
     0
102
RTVSPropertyOp9
 70
     0
102
RTVSPropertyOp10
 70
     0
102
RTVSPropertyOp11
 70
     0
102
RTVSPropertyOp12
 70
     0
102
RTVSPropertyOp13
 70
     0
102
RTVSPropertyOp14
 70
     2
102
RTVSPropertyOp15
 70
     0
102
RTVSPropertyOp16
 70
     0
102
RTVSPropertyOp17
 70
     0
102
RTVSPropertyOp18
 70
     0
102
RTVSPropertyOp19
 70
     0
102
RTVSPropertyOp20
 70
     0
102
RTVSPropertyOp21
 70
     0
102
RTVSPropertyOp22
 70
     0
102
RTVSPropertyOp23
 70
     0
102
RTVSPropertyOp24
 70
     0
102
RTVSPropertyOp25
 70
     0
102
RTVSPropertyOp26
 70
     0
102
RTVSPropertyOp27
 70
     0
102
RTVSPropertyOp28
 70
     0
102
RTVSPropertyOp29
 70
     0
102
RTVSPropertyOp30
 70
     0
102
RTVSPropertyOp31
 70
     0
102
RTVSPropertyOp32
 70
     0
102
RTVSPropertyOp33
 70
     0
102
RTVSPropertyOp34
 70
     0
102
RTVSPropertyOp35
 70
     0
102
RTVSPropertyOp36
 70
     0
102
RTVSPropertyOp37
 70
     0
102
RTVSPropertyOp38
 70
     0
102
RTVSPropertyOp39
 70
     0
102
RTVSPropertyOp40
 70
     0
102
RTVSPropertyOp41
 70
     0
102
RTVSPropertyOp42
 70
     0
102
RTVSPropertyOp43
 70
     0
102
RTVSPropertyOp44
 70
     0
102
RTVSPropertyOp45
 70
     0
102
RTVSPropertyOp46
 70
     0
102
RTVSPropertyOp47
 70
     0
102
RTVSPropertyOp48
 70
     0
102
RTVSPropertyOp49
 70
     0
102
RTVSPropertyOp50
 70
     0
102
RTVSPropertyOp51
 70
     0
102
RTVSPropertyOp52
 70
     0
102
RTVSPropertyOp53
 70
     0
102
RTVSPropertyOp54
 70
     0
102
RTVSPropertyOp55
 70
     0
102
RTVSPropertyOp56
 70
     0
102
RTVSPropertyOp57
 70
     0
102
RTVSPost2010Prop28
280
     0
102
RTVSPost2010PropOp28
 70
     0
102
RTVSPost2010Prop29
280
     1
102
RTVSPost2010PropOp29
 70
     0
102
RTVSPost2010Prop30
280
     1
102
RTVSPost2010PropOp30
 70
     0
102
RTVSPost2010Prop31
280
     0
102
RTVSPost2010PropOp31
 70
     0
102
RTVSPost2010Prop32
280
     0
102
RTVSPost2010PropOp32
 70
     0
102
RTVSPost2010Prop33
280
     0
102
RTVSPost2010PropOp33
 70
     0
102
RTVSPost2010Prop34
280
     0
102
RTVSPost2010PropOp34
 70
     0
102
RTVSPost2010Prop35
280
     0
102
RTVSPost2010PropOp35
 70
     0
102
RTVSPost2010Prop36
280
     0
102
RTVSPost2010PropOp36
 70
     0
102
RTVSPost2010Prop37
 90
       50
102
RTVSPost2010PropOp37
 70
     0
102
RTVSPost2010Prop38
140
0.0
102
RTVSPost2010PropOp38
 70
     0
102
RTVSPost2010Prop39
140
1.0
102
RTVSPost2010PropOp39
 70
     0
102
RTVSPost2010Prop40
 90
        0
102
RTVSPost2010PropOp40
 70
     0
102
RTVSPost2010Prop41ColorIndex
 90
       18
102
RTVSPost2010Prop41ColorRGB
 90
        0
102
RTVSPost2010PropOp41
 70
     0
102
RTVSPost2010Prop42
 90
       50
102
RTVSPost2010PropOp42
 70
     0
102
RTVSPost2010Prop43
 90
        3
102
RTVSPost2010PropOp43
 70
     0
102
RTVSPost2010Prop44ColorIndex
 90
        5
102
RTVSPost2010Prop44ColorRGB
 90
      255
102
RTVSPost2010PropOp44
 70
     0
102
RTVSPost2010Prop45
280
     0
102
RTVSPost2010PropOp45
 70
     0
102
RTVSPost2010Prop46
 90
       50
102
RTVSPost2010PropOp46
 70
     0
102
RTVSPost2010Prop47
 90
       50
102
RTVSPost2010PropOp47
 70
     0
102
RTVSPost2010Prop48
 90
       50
102
RTVSPost2010PropOp48
 70
     0
102
RTVSPost2010Prop49
280
     0
102
RTVSPost2010PropOp49
 70
     0
102
RTVSPost2010Prop50
 90
       50
102
RTVSPost2010PropOp50
 70
     0
102
RTVSPost2010Prop51ColorIndex
 90
      256
102
RTVSPost2010Prop51ColorRGB
 90
-16777216
102
RTVSPost2010PropOp51
 70
     0
102
RTVSPost2010Prop52
140
1.0
102
RTVSPost2010PropOp52
 70
     0
102
RTVSPost2010Prop53
 90
        2
102
RTVSPost2010PropOp53
 70
     0
102
RTVSPost2010Prop54
  1
strokes_ogs.tif
102
RTVSPost2010PropOp54
 70
     0
102
RTVSPost2010Prop55
280
     0
102
RTVSPost2010PropOp55
 70
     0
102
RTVSPost2010Prop56
140
1.0
102
RTVSPost2010PropOp56
 70
     0
102
RTVSPost2010Prop57
140
1.0
102
RTVSPost2010PropOp57
 70
     0
  0
XRECORD
  5
24F
102
{ACAD_REACTORS
330
24E
102
}
330
24E
100
AcDbXrecord
280
     1
102
RTVSPropertyOp0
 70
     1
102
RTVSPropertyOp1
 70
     1
102
RTVSPropertyOp2
 70
     1
102
RTVSPropertyOp3
 70
     1
102
RTVSPropertyOp4
 70
     1
102
RTVSPropertyOp5
 70
     1
102
RTVSPropertyOp6
 70
     1
102
RTVSPropertyOp7
 70
     1
102
RTVSPropertyOp8
 70
     1
102
RTVSPropertyOp9
 70
     1
102
RTVSPropertyOp10
 70
     1
102
RTVSPropertyOp11
 70
     1
102
RTVSPropertyOp12
 70
     1
102
RTVSPropertyOp13
 70
     1
102
RTVSPropertyOp14
 70
     1
102
RTVSPropertyOp15
 70
     1
102
RTVSPropertyOp16
 70
     1
102
RTVSPropertyOp17
 70
     1
102
RTVSPropertyOp18
 70
     1
102
RTVSPropertyOp19
 70
     1
102
RTVSPropertyOp20
 70
     1
102
RTVSPropertyOp21
 70
     1
102
RTVSPropertyOp22
 70
     1
102
RTVSPropertyOp23
 70
     1
102
RTVSPropertyOp24
 70
     1
102
RTVSPropertyOp25
 70
     1
102
RTVSPropertyOp26
 70
     1
102
RTVSPropertyOp27
 70
     1
102
RTVSPropertyOp28
 70
     1
102
RTVSPropertyOp29
 70
     1
102
RTVSPropertyOp30
 70
     1
102
RTVSPropertyOp31
 70
     1
102
RTVSPropertyOp32
 70
     1
102
RTVSPropertyOp33
 70
     1
102
RTVSPropertyOp34
 70
     1
102
RTVSPropertyOp35
 70
     1
102
RTVSPropertyOp36
 70
     1
102
RTVSPropertyOp37
 70
     1
102
RTVSPropertyOp38
 70
     1
102
RTVSPropertyOp39
 70
     1
102
RTVSPropertyOp40
 70
     1
102
RTVSPropertyOp41
 70
     1
102
RTVSPropertyOp42
 70
     1
102
RTVSPropertyOp43
 70
     1
102
RTVSPropertyOp44
 70
     1
102
RTVSPropertyOp45
 70
     1
102
RTVSPropertyOp46
 70
     1
102
RTVSPropertyOp47
 70
     1
102
RTVSPropertyOp48
 70
     1
102
RTVSPropertyOp49
 70
     1
102
RTVSPropertyOp50
 70
     1
102
RTVSPropertyOp51
 70
     0
102
RTVSPropertyOp52
 70
     0
102
RTVSPropertyOp53
 70
     1
102
RTVSPropertyOp54
 70
     1
102
RTVSPropertyOp55
 70
     1
102
RTVSPropertyOp56
 70
     1
102
RTVSPropertyOp57
 70
     1
102
RTVSPost2010Prop28
280
     0
102
RTVSPost2010PropOp28
 70
     1
102
RTVSPost2010Prop29
280
     1
102
RTVSPost2010PropOp29
 70
     1
102
RTVSPost2010Prop30
280
     1
102
RTVSPost2010PropOp30
 70
     1
102
RTVSPost2010Prop31
280
     0
102
RTVSPost2010PropOp31
 70
     1
102
RTVSPost2010Prop32
280
     0
102
RTVSPost2010PropOp32
 70
     1
102
RTVSPost2010Prop33
280
     0
102
RTVSPost2010PropOp33
 70
     1
102
RTVSPost2010Prop34
280
     0
102
RTVSPost2010PropOp34
 70
     1
102
RTVSPost2010Prop35
280
     0
102
RTVSPost2010PropOp35
 70
     1
102
RTVSPost2010Prop36
280
     0
102
RTVSPost2010PropOp36
 70
     1
102
RTVSPost2010Prop37
 90
       50
102
RTVSPost2010PropOp37
 70
     1
102
RTVSPost2010Prop38
140
0.0
102
RTVSPost2010PropOp38
 70
     1
102
RTVSPost2010Prop39
140
1.0
102
RTVSPost2010PropOp39
 70
     1
102
RTVSPost2010Prop40
 90
        0
102
RTVSPost2010PropOp40
 70
     1
102
RTVSPost2010Prop41ColorIndex
 90
       18
102
RTVSPost2010Prop41ColorRGB
 90
        0
102
RTVSPost2010PropOp41
 70
     1
102
RTVSPost2010Prop42
 90
       50
102
RTVSPost2010PropOp42
 70
     1
102
RTVSPost2010Prop43
 90
        3
102
RTVSPost2010PropOp43
 70
     1
102
RTVSPost2010Prop44ColorIndex
 90
        5
102
RTVSPost2010Prop44ColorRGB
 90
      255
102
RTVSPost2010PropOp44
 70
     1
102
RTVSPost2010Prop45
280
     0
102
RTVSPost2010PropOp45
 70
     1
102
RTVSPost2010Prop46
 90
       50
102
RTVSPost2010PropOp46
 70
     1
102
RTVSPost2010Prop47
 90
       50
102
RTVSPost2010PropOp47
 70
     1
102
RTVSPost2010Prop48
 90
       50
102
RTVSPost2010PropOp48
 70
     1
102
RTVSPost2010Prop49
280
     0
102
RTVSPost2010PropOp49
 70
     1
102
RTVSPost2010Prop50
 90
       50
102
RTVSPost2010PropOp50
 70
     1
102
RTVSPost2010Prop51ColorIndex
 90
      256
102
RTVSPost2010Prop51ColorRGB
 90
-16777216
102
RTVSPost2010PropOp51
 70
     0
102
RTVSPost2010Prop52
140
1.0
102
RTVSPost2010PropOp52
 70
     0
102
RTVSPost2010Prop53
 90
        2
102
RTVSPost2010PropOp53
 70
     1
102
RTVSPost2010Prop54
  1
strokes_ogs.tif
102
RTVSPost2010PropOp54
 70
     1
102
RTVSPost2010Prop55
280
     0
102
RTVSPost2010PropOp55
 70
     1
102
RTVSPost2010Prop56
140
1.0
102
RTVSPost2010PropOp56
 70
     1
102
RTVSPost2010Prop57
140
1.0
102
RTVSPost2010PropOp57
 70
     1
  0
XRECORD
  5
257
102
{ACAD_REACTORS
330
256
102
}
330
256
100
AcDbXrecord
280
     1
102
RTVSPropertyOp0
 70
     0
102
RTVSPropertyOp1
 70
     0
102
RTVSPropertyOp2
 70
     0
102
RTVSPropertyOp3
 70
     0
102
RTVSPropertyOp4
 70
     0
102
RTVSPropertyOp5
 70
     0
102
RTVSPropertyOp6
 70
     0
102
RTVSPropertyOp7
 70
     0
102
RTVSPropertyOp8
 70
     0
102
RTVSPropertyOp9
 70
     0
102
RTVSPropertyOp10
 70
     0
102
RTVSPropertyOp11
 70
     0
102
RTVSPropertyOp12
 70
     0
102
RTVSPropertyOp13
 70
     0
102
RTVSPropertyOp14
 70
     2
102
RTVSPropertyOp15
 70
     0
102
RTVSPropertyOp16
 70
     0
102
RTVSPropertyOp17
 70
     0
102
RTVSPropertyOp18
 70
     0
102
RTVSPropertyOp19
 70
     0
102
RTVSPropertyOp20
 70
     0
102
RTVSPropertyOp21
 70
     0
102
RTVSPropertyOp22
 70
     0
102
RTVSPropertyOp23
 70
     0
102
RTVSPropertyOp24
 70
     0
102
RTVSPropertyOp25
 70
     0
102
RTVSPropertyOp26
 70
     0
102
RTVSPropertyOp27
 70
     0
102
RTVSPropertyOp28
 70
     0
102
RTVSPropertyOp29
 70
     0
102
RTVSPropertyOp30
 70
     0
102
RTVSPropertyOp31
 70
     0
102
RTVSPropertyOp32
 70
     0
102
RTVSPropertyOp33
 70
     0
102
RTVSPropertyOp34
 70
     0
102
RTVSPropertyOp35
 70
     0
102
RTVSPropertyOp36
 70
     0
102
RTVSPropertyOp37
 70
     0
102
RTVSPropertyOp38
 70
     0
102
RTVSPropertyOp39
 70
     0
102
RTVSPropertyOp40
 70
     0
102
RTVSPropertyOp41
 70
     0
102
RTVSPropertyOp42
 70
     0
102
RTVSPropertyOp43
 70
     0
102
RTVSPropertyOp44
 70
     0
102
RTVSPropertyOp45
 70
     0
102
RTVSPropertyOp46
 70
     0
102
RTVSPropertyOp47
 70
     0
102
RTVSPropertyOp48
 70
     0
102
RTVSPropertyOp49
 70
     0
102
RTVSPropertyOp50
 70
     0
102
RTVSPropertyOp51
 70
     0
102
RTVSPropertyOp52
 70
     0
102
RTVSPropertyOp53
 70
     0
102
RTVSPropertyOp54
 70
     0
102
RTVSPropertyOp55
 70
     0
102
RTVSPropertyOp56
 70
     0
102
RTVSPropertyOp57
 70
     0
102
RTVSPost2010Prop28
280
     0
102
RTVSPost2010PropOp28
 70
     0
102
RTVSPost2010Prop29
280
     1
102
RTVSPost2010PropOp29
 70
     0
102
RTVSPost2010Prop30
280
     1
102
RTVSPost2010PropOp30
 70
     0
102
RTVSPost2010Prop31
280
     0
102
RTVSPost2010PropOp31
 70
     0
102
RTVSPost2010Prop32
280
     0
102
RTVSPost2010PropOp32
 70
     0
102
RTVSPost2010Prop33
280
     0
102
RTVSPost2010PropOp33
 70
     0
102
RTVSPost2010Prop34
280
     0
102
RTVSPost2010PropOp34
 70
     0
102
RTVSPost2010Prop35
280
     0
102
RTVSPost2010PropOp35
 70
     0
102
RTVSPost2010Prop36
280
     0
102
RTVSPost2010PropOp36
 70
     0
102
RTVSPost2010Prop37
 90
       50
102
RTVSPost2010PropOp37
 70
     0
102
RTVSPost2010Prop38
140
0.0
102
RTVSPost2010PropOp38
 70
     0
102
RTVSPost2010Prop39
140
1.0
102
RTVSPost2010PropOp39
 70
     0
102
RTVSPost2010Prop40
 90
        0
102
RTVSPost2010PropOp40
 70
     0
102
RTVSPost2010Prop41ColorIndex
 90
       18
102
RTVSPost2010Prop41ColorRGB
 90
        0
102
RTVSPost2010PropOp41
 70
     0
102
RTVSPost2010Prop42
 90
       50
102
RTVSPost2010PropOp42
 70
     0
102
RTVSPost2010Prop43
 90
        3
102
RTVSPost2010PropOp43
 70
     0
102
RTVSPost2010Prop44ColorIndex
 90
        5
102
RTVSPost2010Prop44ColorRGB
 90
      255
102
RTVSPost2010PropOp44
 70
     0
102
RTVSPost2010Prop45
280
     0
102
RTVSPost2010PropOp45
 70
     0
102
RTVSPost2010Prop46
 90
       50
102
RTVSPost2010PropOp46
 70
     0
102
RTVSPost2010Prop47
 90
       50
102
RTVSPost2010PropOp47
 70
     0
102
RTVSPost2010Prop48
 90
       50
102
RTVSPost2010PropOp48
 70
     0
102
RTVSPost2010Prop49
280
     0
102
RTVSPost2010PropOp49
 70
     0
102
RTVSPost2010Prop50
 90
       50
102
RTVSPost2010PropOp50
 70
     0
102
RTVSPost2010Prop51ColorIndex
 90
      256
102
RTVSPost2010Prop51ColorRGB
 90
-16777216
102
RTVSPost2010PropOp51
 70
     0
102
RTVSPost2010Prop52
140
1.0
102
RTVSPost2010PropOp52
 70
     0
102
RTVSPost2010Prop53
 90
        2
102
RTVSPost2010PropOp53
 70
     0
102
RTVSPost2010Prop54
  1
strokes_ogs.tif
102
RTVSPost2010PropOp54
 70
     0
102
RTVSPost2010Prop55
280
     0
102
RTVSPost2010PropOp55
 70
     0
102
RTVSPost2010Prop56
140
1.0
102
RTVSPost2010PropOp56
 70
     0
102
RTVSPost2010Prop57
140
1.0
102
RTVSPost2010PropOp57
 70
     0
  0
XRECORD
  5
245
102
{ACAD_REACTORS
330
244
102
}
330
244
100
AcDbXrecord
280
     1
102
RTVSPropertyOp0
 70
     1
102
RTVSPropertyOp1
 70
     1
102
RTVSPropertyOp2
 70
     1
102
RTVSPropertyOp3
 70
     1
102
RTVSPropertyOp4
 70
     1
102
RTVSPropertyOp5
 70
     1
102
RTVSPropertyOp6
 70
     1
102
RTVSPropertyOp7
 70
     1
102
RTVSPropertyOp8
 70
     1
102
RTVSPropertyOp9
 70
     1
102
RTVSPropertyOp10
 70
     1
102
RTVSPropertyOp11
 70
     1
102
RTVSPropertyOp12
 70
     1
102
RTVSPropertyOp13
 70
     1
102
RTVSPropertyOp14
 70
     1
102
RTVSPropertyOp15
 70
     1
102
RTVSPropertyOp16
 70
     1
102
RTVSPropertyOp17
 70
     1
102
RTVSPropertyOp18
 70
     1
102
RTVSPropertyOp19
 70
     1
102
RTVSPropertyOp20
 70
     1
102
RTVSPropertyOp21
 70
     1
102
RTVSPropertyOp22
 70
     1
102
RTVSPropertyOp23
 70
     1
102
RTVSPropertyOp24
 70
     1
102
RTVSPropertyOp25
 70
     1
102
RTVSPropertyOp26
 70
     1
102
RTVSPropertyOp27
 70
     1
102
RTVSPropertyOp28
 70
     1
102
RTVSPropertyOp29
 70
     1
102
RTVSPropertyOp30
 70
     1
102
RTVSPropertyOp31
 70
     1
102
RTVSPropertyOp32
 70
     1
102
RTVSPropertyOp33
 70
     1
102
RTVSPropertyOp34
 70
     1
102
RTVSPropertyOp35
 70
     1
102
RTVSPropertyOp36
 70
     1
102
RTVSPropertyOp37
 70
     1
102
RTVSPropertyOp38
 70
     1
102
RTVSPropertyOp39
 70
     1
102
RTVSPropertyOp40
 70
     1
102
RTVSPropertyOp41
 70
     1
102
RTVSPropertyOp42
 70
     1
102
RTVSPropertyOp43
 70
     1
102
RTVSPropertyOp44
 70
     1
102
RTVSPropertyOp45
 70
     1
102
RTVSPropertyOp46
 70
     1
102
RTVSPropertyOp47
 70
     1
102
RTVSPropertyOp48
 70
     1
102
RTVSPropertyOp49
 70
     1
102
RTVSPropertyOp50
 70
     1
102
RTVSPropertyOp51
 70
     0
102
RTVSPropertyOp52
 70
     0
102
RTVSPropertyOp53
 70
     1
102
RTVSPropertyOp54
 70
     1
102
RTVSPropertyOp55
 70
     1
102
RTVSPropertyOp56
 70
     1
102
RTVSPropertyOp57
 70
     1
102
RTVSPost2010Prop28
280
     0
102
RTVSPost2010PropOp28
 70
     1
102
RTVSPost2010Prop29
280
     1
102
RTVSPost2010PropOp29
 70
     1
102
RTVSPost2010Prop30
280
     1
102
RTVSPost2010PropOp30
 70
     1
102
RTVSPost2010Prop31
280
     0
102
RTVSPost2010PropOp31
 70
     1
102
RTVSPost2010Prop32
280
     0
102
RTVSPost2010PropOp32
 70
     1
102
RTVSPost2010Prop33
280
     0
102
RTVSPost2010PropOp33
 70
     1
102
RTVSPost2010Prop34
280
     0
102
RTVSPost2010PropOp34
 70
     1
102
RTVSPost2010Prop35
280
     0
102
RTVSPost2010PropOp35
 70
     1
102
RTVSPost2010Prop36
280
     0
102
RTVSPost2010PropOp36
 70
     1
102
RTVSPost2010Prop37
 90
       50
102
RTVSPost2010PropOp37
 70
     1
102
RTVSPost2010Prop38
140
0.0
102
RTVSPost2010PropOp38
 70
     1
102
RTVSPost2010Prop39
140
1.0
102
RTVSPost2010PropOp39
 70
     1
102
RTVSPost2010Prop40
 90
        0
102
RTVSPost2010PropOp40
 70
     1
102
RTVSPost2010Prop41ColorIndex
 90
       18
102
RTVSPost2010Prop41ColorRGB
 90
        0
102
RTVSPost2010PropOp41
 70
     1
102
RTVSPost2010Prop42
 90
       50
102
RTVSPost2010PropOp42
 70
     1
102
RTVSPost2010Prop43
 90
        3
102
RTVSPost2010PropOp43
 70
     1
102
RTVSPost2010Prop44ColorIndex
 90
        5
102
RTVSPost2010Prop44ColorRGB
 90
      255
102
RTVSPost2010PropOp44
 70
     1
102
RTVSPost2010Prop45
280
     0
102
RTVSPost2010PropOp45
 70
     1
102
RTVSPost2010Prop46
 90
       50
102
RTVSPost2010PropOp46
 70
     1
102
RTVSPost2010Prop47
 90
       50
102
RTVSPost2010PropOp47
 70
     1
102
RTVSPost2010Prop48
 90
       50
102
RTVSPost2010PropOp48
 70
     1
102
RTVSPost2010Prop49
280
     0
102
RTVSPost2010PropOp49
 70
     1
102
RTVSPost2010Prop50
 90
       50
102
RTVSPost2010PropOp50
 70
     1
102
RTVSPost2010Prop51ColorIndex
 90
      256
102
RTVSPost2010Prop51ColorRGB
 90
-16777216
102
RTVSPost2010PropOp51
 70
     0
102
RTVSPost2010Prop52
140
1.0
102
RTVSPost2010PropOp52
 70
     0
102
RTVSPost2010Prop53
 90
        2
102
RTVSPost2010PropOp53
 70
     1
102
RTVSPost2010Prop54
  1
strokes_ogs.tif
102
RTVSPost2010PropOp54
 70
     1
102
RTVSPost2010Prop55
280
     0
102
RTVSPost2010PropOp55
 70
     1
102
RTVSPost2010Prop56
140
1.0
102
RTVSPost2010PropOp56
 70
     1
102
RTVSPost2010Prop57
140
1.0
102
RTVSPost2010PropOp57
 70
     1
  0
XRECORD
  5
263
102
{ACAD_REACTORS
330
262
102
}
330
262
100
AcDbXrecord
280
     1
102
RTVSPropertyOp0
 70
     1
102
RTVSPropertyOp1
 70
     1
102
RTVSPropertyOp2
 70
     1
102
RTVSPropertyOp3
 70
     1
102
RTVSPropertyOp4
 70
     1
102
RTVSPropertyOp5
 70
     1
102
RTVSPropertyOp6
 70
     1
102
RTVSPropertyOp7
 70
     1
102
RTVSPropertyOp8
 70
     1
102
RTVSPropertyOp9
 70
     1
102
RTVSPropertyOp10
 70
     1
102
RTVSPropertyOp11
 70
     1
102
RTVSPropertyOp12
 70
     1
102
RTVSPropertyOp13
 70
     1
102
RTVSPropertyOp14
 70
     1
102
RTVSPropertyOp15
 70
     1
102
RTVSPropertyOp16
 70
     1
102
RTVSPropertyOp17
 70
     1
102
RTVSPropertyOp18
 70
     1
102
RTVSPropertyOp19
 70
     1
102
RTVSPropertyOp20
 70
     1
102
RTVSPropertyOp21
 70
     1
102
RTVSPropertyOp22
 70
     1
102
RTVSPropertyOp23
 70
     1
102
RTVSPropertyOp24
 70
     1
102
RTVSPropertyOp25
 70
     1
102
RTVSPropertyOp26
 70
     1
102
RTVSPropertyOp27
 70
     1
102
RTVSPropertyOp28
 70
     1
102
RTVSPropertyOp29
 70
     1
102
RTVSPropertyOp30
 70
     1
102
RTVSPropertyOp31
 70
     1
102
RTVSPropertyOp32
 70
     1
102
RTVSPropertyOp33
 70
     1
102
RTVSPropertyOp34
 70
     1
102
RTVSPropertyOp35
 70
     1
102
RTVSPropertyOp36
 70
     1
102
RTVSPropertyOp37
 70
     1
102
RTVSPropertyOp38
 70
     1
102
RTVSPropertyOp39
 70
     1
102
RTVSPropertyOp40
 70
     1
102
RTVSPropertyOp41
 70
     1
102
RTVSPropertyOp42
 70
     1
102
RTVSPropertyOp43
 70
     1
102
RTVSPropertyOp44
 70
     1
102
RTVSPropertyOp45
 70
     1
102
RTVSPropertyOp46
 70
     1
102
RTVSPropertyOp47
 70
     1
102
RTVSPropertyOp48
 70
     1
102
RTVSPropertyOp49
 70
     1
102
RTVSPropertyOp50
 70
     1
102
RTVSPropertyOp51
 70
     0
102
RTVSPropertyOp52
 70
     0
102
RTVSPropertyOp53
 70
     1
102
RTVSPropertyOp54
 70
     1
102
RTVSPropertyOp55
 70
     1
102
RTVSPropertyOp56
 70
     1
102
RTVSPropertyOp57
 70
     1
102
RTVSPost2010Prop28
280
     0
102
RTVSPost2010PropOp28
 70
     1
102
RTVSPost2010Prop29
280
     1
102
RTVSPost2010PropOp29
 70
     1
102
RTVSPost2010Prop30
280
     1
102
RTVSPost2010PropOp30
 70
     1
102
RTVSPost2010Prop31
280
     0
102
RTVSPost2010PropOp31
 70
     1
102
RTVSPost2010Prop32
280
     0
102
RTVSPost2010PropOp32
 70
     1
102
RTVSPost2010Prop33
280
     0
102
RTVSPost2010PropOp33
 70
     1
102
RTVSPost2010Prop34
280
     0
102
RTVSPost2010PropOp34
 70
     1
102
RTVSPost2010Prop35
280
     0
102
RTVSPost2010PropOp35
 70
     1
102
RTVSPost2010Prop36
280
     0
102
RTVSPost2010PropOp36
 70
     1
102
RTVSPost2010Prop37
 90
       50
102
RTVSPost2010PropOp37
 70
     1
102
RTVSPost2010Prop38
140
0.0
102
RTVSPost2010PropOp38
 70
     1
102
RTVSPost2010Prop39
140
1.0
102
RTVSPost2010PropOp39
 70
     1
102
RTVSPost2010Prop40
 90
        0
102
RTVSPost2010PropOp40
 70
     1
102
RTVSPost2010Prop41ColorIndex
 90
       18
102
RTVSPost2010Prop41ColorRGB
 90
        0
102
RTVSPost2010PropOp41
 70
     1
102
RTVSPost2010Prop42
 90
       50
102
RTVSPost2010PropOp42
 70
     1
102
RTVSPost2010Prop43
 90
        3
102
RTVSPost2010PropOp43
 70
     1
102
RTVSPost2010Prop44ColorIndex
 90
        5
102
RTVSPost2010Prop44ColorRGB
 90
      255
102
RTVSPost2010PropOp44
 70
     1
102
RTVSPost2010Prop45
280
     0
102
RTVSPost2010PropOp45
 70
     1
102
RTVSPost2010Prop46
 90
       50
102
RTVSPost2010PropOp46
 70
     1
102
RTVSPost2010Prop47
 90
       50
102
RTVSPost2010PropOp47
 70
     1
102
RTVSPost2010Prop48
 90
       50
102
RTVSPost2010PropOp48
 70
     1
102
RTVSPost2010Prop49
280
     0
102
RTVSPost2010PropOp49
 70
     1
102
RTVSPost2010Prop50
 90
       50
102
RTVSPost2010PropOp50
 70
     1
102
RTVSPost2010Prop51ColorIndex
 90
      256
102
RTVSPost2010Prop51ColorRGB
 90
-16777216
102
RTVSPost2010PropOp51
 70
     0
102
RTVSPost2010Prop52
140
1.0
102
RTVSPost2010PropOp52
 70
     0
102
RTVSPost2010Prop53
 90
        2
102
RTVSPost2010PropOp53
 70
     1
102
RTVSPost2010Prop54
  1
strokes_ogs.tif
102
RTVSPost2010PropOp54
 70
     1
102
RTVSPost2010Prop55
280
     0
102
RTVSPost2010PropOp55
 70
     1
102
RTVSPost2010Prop56
140
1.0
102
RTVSPost2010PropOp56
 70
     1
102
RTVSPost2010Prop57
140
1.0
102
RTVSPost2010PropOp57
 70
     1
  0
XRECORD
  5
261
102
{ACAD_REACTORS
330
260
102
}
330
260
100
AcDbXrecord
280
     1
102
RTVSPropertyOp0
 70
     1
102
RTVSPropertyOp1
 70
     1
102
RTVSPropertyOp2
 70
     1
102
RTVSPropertyOp3
 70
     1
102
RTVSPropertyOp4
 70
     1
102
RTVSPropertyOp5
 70
     1
102
RTVSPropertyOp6
 70
     1
102
RTVSPropertyOp7
 70
     1
102
RTVSPropertyOp8
 70
     1
102
RTVSPropertyOp9
 70
     1
102
RTVSPropertyOp10
 70
     1
102
RTVSPropertyOp11
 70
     1
102
RTVSPropertyOp12
 70
     1
102
RTVSPropertyOp13
 70
     1
102
RTVSPropertyOp14
 70
     1
102
RTVSPropertyOp15
 70
     1
102
RTVSPropertyOp16
 70
     1
102
RTVSPropertyOp17
 70
     1
102
RTVSPropertyOp18
 70
     1
102
RTVSPropertyOp19
 70
     1
102
RTVSPropertyOp20
 70
     1
102
RTVSPropertyOp21
 70
     1
102
RTVSPropertyOp22
 70
     1
102
RTVSPropertyOp23
 70
     1
102
RTVSPropertyOp24
 70
     1
102
RTVSPropertyOp25
 70
     1
102
RTVSPropertyOp26
 70
     1
102
RTVSPropertyOp27
 70
     1
102
RTVSPropertyOp28
 70
     1
102
RTVSPropertyOp29
 70
     1
102
RTVSPropertyOp30
 70
     1
102
RTVSPropertyOp31
 70
     1
102
RTVSPropertyOp32
 70
     1
102
RTVSPropertyOp33
 70
     1
102
RTVSPropertyOp34
 70
     1
102
RTVSPropertyOp35
 70
     1
102
RTVSPropertyOp36
 70
     1
102
RTVSPropertyOp37
 70
     1
102
RTVSPropertyOp38
 70
     1
102
RTVSPropertyOp39
 70
     1
102
RTVSPropertyOp40
 70
     1
102
RTVSPropertyOp41
 70
     1
102
RTVSPropertyOp42
 70
     1
102
RTVSPropertyOp43
 70
     1
102
RTVSPropertyOp44
 70
     1
102
RTVSPropertyOp45
 70
     1
102
RTVSPropertyOp46
 70
     1
102
RTVSPropertyOp47
 70
     1
102
RTVSPropertyOp48
 70
     1
102
RTVSPropertyOp49
 70
     1
102
RTVSPropertyOp50
 70
     1
102
RTVSPropertyOp51
 70
     0
102
RTVSPropertyOp52
 70
     0
102
RTVSPropertyOp53
 70
     1
102
RTVSPropertyOp54
 70
     1
102
RTVSPropertyOp55
 70
     1
102
RTVSPropertyOp56
 70
     1
102
RTVSPropertyOp57
 70
     1
102
RTVSPost2010Prop28
280
     0
102
RTVSPost2010PropOp28
 70
     1
102
RTVSPost2010Prop29
280
     1
102
RTVSPost2010PropOp29
 70
     1
102
RTVSPost2010Prop30
280
     1
102
RTVSPost2010PropOp30
 70
     1
102
RTVSPost2010Prop31
280
     0
102
RTVSPost2010PropOp31
 70
     1
102
RTVSPost2010Prop32
280
     0
102
RTVSPost2010PropOp32
 70
     1
102
RTVSPost2010Prop33
280
     0
102
RTVSPost2010PropOp33
 70
     1
102
RTVSPost2010Prop34
280
     0
102
RTVSPost2010PropOp34
 70
     1
102
RTVSPost2010Prop35
280
     0
102
RTVSPost2010PropOp35
 70
     1
102
RTVSPost2010Prop36
280
     0
102
RTVSPost2010PropOp36
 70
     1
102
RTVSPost2010Prop37
 90
       50
102
RTVSPost2010PropOp37
 70
     1
102
RTVSPost2010Prop38
140
0.0
102
RTVSPost2010PropOp38
 70
     1
102
RTVSPost2010Prop39
140
1.0
102
RTVSPost2010PropOp39
 70
     1
102
RTVSPost2010Prop40
 90
        0
102
RTVSPost2010PropOp40
 70
     1
102
RTVSPost2010Prop41ColorIndex
 90
       18
102
RTVSPost2010Prop41ColorRGB
 90
        0
102
RTVSPost2010PropOp41
 70
     1
102
RTVSPost2010Prop42
 90
       50
102
RTVSPost2010PropOp42
 70
     1
102
RTVSPost2010Prop43
 90
        3
102
RTVSPost2010PropOp43
 70
     1
102
RTVSPost2010Prop44ColorIndex
 90
        5
102
RTVSPost2010Prop44ColorRGB
 90
      255
102
RTVSPost2010PropOp44
 70
     1
102
RTVSPost2010Prop45
280
     0
102
RTVSPost2010PropOp45
 70
     1
102
RTVSPost2010Prop46
 90
       50
102
RTVSPost2010PropOp46
 70
     1
102
RTVSPost2010Prop47
 90
       50
102
RTVSPost2010PropOp47
 70
     1
102
RTVSPost2010Prop48
 90
       50
102
RTVSPost2010PropOp48
 70
     1
102
RTVSPost2010Prop49
280
     0
102
RTVSPost2010PropOp49
 70
     1
102
RTVSPost2010Prop50
 90
       50
102
RTVSPost2010PropOp50
 70
     1
102
RTVSPost2010Prop51ColorIndex
 90
      256
102
RTVSPost2010Prop51ColorRGB
 90
-16777216
102
RTVSPost2010PropOp51
 70
     0
102
RTVSPost2010Prop52
140
1.0
102
RTVSPost2010PropOp52
 70
     0
102
RTVSPost2010Prop53
 90
        2
102
RTVSPost2010PropOp53
 70
     1
102
RTVSPost2010Prop54
  1
strokes_ogs.tif
102
RTVSPost2010PropOp54
 70
     1
102
RTVSPost2010Prop55
280
     0
102
RTVSPost2010PropOp55
 70
     1
102
RTVSPost2010Prop56
140
1.0
102
RTVSPost2010PropOp56
 70
     1
102
RTVSPost2010Prop57
140
1.0
102
RTVSPost2010PropOp57
 70
     1
  0
XRECORD
  5
25B
102
{ACAD_REACTORS
330
25A
102
}
330
25A
100
AcDbXrecord
280
     1
102
RTVSPropertyOp0
 70
     1
102
RTVSPropertyOp1
 70
     1
102
RTVSPropertyOp2
 70
     1
102
RTVSPropertyOp3
 70
     1
102
RTVSPropertyOp4
 70
     1
102
RTVSPropertyOp5
 70
     1
102
RTVSPropertyOp6
 70
     1
102
RTVSPropertyOp7
 70
     1
102
RTVSPropertyOp8
 70
     1
102
RTVSPropertyOp9
 70
     1
102
RTVSPropertyOp10
 70
     1
102
RTVSPropertyOp11
 70
     1
102
RTVSPropertyOp12
 70
     1
102
RTVSPropertyOp13
 70
     1
102
RTVSPropertyOp14
 70
     1
102
RTVSPropertyOp15
 70
     1
102
RTVSPropertyOp16
 70
     1
102
RTVSPropertyOp17
 70
     1
102
RTVSPropertyOp18
 70
     1
102
RTVSPropertyOp19
 70
     1
102
RTVSPropertyOp20
 70
     1
102
RTVSPropertyOp21
 70
     1
102
RTVSPropertyOp22
 70
     1
102
RTVSPropertyOp23
 70
     1
102
RTVSPropertyOp24
 70
     1
102
RTVSPropertyOp25
 70
     1
102
RTVSPropertyOp26
 70
     1
102
RTVSPropertyOp27
 70
     1
102
RTVSPropertyOp28
 70
     1
102
RTVSPropertyOp29
 70
     1
102
RTVSPropertyOp30
 70
     1
102
RTVSPropertyOp31
 70
     1
102
RTVSPropertyOp32
 70
     1
102
RTVSPropertyOp33
 70
     1
102
RTVSPropertyOp34
 70
     1
102
RTVSPropertyOp35
 70
     1
102
RTVSPropertyOp36
 70
     1
102
RTVSPropertyOp37
 70
     1
102
RTVSPropertyOp38
 70
     1
102
RTVSPropertyOp39
 70
     1
102
RTVSPropertyOp40
 70
     1
102
RTVSPropertyOp41
 70
     1
102
RTVSPropertyOp42
 70
     1
102
RTVSPropertyOp43
 70
     1
102
RTVSPropertyOp44
 70
     1
102
RTVSPropertyOp45
 70
     1
102
RTVSPropertyOp46
 70
     1
102
RTVSPropertyOp47
 70
     1
102
RTVSPropertyOp48
 70
     1
102
RTVSPropertyOp49
 70
     1
102
RTVSPropertyOp50
 70
     1
102
RTVSPropertyOp51
 70
     0
102
RTVSPropertyOp52
 70
     0
102
RTVSPropertyOp53
 70
     1
102
RTVSPropertyOp54
 70
     1
102
RTVSPropertyOp55
 70
     1
102
RTVSPropertyOp56
 70
     1
102
RTVSPropertyOp57
 70
     1
102
RTVSPost2010Prop28
280
     0
102
RTVSPost2010PropOp28
 70
     1
102
RTVSPost2010Prop29
280
     1
102
RTVSPost2010PropOp29
 70
     1
102
RTVSPost2010Prop30
280
     1
102
RTVSPost2010PropOp30
 70
     1
102
RTVSPost2010Prop31
280
     0
102
RTVSPost2010PropOp31
 70
     1
102
RTVSPost2010Prop32
280
     0
102
RTVSPost2010PropOp32
 70
     1
102
RTVSPost2010Prop33
280
     0
102
RTVSPost2010PropOp33
 70
     1
102
RTVSPost2010Prop34
280
     0
102
RTVSPost2010PropOp34
 70
     1
102
RTVSPost2010Prop35
280
     0
102
RTVSPost2010PropOp35
 70
     1
102
RTVSPost2010Prop36
280
     0
102
RTVSPost2010PropOp36
 70
     1
102
RTVSPost2010Prop37
 90
       50
102
RTVSPost2010PropOp37
 70
     1
102
RTVSPost2010Prop38
140
0.0
102
RTVSPost2010PropOp38
 70
     1
102
RTVSPost2010Prop39
140
1.0
102
RTVSPost2010PropOp39
 70
     1
102
RTVSPost2010Prop40
 90
        0
102
RTVSPost2010PropOp40
 70
     1
102
RTVSPost2010Prop41ColorIndex
 90
       18
102
RTVSPost2010Prop41ColorRGB
 90
        0
102
RTVSPost2010PropOp41
 70
     1
102
RTVSPost2010Prop42
 90
       50
102
RTVSPost2010PropOp42
 70
     1
102
RTVSPost2010Prop43
 90
        3
102
RTVSPost2010PropOp43
 70
     1
102
RTVSPost2010Prop44ColorIndex
 90
        5
102
RTVSPost2010Prop44ColorRGB
 90
      255
102
RTVSPost2010PropOp44
 70
     1
102
RTVSPost2010Prop45
280
     0
102
RTVSPost2010PropOp45
 70
     1
102
RTVSPost2010Prop46
 90
       50
102
RTVSPost2010PropOp46
 70
     1
102
RTVSPost2010Prop47
 90
       50
102
RTVSPost2010PropOp47
 70
     1
102
RTVSPost2010Prop48
 90
       50
102
RTVSPost2010PropOp48
 70
     1
102
RTVSPost2010Prop49
280
     0
102
RTVSPost2010PropOp49
 70
     1
102
RTVSPost2010Prop50
 90
       50
102
RTVSPost2010PropOp50
 70
     1
102
RTVSPost2010Prop51ColorIndex
 90
      256
102
RTVSPost2010Prop51ColorRGB
 90
-16777216
102
RTVSPost2010PropOp51
 70
     0
102
RTVSPost2010Prop52
140
1.0
102
RTVSPost2010PropOp52
 70
     0
102
RTVSPost2010Prop53
 90
        2
102
RTVSPost2010PropOp53
 70
     1
102
RTVSPost2010Prop54
  1
strokes_ogs.tif
102
RTVSPost2010PropOp54
 70
     1
102
RTVSPost2010Prop55
280
     0
102
RTVSPost2010PropOp55
 70
     1
102
RTVSPost2010Prop56
140
1.0
102
RTVSPost2010PropOp56
 70
     1
102
RTVSPost2010Prop57
140
1.0
102
RTVSPost2010PropOp57
 70
     1
  0
XRECORD
  5
25D
102
{ACAD_REACTORS
330
25C
102
}
330
25C
100
AcDbXrecord
280
     1
102
RTVSPropertyOp0
 70
     1
102
RTVSPropertyOp1
 70
     1
102
RTVSPropertyOp2
 70
     1
102
RTVSPropertyOp3
 70
     1
102
RTVSPropertyOp4
 70
     1
102
RTVSPropertyOp5
 70
     1
102
RTVSPropertyOp6
 70
     1
102
RTVSPropertyOp7
 70
     1
102
RTVSPropertyOp8
 70
     1
102
RTVSPropertyOp9
 70
     1
102
RTVSPropertyOp10
 70
     1
102
RTVSPropertyOp11
 70
     1
102
RTVSPropertyOp12
 70
     1
102
RTVSPropertyOp13
 70
     1
102
RTVSPropertyOp14
 70
     1
102
RTVSPropertyOp15
 70
     1
102
RTVSPropertyOp16
 70
     1
102
RTVSPropertyOp17
 70
     1
102
RTVSPropertyOp18
 70
     1
102
RTVSPropertyOp19
 70
     1
102
RTVSPropertyOp20
 70
     1
102
RTVSPropertyOp21
 70
     1
102
RTVSPropertyOp22
 70
     1
102
RTVSPropertyOp23
 70
     1
102
RTVSPropertyOp24
 70
     1
102
RTVSPropertyOp25
 70
     1
102
RTVSPropertyOp26
 70
     1
102
RTVSPropertyOp27
 70
     1
102
RTVSPropertyOp28
 70
     1
102
RTVSPropertyOp29
 70
     1
102
RTVSPropertyOp30
 70
     1
102
RTVSPropertyOp31
 70
     1
102
RTVSPropertyOp32
 70
     1
102
RTVSPropertyOp33
 70
     1
102
RTVSPropertyOp34
 70
     1
102
RTVSPropertyOp35
 70
     1
102
RTVSPropertyOp36
 70
     1
102
RTVSPropertyOp37
 70
     1
102
RTVSPropertyOp38
 70
     1
102
RTVSPropertyOp39
 70
     1
102
RTVSPropertyOp40
 70
     1
102
RTVSPropertyOp41
 70
     1
102
RTVSPropertyOp42
 70
     1
102
RTVSPropertyOp43
 70
     1
102
RTVSPropertyOp44
 70
     1
102
RTVSPropertyOp45
 70
     1
102
RTVSPropertyOp46
 70
     1
102
RTVSPropertyOp47
 70
     1
102
RTVSPropertyOp48
 70
     1
102
RTVSPropertyOp49
 70
     1
102
RTVSPropertyOp50
 70
     1
102
RTVSPropertyOp51
 70
     0
102
RTVSPropertyOp52
 70
     0
102
RTVSPropertyOp53
 70
     1
102
RTVSPropertyOp54
 70
     1
102
RTVSPropertyOp55
 70
     1
102
RTVSPropertyOp56
 70
     1
102
RTVSPropertyOp57
 70
     1
102
RTVSPost2010Prop28
280
     0
102
RTVSPost2010PropOp28
 70
     1
102
RTVSPost2010Prop29
280
     1
102
RTVSPost2010PropOp29
 70
     1
102
RTVSPost2010Prop30
280
     1
102
RTVSPost2010PropOp30
 70
     1
102
RTVSPost2010Prop31
280
     0
102
RTVSPost2010PropOp31
 70
     1
102
RTVSPost2010Prop32
280
     0
102
RTVSPost2010PropOp32
 70
     1
102
RTVSPost2010Prop33
280
     0
102
RTVSPost2010PropOp33
 70
     1
102
RTVSPost2010Prop34
280
     0
102
RTVSPost2010PropOp34
 70
     1
102
RTVSPost2010Prop35
280
     0
102
RTVSPost2010PropOp35
 70
     1
102
RTVSPost2010Prop36
280
     0
102
RTVSPost2010PropOp36
 70
     1
102
RTVSPost2010Prop37
 90
       50
102
RTVSPost2010PropOp37
 70
     1
102
RTVSPost2010Prop38
140
0.0
102
RTVSPost2010PropOp38
 70
     1
102
RTVSPost2010Prop39
140
1.0
102
RTVSPost2010PropOp39
 70
     1
102
RTVSPost2010Prop40
 90
        0
102
RTVSPost2010PropOp40
 70
     1
102
RTVSPost2010Prop41ColorIndex
 90
       18
102
RTVSPost2010Prop41ColorRGB
 90
        0
102
RTVSPost2010PropOp41
 70
     1
102
RTVSPost2010Prop42
 90
       50
102
RTVSPost2010PropOp42
 70
     1
102
RTVSPost2010Prop43
 90
        3
102
RTVSPost2010PropOp43
 70
     1
102
RTVSPost2010Prop44ColorIndex
 90
        5
102
RTVSPost2010Prop44ColorRGB
 90
      255
102
RTVSPost2010PropOp44
 70
     1
102
RTVSPost2010Prop45
280
     0
102
RTVSPost2010PropOp45
 70
     1
102
RTVSPost2010Prop46
 90
       50
102
RTVSPost2010PropOp46
 70
     1
102
RTVSPost2010Prop47
 90
       50
102
RTVSPost2010PropOp47
 70
     1
102
RTVSPost2010Prop48
 90
       50
102
RTVSPost2010PropOp48
 70
     1
102
RTVSPost2010Prop49
280
     0
102
RTVSPost2010PropOp49
 70
     1
102
RTVSPost2010Prop50
 90
       50
102
RTVSPost2010PropOp50
 70
     1
102
RTVSPost2010Prop51ColorIndex
 90
      256
102
RTVSPost2010Prop51ColorRGB
 90
-16777216
102
RTVSPost2010PropOp51
 70
     0
102
RTVSPost2010Prop52
140
1.0
102
RTVSPost2010PropOp52
 70
     0
102
RTVSPost2010Prop53
 90
        2
102
RTVSPost2010PropOp53
 70
     1
102
RTVSPost2010Prop54
  1
strokes_ogs.tif
102
RTVSPost2010PropOp54
 70
     1
102
RTVSPost2010Prop55
280
     0
102
RTVSPost2010PropOp55
 70
     1
102
RTVSPost2010Prop56
140
1.0
102
RTVSPost2010PropOp56
 70
     1
102
RTVSPost2010Prop57
140
1.0
102
RTVSPost2010PropOp57
 70
     1
  0
XRECORD
  5
24D
102
{ACAD_REACTORS
330
24C
102
}
330
24C
100
AcDbXrecord
280
     1
102
RTVSPropertyOp0
 70
     1
102
RTVSPropertyOp1
 70
     1
102
RTVSPropertyOp2
 70
     1
102
RTVSPropertyOp3
 70
     1
102
RTVSPropertyOp4
 70
     1
102
RTVSPropertyOp5
 70
     1
102
RTVSPropertyOp6
 70
     1
102
RTVSPropertyOp7
 70
     1
102
RTVSPropertyOp8
 70
     1
102
RTVSPropertyOp9
 70
     1
102
RTVSPropertyOp10
 70
     1
102
RTVSPropertyOp11
 70
     1
102
RTVSPropertyOp12
 70
     1
102
RTVSPropertyOp13
 70
     1
102
RTVSPropertyOp14
 70
     1
102
RTVSPropertyOp15
 70
     1
102
RTVSPropertyOp16
 70
     1
102
RTVSPropertyOp17
 70
     1
102
RTVSPropertyOp18
 70
     1
102
RTVSPropertyOp19
 70
     1
102
RTVSPropertyOp20
 70
     1
102
RTVSPropertyOp21
 70
     1
102
RTVSPropertyOp22
 70
     1
102
RTVSPropertyOp23
 70
     1
102
RTVSPropertyOp24
 70
     1
102
RTVSPropertyOp25
 70
     1
102
RTVSPropertyOp26
 70
     1
102
RTVSPropertyOp27
 70
     1
102
RTVSPropertyOp28
 70
     1
102
RTVSPropertyOp29
 70
     1
102
RTVSPropertyOp30
 70
     1
102
RTVSPropertyOp31
 70
     1
102
RTVSPropertyOp32
 70
     1
102
RTVSPropertyOp33
 70
     1
102
RTVSPropertyOp34
 70
     1
102
RTVSPropertyOp35
 70
     1
102
RTVSPropertyOp36
 70
     1
102
RTVSPropertyOp37
 70
     1
102
RTVSPropertyOp38
 70
     1
102
RTVSPropertyOp39
 70
     1
102
RTVSPropertyOp40
 70
     1
102
RTVSPropertyOp41
 70
     1
102
RTVSPropertyOp42
 70
     1
102
RTVSPropertyOp43
 70
     1
102
RTVSPropertyOp44
 70
     1
102
RTVSPropertyOp45
 70
     1
102
RTVSPropertyOp46
 70
     1
102
RTVSPropertyOp47
 70
     1
102
RTVSPropertyOp48
 70
     1
102
RTVSPropertyOp49
 70
     1
102
RTVSPropertyOp50
 70
     1
102
RTVSPropertyOp51
 70
     0
102
RTVSPropertyOp52
 70
     0
102
RTVSPropertyOp53
 70
     1
102
RTVSPropertyOp54
 70
     1
102
RTVSPropertyOp55
 70
     1
102
RTVSPropertyOp56
 70
     1
102
RTVSPropertyOp57
 70
     1
102
RTVSPost2010Prop28
280
     0
102
RTVSPost2010PropOp28
 70
     1
102
RTVSPost2010Prop29
280
     1
102
RTVSPost2010PropOp29
 70
     1
102
RTVSPost2010Prop30
280
     1
102
RTVSPost2010PropOp30
 70
     1
102
RTVSPost2010Prop31
280
     0
102
RTVSPost2010PropOp31
 70
     1
102
RTVSPost2010Prop32
280
     0
102
RTVSPost2010PropOp32
 70
     1
102
RTVSPost2010Prop33
280
     0
102
RTVSPost2010PropOp33
 70
     1
102
RTVSPost2010Prop34
280
     0
102
RTVSPost2010PropOp34
 70
     1
102
RTVSPost2010Prop35
280
     0
102
RTVSPost2010PropOp35
 70
     1
102
RTVSPost2010Prop36
280
     0
102
RTVSPost2010PropOp36
 70
     1
102
RTVSPost2010Prop37
 90
       50
102
RTVSPost2010PropOp37
 70
     1
102
RTVSPost2010Prop38
140
0.0
102
RTVSPost2010PropOp38
 70
     1
102
RTVSPost2010Prop39
140
1.0
102
RTVSPost2010PropOp39
 70
     1
102
RTVSPost2010Prop40
 90
        0
102
RTVSPost2010PropOp40
 70
     1
102
RTVSPost2010Prop41ColorIndex
 90
       18
102
RTVSPost2010Prop41ColorRGB
 90
        0
102
RTVSPost2010PropOp41
 70
     1
102
RTVSPost2010Prop42
 90
       50
102
RTVSPost2010PropOp42
 70
     1
102
RTVSPost2010Prop43
 90
        3
102
RTVSPost2010PropOp43
 70
     1
102
RTVSPost2010Prop44ColorIndex
 90
        5
102
RTVSPost2010Prop44ColorRGB
 90
      255
102
RTVSPost2010PropOp44
 70
     1
102
RTVSPost2010Prop45
280
     0
102
RTVSPost2010PropOp45
 70
     1
102
RTVSPost2010Prop46
 90
       50
102
RTVSPost2010PropOp46
 70
     1
102
RTVSPost2010Prop47
 90
       50
102
RTVSPost2010PropOp47
 70
     1
102
RTVSPost2010Prop48
 90
       50
102
RTVSPost2010PropOp48
 70
     1
102
RTVSPost2010Prop49
280
     0
102
RTVSPost2010PropOp49
 70
     1
102
RTVSPost2010Prop50
 90
       50
102
RTVSPost2010PropOp50
 70
     1
102
RTVSPost2010Prop51ColorIndex
 90
      256
102
RTVSPost2010Prop51ColorRGB
 90
-16777216
102
RTVSPost2010PropOp51
 70
     0
102
RTVSPost2010Prop52
140
1.0
102
RTVSPost2010PropOp52
 70
     0
102
RTVSPost2010Prop53
 90
        2
102
RTVSPost2010PropOp53
 70
     1
102
RTVSPost2010Prop54
  1
strokes_ogs.tif
102
RTVSPost2010PropOp54
 70
     1
102
RTVSPost2010Prop55
280
     0
102
RTVSPost2010PropOp55
 70
     1
102
RTVSPost2010Prop56
140
1.0
102
RTVSPost2010PropOp56
 70
     1
102
RTVSPost2010Prop57
140
1.0
102
RTVSPost2010PropOp57
 70
     1
  0
XRECORD
  5
23F
102
{ACAD_REACTORS
330
23E
102
}
330
23E
100
AcDbXrecord
280
     1
102
RTVSPropertyOp0
 70
     1
102
RTVSPropertyOp1
 70
     1
102
RTVSPropertyOp2
 70
     1
102
RTVSPropertyOp3
 70
     1
102
RTVSPropertyOp4
 70
     1
102
RTVSPropertyOp5
 70
     1
102
RTVSPropertyOp6
 70
     1
102
RTVSPropertyOp7
 70
     1
102
RTVSPropertyOp8
 70
     1
102
RTVSPropertyOp9
 70
     1
102
RTVSPropertyOp10
 70
     1
102
RTVSPropertyOp11
 70
     1
102
RTVSPropertyOp12
 70
     1
102
RTVSPropertyOp13
 70
     1
102
RTVSPropertyOp14
 70
     1
102
RTVSPropertyOp15
 70
     1
102
RTVSPropertyOp16
 70
     1
102
RTVSPropertyOp17
 70
     1
102
RTVSPropertyOp18
 70
     1
102
RTVSPropertyOp19
 70
     1
102
RTVSPropertyOp20
 70
     1
102
RTVSPropertyOp21
 70
     1
102
RTVSPropertyOp22
 70
     1
102
RTVSPropertyOp23
 70
     1
102
RTVSPropertyOp24
 70
     1
102
RTVSPropertyOp25
 70
     1
102
RTVSPropertyOp26
 70
     1
102
RTVSPropertyOp27
 70
     1
102
RTVSPropertyOp28
 70
     1
102
RTVSPropertyOp29
 70
     1
102
RTVSPropertyOp30
 70
     1
102
RTVSPropertyOp31
 70
     1
102
RTVSPropertyOp32
 70
     1
102
RTVSPropertyOp33
 70
     1
102
RTVSPropertyOp34
 70
     1
102
RTVSPropertyOp35
 70
     1
102
RTVSPropertyOp36
 70
     1
102
RTVSPropertyOp37
 70
     1
102
RTVSPropertyOp38
 70
     1
102
RTVSPropertyOp39
 70
     1
102
RTVSPropertyOp40
 70
     1
102
RTVSPropertyOp41
 70
     1
102
RTVSPropertyOp42
 70
     1
102
RTVSPropertyOp43
 70
     1
102
RTVSPropertyOp44
 70
     1
102
RTVSPropertyOp45
 70
     1
102
RTVSPropertyOp46
 70
     1
102
RTVSPropertyOp47
 70
     1
102
RTVSPropertyOp48
 70
     1
102
RTVSPropertyOp49
 70
     1
102
RTVSPropertyOp50
 70
     1
102
RTVSPropertyOp51
 70
     0
102
RTVSPropertyOp52
 70
     0
102
RTVSPropertyOp53
 70
     1
102
RTVSPropertyOp54
 70
     1
102
RTVSPropertyOp55
 70
     1
102
RTVSPropertyOp56
 70
     1
102
RTVSPropertyOp57
 70
     1
102
RTVSPost2010Prop28
280
     0
102
RTVSPost2010PropOp28
 70
     1
102
RTVSPost2010Prop29
280
     1
102
RTVSPost2010PropOp29
 70
     1
102
RTVSPost2010Prop30
280
     1
102
RTVSPost2010PropOp30
 70
     1
102
RTVSPost2010Prop31
280
     0
102
RTVSPost2010PropOp31
 70
     1
102
RTVSPost2010Prop32
280
     0
102
RTVSPost2010PropOp32
 70
     1
102
RTVSPost2010Prop33
280
     0
102
RTVSPost2010PropOp33
 70
     1
102
RTVSPost2010Prop34
280
     0
102
RTVSPost2010PropOp34
 70
     1
102
RTVSPost2010Prop35
280
     0
102
RTVSPost2010PropOp35
 70
     1
102
RTVSPost2010Prop36
280
     0
102
RTVSPost2010PropOp36
 70
     1
102
RTVSPost2010Prop37
 90
       50
102
RTVSPost2010PropOp37
 70
     1
102
RTVSPost2010Prop38
140
0.0
102
RTVSPost2010PropOp38
 70
     1
102
RTVSPost2010Prop39
140
1.0
102
RTVSPost2010PropOp39
 70
     1
102
RTVSPost2010Prop40
 90
        0
102
RTVSPost2010PropOp40
 70
     1
102
RTVSPost2010Prop41ColorIndex
 90
       18
102
RTVSPost2010Prop41ColorRGB
 90
        0
102
RTVSPost2010PropOp41
 70
     1
102
RTVSPost2010Prop42
 90
       50
102
RTVSPost2010PropOp42
 70
     1
102
RTVSPost2010Prop43
 90
        3
102
RTVSPost2010PropOp43
 70
     1
102
RTVSPost2010Prop44ColorIndex
 90
        5
102
RTVSPost2010Prop44ColorRGB
 90
      255
102
RTVSPost2010PropOp44
 70
     1
102
RTVSPost2010Prop45
280
     0
102
RTVSPost2010PropOp45
 70
     1
102
RTVSPost2010Prop46
 90
       50
102
RTVSPost2010PropOp46
 70
     1
102
RTVSPost2010Prop47
 90
       50
102
RTVSPost2010PropOp47
 70
     1
102
RTVSPost2010Prop48
 90
       50
102
RTVSPost2010PropOp48
 70
     1
102
RTVSPost2010Prop49
280
     0
102
RTVSPost2010PropOp49
 70
     1
102
RTVSPost2010Prop50
 90
       50
102
RTVSPost2010PropOp50
 70
     1
102
RTVSPost2010Prop51ColorIndex
 90
      256
102
RTVSPost2010Prop51ColorRGB
 90
-16777216
102
RTVSPost2010PropOp51
 70
     0
102
RTVSPost2010Prop52
140
1.0
102
RTVSPost2010PropOp52
 70
     0
102
RTVSPost2010Prop53
 90
        2
102
RTVSPost2010PropOp53
 70
     1
102
RTVSPost2010Prop54
  1
strokes_ogs.tif
102
RTVSPost2010PropOp54
 70
     1
102
RTVSPost2010Prop55
280
     0
102
RTVSPost2010PropOp55
 70
     1
102
RTVSPost2010Prop56
140
1.0
102
RTVSPost2010PropOp56
 70
     1
102
RTVSPost2010Prop57
140
1.0
102
RTVSPost2010PropOp57
 70
     1
  0
XRECORD
  5
25F
102
{ACAD_REACTORS
330
25E
102
}
330
25E
100
AcDbXrecord
280
     1
102
RTVSPropertyOp0
 70
     1
102
RTVSPropertyOp1
 70
     1
102
RTVSPropertyOp2
 70
     1
102
RTVSPropertyOp3
 70
     1
102
RTVSPropertyOp4
 70
     1
102
RTVSPropertyOp5
 70
     1
102
RTVSPropertyOp6
 70
     1
102
RTVSPropertyOp7
 70
     1
102
RTVSPropertyOp8
 70
     1
102
RTVSPropertyOp9
 70
     1
102
RTVSPropertyOp10
 70
     1
102
RTVSPropertyOp11
 70
     1
102
RTVSPropertyOp12
 70
     1
102
RTVSPropertyOp13
 70
     1
102
RTVSPropertyOp14
 70
     1
102
RTVSPropertyOp15
 70
     1
102
RTVSPropertyOp16
 70
     1
102
RTVSPropertyOp17
 70
     1
102
RTVSPropertyOp18
 70
     1
102
RTVSPropertyOp19
 70
     1
102
RTVSPropertyOp20
 70
     1
102
RTVSPropertyOp21
 70
     1
102
RTVSPropertyOp22
 70
     1
102
RTVSPropertyOp23
 70
     1
102
RTVSPropertyOp24
 70
     1
102
RTVSPropertyOp25
 70
     1
102
RTVSPropertyOp26
 70
     1
102
RTVSPropertyOp27
 70
     1
102
RTVSPropertyOp28
 70
     1
102
RTVSPropertyOp29
 70
     1
102
RTVSPropertyOp30
 70
     1
102
RTVSPropertyOp31
 70
     1
102
RTVSPropertyOp32
 70
     1
102
RTVSPropertyOp33
 70
     1
102
RTVSPropertyOp34
 70
     1
102
RTVSPropertyOp35
 70
     1
102
RTVSPropertyOp36
 70
     1
102
RTVSPropertyOp37
 70
     1
102
RTVSPropertyOp38
 70
     1
102
RTVSPropertyOp39
 70
     1
102
RTVSPropertyOp40
 70
     1
102
RTVSPropertyOp41
 70
     1
102
RTVSPropertyOp42
 70
     1
102
RTVSPropertyOp43
 70
     1
102
RTVSPropertyOp44
 70
     1
102
RTVSPropertyOp45
 70
     1
102
RTVSPropertyOp46
 70
     1
102
RTVSPropertyOp47
 70
     1
102
RTVSPropertyOp48
 70
     1
102
RTVSPropertyOp49
 70
     1
102
RTVSPropertyOp50
 70
     1
102
RTVSPropertyOp51
 70
     0
102
RTVSPropertyOp52
 70
     0
102
RTVSPropertyOp53
 70
     1
102
RTVSPropertyOp54
 70
     1
102
RTVSPropertyOp55
 70
     1
102
RTVSPropertyOp56
 70
     1
102
RTVSPropertyOp57
 70
     1
102
RTVSPost2010Prop28
280
     0
102
RTVSPost2010PropOp28
 70
     1
102
RTVSPost2010Prop29
280
     1
102
RTVSPost2010PropOp29
 70
     1
102
RTVSPost2010Prop30
280
     1
102
RTVSPost2010PropOp30
 70
     1
102
RTVSPost2010Prop31
280
     0
102
RTVSPost2010PropOp31
 70
     1
102
RTVSPost2010Prop32
280
     0
102
RTVSPost2010PropOp32
 70
     1
102
RTVSPost2010Prop33
280
     0
102
RTVSPost2010PropOp33
 70
     1
102
RTVSPost2010Prop34
280
     0
102
RTVSPost2010PropOp34
 70
     1
102
RTVSPost2010Prop35
280
     0
102
RTVSPost2010PropOp35
 70
     1
102
RTVSPost2010Prop36
280
     0
102
RTVSPost2010PropOp36
 70
     1
102
RTVSPost2010Prop37
 90
       50
102
RTVSPost2010PropOp37
 70
     1
102
RTVSPost2010Prop38
140
0.0
102
RTVSPost2010PropOp38
 70
     1
102
RTVSPost2010Prop39
140
1.0
102
RTVSPost2010PropOp39
 70
     1
102
RTVSPost2010Prop40
 90
        0
102
RTVSPost2010PropOp40
 70
     1
102
RTVSPost2010Prop41ColorIndex
 90
       18
102
RTVSPost2010Prop41ColorRGB
 90
        0
102
RTVSPost2010PropOp41
 70
     1
102
RTVSPost2010Prop42
 90
       50
102
RTVSPost2010PropOp42
 70
     1
102
RTVSPost2010Prop43
 90
        3
102
RTVSPost2010PropOp43
 70
     1
102
RTVSPost2010Prop44ColorIndex
 90
        5
102
RTVSPost2010Prop44ColorRGB
 90
      255
102
RTVSPost2010PropOp44
 70
     1
102
RTVSPost2010Prop45
280
     0
102
RTVSPost2010PropOp45
 70
     1
102
RTVSPost2010Prop46
 90
       50
102
RTVSPost2010PropOp46
 70
     1
102
RTVSPost2010Prop47
 90
       50
102
RTVSPost2010PropOp47
 70
     1
102
RTVSPost2010Prop48
 90
       50
102
RTVSPost2010PropOp48
 70
     1
102
RTVSPost2010Prop49
280
     0
102
RTVSPost2010PropOp49
 70
     1
102
RTVSPost2010Prop50
 90
       50
102
RTVSPost2010PropOp50
 70
     1
102
RTVSPost2010Prop51ColorIndex
 90
      256
102
RTVSPost2010Prop51ColorRGB
 90
-16777216
102
RTVSPost2010PropOp51
 70
     0
102
RTVSPost2010Prop52
140
1.0
102
RTVSPost2010PropOp52
 70
     0
102
RTVSPost2010Prop53
 90
        2
102
RTVSPost2010PropOp53
 70
     1
102
RTVSPost2010Prop54
  1
strokes_ogs.tif
102
RTVSPost2010PropOp54
 70
     1
102
RTVSPost2010Prop55
280
     0
102
RTVSPost2010PropOp55
 70
     1
102
RTVSPost2010Prop56
140
1.0
102
RTVSPost2010PropOp56
 70
     1
102
RTVSPost2010Prop57
140
1.0
102
RTVSPost2010PropOp57
 70
     1
  0
ENDSEC
  0
EOF
