  0
SECTION
  2
HEADER
  9
$ACADVER
  1
AC1018
  9
$ACADMAINTVER
 70
     0
  9
$DWGCODEPAGE
  3
ANSI_1252
  9
$INSBASE
 10
0.0
 20
0.0
 30
0.0
  9
$EXTMIN
 10
-222.387717566138
 20
-121.2574994986811
 30
0.0
  9
$EXTMAX
 10
195.8727063242639
 20
109.761881720986
 30
0.0
  9
$LIMMIN
 10
0.0
 20
0.0
  9
$LIMMAX
 10
12.0
 20
9.0
  9
$ORTHOMODE
 70
     0
  9
$REGENMODE
 70
     1
  9
$FILLMODE
 70
     1
  9
$QTEXTMODE
 70
     0
  9
$MIRRTEXT
 70
     1
  9
$LTSCALE
 40
1.0
  9
$ATTMODE
 70
     1
  9
$TEXTSIZE
 40
0.2
  9
$TRACEWID
 40
0.05
  9
$TEXTSTYLE
  7
Standard
  9
$CLAYER
  8
0
  9
$CELTYPE
  6
ByLayer
  9
$CECOLOR
 62
   256
  9
$CELTSCALE
 40
1.0
  9
$DISPSILH
 70
     0
  9
$DIMSCALE
 40
1.0
  9
$DIMASZ
 40
0.18
  9
$DIMEXO
 40
0.0625
  9
$DIMDLI
 40
0.38
  9
$DIMRND
 40
0.0
  9
$DIMDLE
 40
0.0
  9
$DIMEXE
 40
0.18
  9
$DIMTP
 40
0.0
  9
$DIMTM
 40
0.0
  9
$DIMTXT
 40
0.18
  9
$DIMCEN
 40
0.09
  9
$DIMTSZ
 40
0.0
  9
$DIMTOL
 70
     0
  9
$DIMLIM
 70
     0
  9
$DIMTIH
 70
     1
  9
$DIMTOH
 70
     1
  9
$DIMSE1
 70
     0
  9
$DIMSE2
 70
     0
  9
$DIMTAD
 70
     0
  9
$DIMZIN
 70
     0
  9
$DIMBLK
  1

  9
$DIMASO
 70
     1
  9
$DIMSHO
 70
     1
  9
$DIMPOST
  1

  9
$DIMAPOST
  1

  9
$DIMALT
 70
     0
  9
$DIMALTD
 70
     2
  9
$DIMALTF
 40
25.4
  9
$DIMLFAC
 40
1.0
  9
$DIMTOFL
 70
     0
  9
$DIMTVP
 40
0.0
  9
$DIMTIX
 70
     0
  9
$DIMSOXD
 70
     0
  9
$DIMSAH
 70
     0
  9
$DIMBLK1
  1

  9
$DIMBLK2
  1

  9
$DIMSTYLE
  2
Standard
  9
$DIMCLRD
 70
     0
  9
$DIMCLRE
 70
     0
  9
$DIMCLRT
 70
     0
  9
$DIMTFAC
 40
1.0
  9
$DIMGAP
 40
0.09
  9
$DIMJUST
 70
     0
  9
$DIMSD1
 70
     0
  9
$DIMSD2
 70
     0
  9
$DIMTOLJ
 70
     1
  9
$DIMTZIN
 70
     0
  9
$DIMALTZ
 70
     0
  9
$DIMALTTZ
 70
     0
  9
$DIMUPT
 70
     0
  9
$DIMDEC
 70
     4
  9
$DIMTDEC
 70
     4
  9
$DIMALTU
 70
     2
  9
$DIMALTTD
 70
     2
  9
$DIMTXSTY
  7
Standard
  9
$DIMAUNIT
 70
     0
  9
$DIMADEC
 70
     0
  9
$DIMALTRND
 40
0.0
  9
$DIMAZIN
 70
     0
  9
$DIMDSEP
 70
    46
  9
$DIMATFIT
 70
     3
  9
$DIMFRAC
 70
     0
  9
$DIMLDRBLK
  1

  9
$DIMLUNIT
 70
     2
  9
$DIMLWD
 70
    -2
  9
$DIMLWE
 70
    -2
  9
$DIMTMOVE
 70
     0
  9
$LUNITS
 70
     2
  9
$LUPREC
 70
     4
  9
$SKETCHINC
 40
0.1
  9
$FILLETRAD
 40
0.5
  9
$AUNITS
 70
     0
  9
$AUPREC
 70
     0
  9
$MENU
  1
.
  9
$ELEVATION
 40
0.0
  9
$PELEVATION
 40
0.0
  9
$THICKNESS
 40
0.0
  9
$LIMCHECK
 70
     0
  9
$CHAMFERA
 40
0.5
  9
$CHAMFERB
 40
0.5
  9
$CHAMFERC
 40
1.0
  9
$CHAMFERD
 40
0.0
  9
$SKPOLY
 70
     0
  9
$TDCREATE
 40
2456611.457635984
  9
$TDUCREATE
 40
2456611.415969317
  9
$TDUPDATE
 40
2456611.457635995
  9
$TDUUPDATE
 40
2456611.415969328
  9
$TDINDWG
 40
0.0000000116
  9
$TDUSRTIMER
 40
0.0000000116
  9
$USRTIMER
 70
     1
  9
$ANGBASE
 50
0.0
  9
$ANGDIR
 70
     0
  9
$PDMODE
 70
     0
  9
$PDSIZE
 40
0.0
  9
$PLINEWID
 40
0.0
  9
$SPLFRAME
 70
     0
  9
$SPLINETYPE
 70
     6
  9
$SPLINESEGS
 70
     8
  9
$HANDSEED
  5
268
  9
$SURFTAB1
 70
     6
  9
$SURFTAB2
 70
     6
  9
$SURFTYPE
 70
     6
  9
$SURFU
 70
     6
  9
$SURFV
 70
     6
  9
$UCSBASE
  2

  9
$UCSNAME
  2

  9
$UCSORG
 10
0.0
 20
0.0
 30
0.0
  9
$UCSXDIR
 10
1.0
 20
0.0
 30
0.0
  9
$UCSYDIR
 10
0.0
 20
1.0
 30
0.0
  9
$UCSORTHOREF
  2

  9
$UCSORTHOVIEW
 70
     0
  9
$UCSORGTOP
 10
0.0
 20
0.0
 30
0.0
  9
$UCSORGBOTTOM
 10
0.0
 20
0.0
 30
0.0
  9
$UCSORGLEFT
 10
0.0
 20
0.0
 30
0.0
  9
$UCSORGRIGHT
 10
0.0
 20
0.0
 30
0.0
  9
$UCSORGFRONT
 10
0.0
 20
0.0
 30
0.0
  9
$UCSORGBACK
 10
0.0
 20
0.0
 30
0.0
  9
$PUCSBASE
  2

  9
$PUCSNAME
  2

  9
$PUCSORG
 10
0.0
 20
0.0
 30
0.0
  9
$PUCSXDIR
 10
1.0
 20
0.0
 30
0.0
  9
$PUCSYDIR
 10
0.0
 20
1.0
 30
0.0
  9
$PUCSORTHOREF
  2

  9
$PUCSORTHOVIEW
 70
     0
  9
$PUCSORGTOP
 10
0.0
 20
0.0
 30
0.0
  9
$PUCSORGBOTTOM
 10
0.0
 20
0.0
 30
0.0
  9
$PUCSORGLEFT
 10
0.0
 20
0.0
 30
0.0
  9
$PUCSORGRIGHT
 10
0.0
 20
0.0
 30
0.0
  9
$PUCSORGFRONT
 10
0.0
 20
0.0
 30
0.0
  9
$PUCSORGBACK
 10
0.0
 20
0.0
 30
0.0
  9
$USERI1
 70
     0
  9
$USERI2
 70
     0
  9
$USERI3
 70
     0
  9
$USERI4
 70
     0
  9
$USERI5
 70
     0
  9
$USERR1
 40
14.5
  9
$USERR2
 40
0.0
  9
$USERR3
 40
0.0
  9
$USERR4
 40
0.0
  9
$USERR5
 40
0.0
  9
$WORLDVIEW
 70
     1
  9
$SHADEDGE
 70
     3
  9
$SHADEDIF
 70
    70
  9
$TILEMODE
 70
     1
  9
$MAXACTVP
 70
    64
  9
$PINSBASE
 10
0.0
 20
0.0
 30
0.0
  9
$PLIMCHECK
 70
     0
  9
$PEXTMIN
 10
1.00000000000000E+20
 20
1.00000000000000E+20
 30
1.00000000000000E+20
  9
$PEXTMAX
 10
-1.00000000000000E+20
 20
-1.00000000000000E+20
 30
-1.00000000000000E+20
  9
$PLIMMIN
 10
0.0
 20
0.0
  9
$PLIMMAX
 10
12.0
 20
9.0
  9
$UNITMODE
 70
     0
  9
$VISRETAIN
 70
     1
  9
$PLINEGEN
 70
     0
  9
$PSLTSCALE
 70
     1
  9
$TREEDEPTH
 70
  3020
  9
$CMLSTYLE
  2
Standard
  9
$CMLJUST
 70
     0
  9
$CMLSCALE
 40
1.0
  9
$PROXYGRAPHICS
 70
     1
  9
$MEASUREMENT
 70
     1
  9
$CELWEIGHT
370
    -1
  9
$ENDCAPS
280
     0
  9
$JOINSTYLE
280
     0
  9
$LWDISPLAY
290
     0
  9
$INSUNITS
 70
     1
  9
$HYPERLINKBASE
  1

  9
$STYLESHEET
  1

  9
$XEDIT
290
     1
  9
$CEPSNTYPE
380
     0
  9
$PSTYLEMODE
290
     1
  9
$FINGERPRINTGUID
  2
{ABD1542F-89C0-4546-A0C6-C9251A1FC61A}
  9
$VERSIONGUID
  2
{FAEB1C32-E019-11D5-929B-00C0DF256EC4}
  9
$EXTNAMES
290
     1
  9
$PSVPSCALE
 40
0.0
  9
$OLESTARTUP
290
     0
  9
$SORTENTS
280
   127
  9
$INDEXCTL
280
     0
  9
$HIDETEXT
280
     1
  9
$XCLIPFRAME
290
     0
  9
$HALOGAP
280
     0
  9
$OBSCOLOR
 70
   257
  9
$OBSLTYPE
280
     0
  9
$INTERSECTIONDISPLAY
280
     0
  9
$INTERSECTIONCOLOR
 70
   257
  9
$DIMASSOC
280
     2
  9
$PROJECTNAME
  1

  0
ENDSEC
  0
SECTION
  2
CLASSES
  0
CLASS
  1
ACDBDICTIONARYWDFLT
  2
AcDbDictionaryWithDefault
  3
ObjectDBX Classes
 90
        0
 91
        3
280
     0
281
     0
  0
CLASS
  1

  2
exOdDbCircle
  3

 90
        0
 91
        3
280
     0
281
     1
  0
ENDSEC
  0
SECTION
  2
TABLES
  0
TABLE
  2
VPORT
  5
8
330
0
100
AcDbSymbolTable
 70
     1
  0
VPORT
  5
29
330
8
100
AcDbSymbolTableRecord
100
AcDbViewportTableRecord
  2
*Active
 70
     0
 10
0.0
 20
0.0
 11
1.0
 21
1.0
 12
-13.25750562093705
 22
-5.74780888884755
 13
0.0
 23
0.0
 14
0.5
 24
0.5
 15
0.5
 25
0.5
 16
0.0
 26
0.0
 36
1.0
 17
0.0
 27
0.0
 37
0.0
 40
287.073449711964
 41
1.60267857142857
 42
50.0
 43
0.0
 44
0.0
 50
0.0
 51
0.0
 71
     0
 72
   100
 73
     1
 74
     3
 75
     0
 76
     0
 77
     0
 78
     0
281
     0
 65
     1
110
0.0
120
0.0
130
0.0
111
1.0
121
0.0
131
0.0
112
0.0
122
1.0
132
0.0
 79
     0
146
0.0
  0
ENDTAB
  0
TABLE
  2
LTYPE
  5
5
330
0
100
AcDbSymbolTable
 70
     8
  0
LTYPE
  5
14
330
5
100
AcDbSymbolTableRecord
100
AcDbLinetypeTableRecord
  2
ByBlock
 70
     0
  3

 72
    65
 73
     0
 40
0.0
  0
LTYPE
  5
15
330
5
100
AcDbSymbolTableRecord
100
AcDbLinetypeTableRecord
  2
ByLayer
 70
     0
  3

 72
    65
 73
     0
 40
0.0
  0
LTYPE
  5
16
330
5
100
AcDbSymbolTableRecord
100
AcDbLinetypeTableRecord
  2
Continuous
 70
     0
  3
Solid line
 72
    65
 73
     0
 40
0.0
  0
LTYPE
  5
2A
330
5
100
AcDbSymbolTableRecord
100
AcDbLinetypeTableRecord
  2
DASHED
 70
     0
  3
Dashed
 72
    65
 73
     2
 40
15.0
 49
7.0
 74
     0
 49
-8.0
 74
     0
  0
LTYPE
  5
2B
330
5
100
AcDbSymbolTableRecord
100
AcDbLinetypeTableRecord
  2
DOTTED
 70
     0
  3
Dotted
 72
    65
 73
     2
 40
1.0
 49
0.0
 74
     0
 49
-1.0
 74
     0
  0
LTYPE
  5
2C
330
5
100
AcDbSymbolTableRecord
100
AcDbLinetypeTableRecord
  2
DOT_CENTER
 70
     0
  3
Dot_Center
 72
    65
 73
     4
 40
14.0
 49
12.0
 74
     0
 49
-1.0
 74
     0
 49
0.0
 74
     0
 49
-1.0
 74
     0
  0
LTYPE
  5
2D
330
5
100
AcDbSymbolTableRecord
100
AcDbLinetypeTableRecord
  2
LONG_DASHED
 70
     0
  3
Long_Dashed
 72
    65
 73
     2
 40
15.0
 49
10.0
 74
     0
 49
-5.0
 74
     0
  0
LTYPE
  5
2E
330
5
100
AcDbSymbolTableRecord
100
AcDbLinetypeTableRecord
  2
DASH_CENTER
 70
     0
  3
Dash_Center
 72
    65
 73
     4
 40
14.0
 49
11.0
 74
     0
 49
-1.0
 74
     0
 49
1.0
 74
     0
 49
-1.0
 74
     0
  0
LTYPE
  5
2F
330
5
100
AcDbSymbolTableRecord
100
AcDbLinetypeTableRecord
  2
PHANTOM
 70
     0
  3
Phantom
 72
    65
 73
     6
 40
13.0
 49
10.0
 74
     0
 49
-1.0
 74
     0
 49
0.0
 74
     0
 49
-1.0
 74
     0
 49
0.0
 74
     0
 49
-1.0
 74
     0
  0
LTYPE
  5
30
330
5
100
AcDbSymbolTableRecord
100
AcDbLinetypeTableRecord
  2
CENTER_DASH_DASH
 70
     0
  3
Center_Dash_Dash
 72
    65
 73
     6
 40
14.0
 49
9.0
 74
     0
 49
-1.0
 74
     0
 49
1.0
 74
     0
 49
-1.0
 74
     0
 49
1.0
 74
     0
 49
-1.0
 74
     0
  0
ENDTAB
  0
TABLE
  2
LAYER
  5
2
330
0
100
AcDbSymbolTable
 70
     2
  0
LAYER
  5
10
330
2
100
AcDbSymbolTableRecord
100
AcDbLayerTableRecord
  2
0
 70
     0
 62
     7
  6
Continuous
370
    -3
390
F
  0
LAYER
  5
31
330
2
100
AcDbSymbolTableRecord
100
AcDbLayerTableRecord
  2
1
 70
     0
 62
     7
  6
Continuous
370
    -3
390
F
  0
ENDTAB
  0
TABLE
  2
STYLE
  5
3
330
0
100
AcDbSymbolTable
 70
     2
  0
STYLE
  5
11
330
3
100
AcDbSymbolTableRecord
100
AcDbTextStyleTableRecord
  2
Standard
 70
     0
 40
0.0
 41
1.0
 50
0.0
 71
     0
 42
0.2
  3
txt
  4

  0
STYLE
  5
128
330
3
100
AcDbSymbolTableRecord
100
AcDbTextStyleTableRecord
  2
CONVERTER_11
 70
     0
 40
0.0
 41
0.9
 50
0.0
 71
     0
 42
0.2
  3
txt.shx
  4

  0
ENDTAB
  0
TABLE
  2
VIEW
  5
6
330
0
100
AcDbSymbolTable
 70
     0
  0
ENDTAB
  0
TABLE
  2
UCS
  5
7
330
0
100
AcDbSymbolTable
 70
     0
  0
ENDTAB
  0
TABLE
  2
APPID
  5
9
330
0
100
AcDbSymbolTable
 70
     1
  0
APPID
  5
12
330
9
100
AcDbSymbolTableRecord
100
AcDbRegAppTableRecord
  2
ACAD
 70
     0
  0
ENDTAB
  0
TABLE
  2
DIMSTYLE
  5
A
330
0
100
AcDbSymbolTable
 70
    26
100
AcDbDimStyleTable
  0
DIMSTYLE
105
27
330
A
100
AcDbSymbolTableRecord
100
AcDbDimStyleTableRecord
  2
Standard
 70
     0
340
11
  0
DIMSTYLE
105
135
102
{ACAD_REACTORS
330
136
102
}
330
A
100
AcDbSymbolTableRecord
100
AcDbDimStyleTableRecord
  2
ME10_DIM_10
 70
     0
 41
3.5
 42
0.0
 44
2.0
 73
     0
 74
     0
 77
     1
 78
     8
140
3.5
147
2.0
172
     1
173
     1
176
     2
177
     2
178
     2
271
     3
340
128
  0
DIMSTYLE
105
141
102
{ACAD_REACTORS
330
142
102
}
330
A
100
AcDbSymbolTableRecord
100
AcDbDimStyleTableRecord
  2
ME10_DIM_11
 70
     0
 41
3.5
 42
0.0
 44
2.0
 73
     0
 74
     0
 77
     1
 78
     8
140
3.5
147
2.0
172
     1
173
     1
176
     2
177
     2
178
     2
271
     3
340
128
  0
DIMSTYLE
105
14C
102
{ACAD_REACTORS
330
14D
102
}
330
A
100
AcDbSymbolTableRecord
100
AcDbDimStyleTableRecord
  2
ME10_DIM_12
 70
     0
 41
3.5
 42
0.0
 44
2.0
 73
     0
 74
     0
 77
     1
 78
     8
140
3.5
147
2.0
172
     1
173
     1
176
     2
177
     2
178
     2
271
     3
340
128
  0
DIMSTYLE
105
157
102
{ACAD_REACTORS
330
158
102
}
330
A
100
AcDbSymbolTableRecord
100
AcDbDimStyleTableRecord
  2
ME10_DIM_13
 70
     0
 41
3.5
 42
0.0
 44
2.0
 73
     0
 74
     0
 77
     1
 78
     8
140
3.5
147
2.0
172
     1
173
     1
176
     2
177
     2
178
     2
271
     3
340
128
  0
DIMSTYLE
105
162
102
{ACAD_REACTORS
330
163
102
}
330
A
100
AcDbSymbolTableRecord
100
AcDbDimStyleTableRecord
  2
ME10_DIM_14
 70
     0
 41
3.5
 42
0.0
 44
2.0
 73
     0
 74
     0
 77
     1
 78
     8
140
3.5
147
2.0
172
     1
173
     1
176
     2
177
     2
178
     2
271
     3
340
128
  0
DIMSTYLE
105
16D
102
{ACAD_REACTORS
330
16E
102
}
330
A
100
AcDbSymbolTableRecord
100
AcDbDimStyleTableRecord
  2
ME10_DIM_15
 70
     0
 41
3.5
 42
0.0
 44
2.0
 73
     0
 74
     0
 77
     1
 78
     8
140
3.5
147
2.0
172
     1
173
     1
176
     2
177
     2
178
     2
271
     3
340
128
  0
DIMSTYLE
105
17A
102
{ACAD_REACTORS
330
17B
102
}
330
A
100
AcDbSymbolTableRecord
100
AcDbDimStyleTableRecord
  2
ME10_DIM_16
 70
     0
 41
3.5
 42
0.0
 44
2.0
 73
     0
 74
     0
 77
     1
 78
     8
140
3.5
147
2.0
172
     1
173
     1
176
     2
177
     2
178
     2
271
     3
340
128
  0
DIMSTYLE
105
185
102
{ACAD_REACTORS
330
186
102
}
330
A
100
AcDbSymbolTableRecord
100
AcDbDimStyleTableRecord
  2
ME10_DIM_17
 70
     0
 41
3.5
 42
0.0
 44
2.0
 73
     0
 74
     0
 77
     1
 78
     8
140
3.5
147
2.0
172
     1
173
     1
176
     2
177
     2
178
     2
271
     3
340
128
  0
DIMSTYLE
105
190
102
{ACAD_REACTORS
330
191
102
}
330
A
100
AcDbSymbolTableRecord
100
AcDbDimStyleTableRecord
  2
ME10_DIM_18
 70
     0
 41
3.5
 42
0.0
 44
2.0
 73
     0
 74
     0
 77
     1
 78
     8
140
3.5
147
2.0
172
     1
173
     1
176
     2
177
     2
178
     2
271
     3
340
128
  0
DIMSTYLE
105
19B
102
{ACAD_REACTORS
330
19C
102
}
330
A
100
AcDbSymbolTableRecord
100
AcDbDimStyleTableRecord
  2
ME10_DIM_19
 70
     0
 41
3.5
 42
0.0
 44
2.0
 73
     0
 74
     0
 77
     1
 78
     8
140
3.5
147
2.0
172
     1
173
     1
176
     2
177
     2
178
     2
271
     3
340
128
  0
DIMSTYLE
105
1A6
102
{ACAD_REACTORS
330
1A7
102
}
330
A
100
AcDbSymbolTableRecord
100
AcDbDimStyleTableRecord
  2
ME10_DIM_20
 70
     0
 41
3.5
 42
0.0
 44
2.0
 73
     0
 74
     0
 77
     1
 78
     8
140
3.5
147
2.0
172
     1
173
     1
176
     2
177
     2
178
     2
271
     3
340
128
  0
DIMSTYLE
105
1B1
102
{ACAD_REACTORS
330
1B2
102
}
330
A
100
AcDbSymbolTableRecord
100
AcDbDimStyleTableRecord
  2
ME10_DIM_21
 70
     0
 41
3.5
 42
0.0
 44
2.0
 73
     0
 74
     0
 77
     1
 78
     8
140
3.5
147
2.0
172
     1
173
     1
176
     2
177
     2
178
     2
271
     2
340
128
  0
DIMSTYLE
105
1BC
102
{ACAD_REACTORS
330
1BD
102
}
330
A
100
AcDbSymbolTableRecord
100
AcDbDimStyleTableRecord
  2
ME10_DIM_22
 70
     0
 41
3.5
 42
0.0
 44
2.0
 73
     0
 74
     0
 77
     1
 78
     8
140
3.5
147
2.0
172
     1
173
     1
176
     2
177
     2
178
     2
271
     2
340
128
  0
DIMSTYLE
105
1C7
102
{ACAD_REACTORS
330
1C8
102
}
330
A
100
AcDbSymbolTableRecord
100
AcDbDimStyleTableRecord
  2
ME10_DIM_23
 70
     0
 41
3.5
 42
0.0
 44
2.0
 73
     0
 74
     0
 77
     1
 78
     8
140
3.5
147
2.0
172
     1
173
     1
176
     2
177
     2
178
     2
271
     3
340
128
  0
DIMSTYLE
105
1D4
102
{ACAD_REACTORS
330
1D5
102
}
330
A
100
AcDbSymbolTableRecord
100
AcDbDimStyleTableRecord
  2
ME10_DIM_24
 70
     0
 41
3.5
 42
0.0
 44
2.0
 73
     0
 74
     0
 77
     1
 78
     8
140
3.5
147
2.0
172
     1
173
     1
176
     2
177
     2
178
     2
271
     3
340
128
  0
DIMSTYLE
105
1DF
102
{ACAD_REACTORS
330
1E0
102
}
330
A
100
AcDbSymbolTableRecord
100
AcDbDimStyleTableRecord
  2
ME10_DIM_25
 70
     0
 41
3.5
 42
0.0
 44
2.0
 73
     0
 74
     0
 77
     1
 78
     8
140
3.5
147
2.0
172
     1
173
     1
176
     2
177
     2
178
     2
271
     3
340
128
  0
DIMSTYLE
105
1EA
102
{ACAD_REACTORS
330
1EB
102
}
330
A
100
AcDbSymbolTableRecord
100
AcDbDimStyleTableRecord
  2
ME10_DIM_26
 70
     0
 41
3.5
 42
0.0
 44
2.0
 73
     0
 74
     0
 77
     1
 78
     8
140
3.5
147
2.0
172
     1
173
     1
176
     2
177
     2
178
     2
271
     3
340
128
  0
DIMSTYLE
105
1F5
102
{ACAD_REACTORS
330
1F6
102
}
330
A
100
AcDbSymbolTableRecord
100
AcDbDimStyleTableRecord
  2
ME10_DIM_27
 70
     0
 41
3.5
 42
0.0
 44
2.0
 73
     0
 74
     0
 77
     1
 78
     8
140
3.5
147
2.0
172
     1
173
     1
176
     2
177
     2
178
     2
271
     3
340
128
  0
DIMSTYLE
105
200
102
{ACAD_REACTORS
330
201
102
}
330
A
100
AcDbSymbolTableRecord
100
AcDbDimStyleTableRecord
  2
ME10_DIM_28
 70
     0
 41
3.5
 42
0.0
 44
2.0
 73
     0
 74
     0
 77
     1
 78
     8
140
3.5
147
2.0
172
     1
173
     1
176
     2
177
     2
178
     2
271
     3
340
128
  0
DIMSTYLE
105
20B
102
{ACAD_REACTORS
330
20C
102
}
330
A
100
AcDbSymbolTableRecord
100
AcDbDimStyleTableRecord
  2
ME10_DIM_29
 70
     0
 41
3.5
 42
0.0
 44
2.0
 73
     0
 74
     0
 77
     1
 78
     8
140
3.5
147
2.0
172
     1
173
     1
176
     2
177
     2
178
     2
271
     2
340
128
  0
DIMSTYLE
105
218
102
{ACAD_REACTORS
330
219
102
}
330
A
100
AcDbSymbolTableRecord
100
AcDbDimStyleTableRecord
  2
ME10_DIM_30
 70
     0
 41
3.5
 42
0.0
 44
2.0
 73
     0
 74
     0
 77
     1
 78
     8
140
3.5
147
2.0
172
     1
173
     1
176
     2
177
     2
178
     2
271
     3
340
128
  0
DIMSTYLE
105
223
102
{ACAD_REACTORS
330
224
102
}
330
A
100
AcDbSymbolTableRecord
100
AcDbDimStyleTableRecord
  2
ME10_DIM_31
 70
     0
 41
3.5
 42
0.0
 44
2.0
 73
     0
 74
     0
 77
     1
 78
     8
140
3.5
147
2.0
172
     1
173
     1
176
     2
177
     2
178
     2
271
     3
340
128
  0
DIMSTYLE
105
230
102
{ACAD_REACTORS
330
231
102
}
330
A
100
AcDbSymbolTableRecord
100
AcDbDimStyleTableRecord
  2
ME10_DIM_32
 70
     0
 41
3.5
 42
0.0
 44
2.0
 73
     0
 74
     0
 77
     1
 78
     8
140
3.5
147
2.0
172
     1
173
     1
176
     2
177
     2
178
     2
271
     3
340
128
  0
DIMSTYLE
105
23B
102
{ACAD_REACTORS
330
23C
102
}
330
A
100
AcDbSymbolTableRecord
100
AcDbDimStyleTableRecord
  2
ME10_DIM_33
 70
     0
 41
3.5
 42
0.0
 44
2.0
 73
     0
 74
     0
 77
     1
 78
     8
140
3.5
147
2.0
172
     1
173
     1
176
     2
177
     2
178
     2
271
     3
340
128
  0
DIMSTYLE
105
246
102
{ACAD_REACTORS
330
247
102
}
330
A
100
AcDbSymbolTableRecord
100
AcDbDimStyleTableRecord
  2
ME10_DIM_34
 70
     0
 41
3.5
 42
0.0
 44
2.0
 73
     0
 74
     0
 77
     1
 78
     8
140
3.5
147
2.0
172
     1
173
     1
176
     2
177
     2
178
     2
271
     3
340
128
  0
ENDTAB
  0
TABLE
  2
BLOCK_RECORD
  5
1
330
0
100
AcDbSymbolTable
 70
    30
  0
BLOCK_RECORD
  5
1F
330
1
100
AcDbSymbolTableRecord
100
AcDbBlockTableRecord
  2
*Model_Space
340
22
  0
BLOCK_RECORD
  5
1B
330
1
100
AcDbSymbolTableRecord
100
AcDbBlockTableRecord
  2
*Paper_Space
340
1E
  0
BLOCK_RECORD
  5
23
330
1
100
AcDbSymbolTableRecord
100
AcDbBlockTableRecord
  2
*Paper_Space0
340
26
  0
BLOCK_RECORD
  5
12C
330
1
100
AcDbSymbolTableRecord
100
AcDbBlockTableRecord
  2
*D1
340
0
  0
BLOCK_RECORD
  5
137
330
1
100
AcDbSymbolTableRecord
100
AcDbBlockTableRecord
  2
*D2
340
0
  0
BLOCK_RECORD
  5
143
330
1
100
AcDbSymbolTableRecord
100
AcDbBlockTableRecord
  2
*D3
340
0
  0
BLOCK_RECORD
  5
14E
330
1
100
AcDbSymbolTableRecord
100
AcDbBlockTableRecord
  2
*D4
340
0
  0
BLOCK_RECORD
  5
159
330
1
100
AcDbSymbolTableRecord
100
AcDbBlockTableRecord
  2
*D5
340
0
  0
BLOCK_RECORD
  5
164
330
1
100
AcDbSymbolTableRecord
100
AcDbBlockTableRecord
  2
*D6
340
0
  0
BLOCK_RECORD
  5
16F
330
1
100
AcDbSymbolTableRecord
100
AcDbBlockTableRecord
  2
*D7
340
0
  0
BLOCK_RECORD
  5
17C
330
1
100
AcDbSymbolTableRecord
100
AcDbBlockTableRecord
  2
*D8
340
0
  0
BLOCK_RECORD
  5
187
330
1
100
AcDbSymbolTableRecord
100
AcDbBlockTableRecord
  2
*D9
340
0
  0
BLOCK_RECORD
  5
192
330
1
100
AcDbSymbolTableRecord
100
AcDbBlockTableRecord
  2
*D10
340
0
  0
BLOCK_RECORD
  5
19D
330
1
100
AcDbSymbolTableRecord
100
AcDbBlockTableRecord
  2
*D11
340
0
  0
BLOCK_RECORD
  5
1A8
330
1
100
AcDbSymbolTableRecord
100
AcDbBlockTableRecord
  2
*D12
340
0
  0
BLOCK_RECORD
  5
1B3
330
1
100
AcDbSymbolTableRecord
100
AcDbBlockTableRecord
  2
*D13
340
0
  0
BLOCK_RECORD
  5
1BE
330
1
100
AcDbSymbolTableRecord
100
AcDbBlockTableRecord
  2
*D14
340
0
  0
BLOCK_RECORD
  5
1C9
330
1
100
AcDbSymbolTableRecord
100
AcDbBlockTableRecord
  2
*D15
340
0
  0
BLOCK_RECORD
  5
1D6
330
1
100
AcDbSymbolTableRecord
100
AcDbBlockTableRecord
  2
*D16
340
0
  0
BLOCK_RECORD
  5
1E1
330
1
100
AcDbSymbolTableRecord
100
AcDbBlockTableRecord
  2
*D17
340
0
  0
BLOCK_RECORD
  5
1EC
330
1
100
AcDbSymbolTableRecord
100
AcDbBlockTableRecord
  2
*D18
340
0
  0
BLOCK_RECORD
  5
1F7
330
1
100
AcDbSymbolTableRecord
100
AcDbBlockTableRecord
  2
*D19
340
0
  0
BLOCK_RECORD
  5
202
330
1
100
AcDbSymbolTableRecord
100
AcDbBlockTableRecord
  2
*D20
340
0
  0
BLOCK_RECORD
  5
20D
330
1
100
AcDbSymbolTableRecord
100
AcDbBlockTableRecord
  2
*D21
340
0
  0
BLOCK_RECORD
  5
21A
330
1
100
AcDbSymbolTableRecord
100
AcDbBlockTableRecord
  2
*D22
340
0
  0
BLOCK_RECORD
  5
225
330
1
100
AcDbSymbolTableRecord
100
AcDbBlockTableRecord
  2
*D23
340
0
  0
BLOCK_RECORD
  5
232
330
1
100
AcDbSymbolTableRecord
100
AcDbBlockTableRecord
  2
*D24
340
0
  0
BLOCK_RECORD
  5
23D
330
1
100
AcDbSymbolTableRecord
100
AcDbBlockTableRecord
  2
*D25
340
0
  0
BLOCK_RECORD
  5
248
330
1
100
AcDbSymbolTableRecord
100
AcDbBlockTableRecord
  2
*D26
340
0
102
{BLKREFS
331
24E
102
}
  0
BLOCK_RECORD
  5
24F
330
1
100
AcDbSymbolTableRecord
100
AcDbBlockTableRecord
  2
*D27
340
0
102
{BLKREFS
331
256
102
}
  0
BLOCK_RECORD
  5
257
330
1
100
AcDbSymbolTableRecord
100
AcDbBlockTableRecord
  2
*D28
340
0
102
{BLKREFS
331
25F
102
}
  0
BLOCK_RECORD
  5
260
330
1
100
AcDbSymbolTableRecord
100
AcDbBlockTableRecord
  2
*D29
340
0
102
{BLKREFS
331
267
102
}
  0
ENDTAB
  0
ENDSEC
  0
SECTION
  2
BLOCKS
  0
BLOCK
  5
20
330
1F
100
AcDbEntity
  8
0
100
AcDbBlockBegin
  2
*Model_Space
 70
     0
 71
     0
 10
0.0
 20
0.0
 30
0.0
  3
*Model_Space
  1

  0
ENDBLK
  5
21
330
1F
100
AcDbEntity
  8
0
100
AcDbBlockEnd
  0
BLOCK
  5
1C
330
1B
100
AcDbEntity
 67
     1
  8
0
100
AcDbBlockBegin
  2
*Paper_Space
 70
     0
 71
     0
 10
0.0
 20
0.0
 30
0.0
  3
*Paper_Space
  1

  0
ENDBLK
  5
1D
330
1B
100
AcDbEntity
 67
     1
  8
0
100
AcDbBlockEnd
  0
BLOCK
  5
24
330
23
100
AcDbEntity
  8
0
100
AcDbBlockBegin
  2
*Paper_Space0
 70
     0
 71
     0
 10
0.0
 20
0.0
 30
0.0
  3
*Paper_Space0
  1

  0
ENDBLK
  5
25
330
23
100
AcDbEntity
  8
0
100
AcDbBlockEnd
  0
BLOCK
  5
133
330
12C
100
AcDbEntity
  8
0
100
AcDbBlockBegin
  2
*D1
 70
     1
 71
     0
 10
0.0
 20
0.0
 30
0.0
  3
*D1
  1

  0
LINE
  5
12D
330
12C
100
AcDbEntity
  8
1
  6
Continuous
 62
     2
100
AcDbLine
 10
33.3867936726667
 20
-19.2117132838442
 30
0.0
 11
51.38679367266686
 21
-19.2117132838442
 31
0.0
  0
LINE
  5
12E
330
12C
100
AcDbEntity
  8
1
  6
Continuous
 62
     2
100
AcDbLine
 10
51.38679367266686
 20
-23.65515166616186
 30
0.0
 11
51.38679367266686
 21
-17.2117132838442
 31
0.0
  0
LINE
  5
12F
330
12C
100
AcDbEntity
  8
1
  6
Continuous
 62
     2
100
AcDbLine
 10
33.3867936726667
 20
-44.69793997026327
 30
0.0
 11
33.3867936726667
 21
-17.2117132838442
 31
0.0
  0
SOLID
  5
130
330
12C
100
AcDbEntity
  8
1
 62
     2
100
AcDbTrace
 10
36.8867936726667
 20
-18.75092954228831
 30
0.0
 11
36.8867936726667
 21
-19.67249702540008
 31
0.0
 12
33.3867936726667
 22
-19.2117132838442
 32
0.0
 13
33.3867936726667
 23
-19.2117132838442
 33
0.0
  0
SOLID
  5
131
330
12C
100
AcDbEntity
  8
1
 62
     2
100
AcDbTrace
 10
47.88679367266686
 20
-19.67249702540008
 30
0.0
 11
47.88679367266686
 21
-18.75092954228831
 31
0.0
 12
51.38679367266686
 22
-19.2117132838442
 32
0.0
 13
51.38679367266686
 23
-19.2117132838442
 33
0.0
  0
MTEXT
  5
132
330
12C
100
AcDbEntity
  8
1
 62
     2
100
AcDbMText
 10
32.4647462711263
 20
-17.2117132838442
 30
0.0
 40
3.5
 41
0.0
 71
     7
 72
     1
  1
min. 35
  7
CONVERTER_11
 11
0.9999999999970621
 21
2.424068405545307E-6
 31
0.0
 73
     1
 44
0.60024009603842
  0
ENDBLK
  5
134
330
12C
100
AcDbEntity
  8
0
100
AcDbBlockEnd
  0
BLOCK
  5
13F
330
137
100
AcDbEntity
  8
0
100
AcDbBlockBegin
  2
*D2
 70
     1
 71
     0
 10
0.0
 20
0.0
 30
0.0
  3
*D2
  1

  0
LINE
  5
138
330
137
100
AcDbEntity
  8
1
  6
Continuous
 62
     2
100
AcDbLine
 10
-54.76684572470299
 20
-66.69793997026326
 30
0.0
 11
-54.76684572470299
 21
-51.69793997026321
 31
0.0
  0
LINE
  5
139
330
137
100
AcDbEntity
  8
1
  6
Continuous
 62
     2
100
AcDbLine
 10
-54.76684572470299
 20
-51.69793997026321
 30
0.0
 11
-54.76684572470299
 21
-32.0984915049711
 31
0.0
  0
LINE
  5
13A
330
137
100
AcDbEntity
  8
1
  6
Continuous
 62
     2
100
AcDbLine
 10
-60.11320632733327
 20
-66.69793997026326
 30
0.0
 11
-52.76684572470299
 21
-66.69793997026326
 31
0.0
  0
LINE
  5
13B
330
137
100
AcDbEntity
  8
1
  6
Continuous
 62
     2
100
AcDbLine
 10
-60.11320632733327
 20
-51.69793997026321
 30
0.0
 11
-52.76684572470299
 21
-51.69793997026321
 31
0.0
  0
SOLID
  5
13C
330
137
100
AcDbEntity
  8
1
 62
     2
100
AcDbTrace
 10
-55.22762946625888
 20
-63.19793997026326
 30
0.0
 11
-54.3060619831471
 21
-63.19793997026326
 31
0.0
 12
-54.76684572470299
 22
-66.69793997026326
 32
0.0
 13
-54.76684572470299
 23
-66.69793997026326
 33
0.0
  0
SOLID
  5
13D
330
137
100
AcDbEntity
  8
1
 62
     2
100
AcDbTrace
 10
-54.3060619831471
 20
-55.19793997026321
 30
0.0
 11
-55.22762946625888
 21
-55.19793997026321
 31
0.0
 12
-54.76684572470299
 22
-51.69793997026321
 32
0.0
 13
-54.76684572470299
 23
-51.69793997026321
 33
0.0
  0
MTEXT
  5
13E
330
137
100
AcDbEntity
  8
1
 62
     2
100
AcDbMText
 10
-56.76684572470299
 20
-46.2734915049711
 30
0.0
 40
3.5
 41
0.0
 71
     7
 72
     1
  1
max21
  7
CONVERTER_11
 11
0.0
 21
1.0
 31
0.0
 73
     1
 44
0.60024009603842
  0
ENDBLK
  5
140
330
137
100
AcDbEntity
  8
0
100
AcDbBlockEnd
  0
BLOCK
  5
14A
330
143
100
AcDbEntity
  8
0
100
AcDbBlockBegin
  2
*D3
 70
     1
 71
     0
 10
0.0
 20
0.0
 30
0.0
  3
*D3
  1

  0
LINE
  5
144
330
143
100
AcDbEntity
  8
1
  6
Continuous
 62
     2
100
AcDbLine
 10
-21.11320632733316
 20
-82.4197860435207
 30
0.0
 11
-51.11320632733316
 21
-82.4197860435207
 31
0.0
  0
LINE
  5
145
330
143
100
AcDbEntity
  8
1
  6
Continuous
 62
     2
100
AcDbLine
 10
-21.11320632733316
 20
-61.69793997026325
 30
0.0
 11
-21.11320632733316
 21
-84.4197860435207
 31
0.0
  0
LINE
  5
146
330
143
100
AcDbEntity
  8
1
  6
Continuous
 62
     2
100
AcDbLine
 10
-51.11320632733316
 20
-61.69793997026325
 30
0.0
 11
-51.11320632733316
 21
-84.4197860435207
 31
0.0
  0
SOLID
  5
147
330
143
100
AcDbEntity
  8
1
 62
     2
100
AcDbTrace
 10
-24.61320632733316
 20
-82.88056978507659
 30
0.0
 11
-24.61320632733316
 21
-81.95900230196482
 31
0.0
 12
-21.11320632733316
 22
-82.4197860435207
 32
0.0
 13
-21.11320632733316
 23
-82.4197860435207
 33
0.0
  0
SOLID
  5
148
330
143
100
AcDbEntity
  8
1
 62
     2
100
AcDbTrace
 10
-47.61320632733316
 20
-81.95900230196482
 30
0.0
 11
-47.61320632733316
 21
-82.88056978507659
 31
0.0
 12
-51.11320632733316
 22
-82.4197860435207
 32
0.0
 13
-51.11320632733316
 23
-82.4197860435207
 33
0.0
  0
MTEXT
  5
149
330
143
100
AcDbEntity
  8
1
 62
     2
100
AcDbMText
 10
-43.90618484508444
 20
-80.4197860435207
 30
0.0
 40
3.5
 41
0.0
 71
     7
 72
     1
  1
min30
  7
CONVERTER_11
 11
0.9999999999970621
 21
2.424068405545307E-6
 31
0.0
 73
     1
 44
0.60024009603842
  0
ENDBLK
  5
14B
330
143
100
AcDbEntity
  8
0
100
AcDbBlockEnd
  0
BLOCK
  5
155
330
14E
100
AcDbEntity
  8
0
100
AcDbBlockBegin
  2
*D4
 70
     1
 71
     0
 10
0.0
 20
0.0
 30
0.0
  3
*D4
  1

  0
LINE
  5
14F
330
14E
100
AcDbEntity
  8
1
  6
Continuous
 62
     2
100
AcDbLine
 10
2.88679367266684
 20
-82.4197860435207
 30
0.0
 11
-21.11320632733316
 21
-82.4197860435207
 31
0.0
  0
LINE
  5
150
330
14E
100
AcDbEntity
  8
1
  6
Continuous
 62
     2
100
AcDbLine
 10
-21.11320632733316
 20
-61.69793997026325
 30
0.0
 11
-21.11320632733316
 21
-84.4197860435207
 31
0.0
  0
LINE
  5
151
330
14E
100
AcDbEntity
  8
1
  6
Continuous
 62
     2
100
AcDbLine
 10
2.88679367266684
 20
-66.6979399702632
 30
0.0
 11
2.88679367266684
 21
-84.4197860435207
 31
0.0
  0
SOLID
  5
152
330
14E
100
AcDbEntity
  8
1
 62
     2
100
AcDbTrace
 10
-0.61320632733316
 20
-82.88056978507659
 30
0.0
 11
-0.61320632733316
 21
-81.95900230196482
 31
0.0
 12
2.88679367266684
 22
-82.4197860435207
 32
0.0
 13
2.88679367266684
 23
-82.4197860435207
 33
0.0
  0
SOLID
  5
153
330
14E
100
AcDbEntity
  8
1
 62
     2
100
AcDbTrace
 10
-17.61320632733316
 20
-81.95900230196482
 30
0.0
 11
-17.61320632733316
 21
-82.88056978507659
 31
0.0
 12
-21.11320632733316
 22
-82.4197860435207
 32
0.0
 13
-21.11320632733316
 23
-82.4197860435207
 33
0.0
  0
MTEXT
  5
154
330
14E
100
AcDbEntity
  8
1
 62
     2
100
AcDbMText
 10
-11.2639963142662
 20
-80.4197860435207
 30
0.0
 40
3.5
 41
0.0
 71
     7
 72
     1
  1
24
  7
CONVERTER_11
 11
0.9999999999970621
 21
2.424068405545307E-6
 31
0.0
 73
     1
 44
0.60024009603842
  0
ENDBLK
  5
156
330
14E
100
AcDbEntity
  8
0
100
AcDbBlockEnd
  0
BLOCK
  5
160
330
159
100
AcDbEntity
  8
0
100
AcDbBlockBegin
  2
*D5
 70
     1
 71
     0
 10
0.0
 20
0.0
 30
0.0
  3
*D5
  1

  0
LINE
  5
15A
330
159
100
AcDbEntity
  8
1
  6
Continuous
 62
     2
100
AcDbLine
 10
-205.883970001136
 20
25.37660009231135
 30
0.0
 11
-205.883970001136
 21
-14.62339990768865
 31
0.0
  0
LINE
  5
15B
330
159
100
AcDbEntity
  8
1
  6
Continuous
 62
     2
100
AcDbLine
 10
-185.1092983114338
 20
25.37660009231135
 30
0.0
 11
-207.883970001136
 21
25.37660009231135
 31
0.0
  0
LINE
  5
15C
330
159
100
AcDbEntity
  8
1
  6
Continuous
 62
     2
100
AcDbLine
 10
-185.1092983114338
 20
-14.62339990768865
 30
0.0
 11
-207.883970001136
 21
-14.62339990768865
 31
0.0
  0
SOLID
  5
15D
330
159
100
AcDbEntity
  8
1
 62
     2
100
AcDbTrace
 10
-205.4231862595801
 20
21.87660009231135
 30
0.0
 11
-206.3447537426919
 21
21.87660009231135
 31
0.0
 12
-205.883970001136
 22
25.37660009231135
 32
0.0
 13
-205.883970001136
 23
25.37660009231135
 33
0.0
  0
SOLID
  5
15E
330
159
100
AcDbEntity
  8
1
 62
     2
100
AcDbTrace
 10
-206.3447537426919
 20
-11.12339990768865
 30
0.0
 11
-205.4231862595801
 21
-11.12339990768865
 31
0.0
 12
-205.883970001136
 22
-14.62339990768865
 32
0.0
 13
-205.883970001136
 23
-14.62339990768865
 33
0.0
  0
MTEXT
  5
15F
330
159
100
AcDbEntity
  8
1
 62
     2
100
AcDbMText
 10
-207.883970001136
 20
3.75160009231135
 30
0.0
 40
3.5
 41
0.0
 71
     7
 72
     1
  1
40
  7
CONVERTER_11
 11
0.0
 21
1.0
 31
0.0
 73
     1
 44
0.60024009603842
  0
ENDBLK
  5
161
330
159
100
AcDbEntity
  8
0
100
AcDbBlockEnd
  0
BLOCK
  5
16B
330
164
100
AcDbEntity
  8
0
100
AcDbBlockBegin
  2
*D6
 70
     1
 71
     0
 10
0.0
 20
0.0
 30
0.0
  3
*D6
  1

  0
LINE
  5
165
330
164
100
AcDbEntity
  8
1
  6
Continuous
 62
     2
100
AcDbLine
 10
-193.1092983114338
 20
-21.715302081234
 30
0.0
 11
-177.1092983114338
 21
-21.715302081234
 31
0.0
  0
LINE
  5
166
330
164
100
AcDbEntity
  8
1
  6
Continuous
 62
     2
100
AcDbLine
 10
-177.1092983114338
 20
-6.62339990768865
 30
0.0
 11
-177.1092983114338
 21
-23.715302081234
 31
0.0
  0
LINE
  5
167
330
164
100
AcDbEntity
  8
1
  6
Continuous
 62
     2
100
AcDbLine
 10
-193.1092983114338
 20
-51.62339990768865
 30
0.0
 11
-193.1092983114338
 21
-19.715302081234
 31
0.0
  0
SOLID
  5
168
330
164
100
AcDbEntity
  8
1
 62
     2
100
AcDbTrace
 10
-189.6092983114338
 20
-21.25451833967811
 30
0.0
 11
-189.6092983114338
 21
-22.17608582278989
 31
0.0
 12
-193.1092983114338
 22
-21.715302081234
 32
0.0
 13
-193.1092983114338
 23
-21.715302081234
 33
0.0
  0
SOLID
  5
169
330
164
100
AcDbEntity
  8
1
 62
     2
100
AcDbTrace
 10
-180.6092983114338
 20
-22.17608582278989
 30
0.0
 11
-180.6092983114338
 21
-21.25451833967811
 31
0.0
 12
-177.1092983114338
 22
-21.715302081234
 32
0.0
 13
-177.1092983114338
 23
-21.715302081234
 33
0.0
  0
MTEXT
  5
16A
330
164
100
AcDbEntity
  8
1
 62
     2
100
AcDbMText
 10
-182.520145042129
 20
-19.715302081234
 30
0.0
 40
3.5
 41
0.0
 71
     7
 72
     1
  1
16
  7
CONVERTER_11
 11
0.9999999999970621
 21
2.424068405545307E-6
 31
0.0
 73
     1
 44
0.60024009603842
  0
ENDBLK
  5
16C
330
164
100
AcDbEntity
  8
0
100
AcDbBlockEnd
  0
BLOCK
  5
178
330
16F
100
AcDbEntity
  8
0
100
AcDbBlockBegin
  2
*D7
 70
     1
 71
     0
 10
0.0
 20
0.0
 30
0.0
  3
*D7
  1

  0
LINE
  5
170
330
16F
100
AcDbEntity
  8
1
  6
Continuous
 62
     2
100
AcDbLine
 10
195.8727063242639
 20
-97.781584343866
 30
0.0
 11
188.4307676322632
 21
-97.781584343866
 31
0.0
  0
LINE
  5
171
330
16F
100
AcDbEntity
  8
1
  6
Continuous
 62
     2
100
AcDbLine
 10
188.4307676322632
 20
-97.781584343866
 30
0.0
 11
184.4307676322632
 21
-97.781584343866
 31
0.0
  0
LINE
  5
172
330
16F
100
AcDbEntity
  8
1
  6
Continuous
 62
     2
100
AcDbLine
 10
184.4307676322632
 20
-97.781584343866
 30
0.0
 11
177.4307676322632
 21
-97.781584343866
 31
0.0
  0
LINE
  5
173
330
16F
100
AcDbEntity
  8
1
  6
Continuous
 62
     2
100
AcDbLine
 10
184.4307676322632
 20
-63.12339990768866
 30
0.0
 11
184.4307676322632
 21
-99.781584343866
 31
0.0
  0
LINE
  5
174
330
16F
100
AcDbEntity
  8
1
  6
Continuous
 62
     2
100
AcDbLine
 10
188.4307676322632
 20
-89.62339990768866
 30
0.0
 11
188.4307676322632
 21
-99.781584343866
 31
0.0
  0
SOLID
  5
175
330
16F
100
AcDbEntity
  8
1
 62
     2
100
AcDbTrace
 10
191.9307676322632
 20
-97.32080060231011
 30
0.0
 11
191.9307676322632
 21
-98.24236808542189
 31
0.0
 12
188.4307676322632
 22
-97.781584343866
 32
0.0
 13
188.4307676322632
 23
-97.781584343866
 33
0.0
  0
SOLID
  5
176
330
16F
100
AcDbEntity
  8
1
 62
     2
100
AcDbTrace
 10
180.9307676322632
 20
-98.24236808542189
 30
0.0
 11
180.9307676322632
 21
-97.32080060231011
 31
0.0
 12
184.4307676322632
 22
-97.781584343866
 32
0.0
 13
184.4307676322632
 23
-97.781584343866
 33
0.0
  0
MTEXT
  5
177
330
16F
100
AcDbEntity
  8
1
 62
     2
100
AcDbMText
 10
193.7727063242639
 20
-95.781584343866
 30
0.0
 40
3.5
 41
0.0
 71
     7
 72
     1
  1
4
  7
CONVERTER_11
 11
0.9999999999970621
 21
2.424068405545307E-6
 31
0.0
 73
     1
 44
0.60024009603842
  0
ENDBLK
  5
179
330
16F
100
AcDbEntity
  8
0
100
AcDbBlockEnd
  0
BLOCK
  5
183
330
17C
100
AcDbEntity
  8
0
100
AcDbBlockBegin
  2
*D8
 70
     1
 71
     0
 10
0.0
 20
0.0
 30
0.0
  3
*D8
  1

  0
LINE
  5
17D
330
17C
100
AcDbEntity
  8
1
  6
Continuous
 62
     2
100
AcDbLine
 10
184.4307676322631
 20
-97.781584343866
 30
0.0
 11
166.4307676322631
 21
-97.781584343866
 31
0.0
  0
LINE
  5
17E
330
17C
100
AcDbEntity
  8
1
  6
Continuous
 62
     2
100
AcDbLine
 10
166.4307676322631
 20
-63.12339990768866
 30
0.0
 11
166.4307676322631
 21
-99.781584343866
 31
0.0
  0
LINE
  5
17F
330
17C
100
AcDbEntity
  8
1
  6
Continuous
 62
     2
100
AcDbLine
 10
184.4307676322631
 20
-63.12339990768866
 30
0.0
 11
184.4307676322631
 21
-99.781584343866
 31
0.0
  0
SOLID
  5
180
330
17C
100
AcDbEntity
  8
1
 62
     2
100
AcDbTrace
 10
180.9307676322631
 20
-98.24236808542189
 30
0.0
 11
180.9307676322631
 21
-97.32080060231011
 31
0.0
 12
184.4307676322631
 22
-97.781584343866
 32
0.0
 13
184.4307676322631
 23
-97.781584343866
 33
0.0
  0
SOLID
  5
181
330
17C
100
AcDbEntity
  8
1
 62
     2
100
AcDbTrace
 10
169.9307676322631
 20
-97.32080060231011
 30
0.0
 11
169.9307676322631
 21
-98.24236808542189
 31
0.0
 12
166.4307676322631
 22
-97.781584343866
 32
0.0
 13
166.4307676322631
 23
-97.781584343866
 33
0.0
  0
MTEXT
  5
182
330
17C
100
AcDbEntity
  8
1
 62
     2
100
AcDbMText
 10
172.0230355898808
 20
-95.781584343866
 30
0.0
 40
3.5
 41
0.0
 71
     7
 72
     1
  1
18
  7
CONVERTER_11
 11
0.9999999999970621
 21
2.424068405545307E-6
 31
0.0
 73
     1
 44
0.60024009603842
  0
ENDBLK
  5
184
330
17C
100
AcDbEntity
  8
0
100
AcDbBlockEnd
  0
BLOCK
  5
18E
330
187
100
AcDbEntity
  8
0
100
AcDbBlockBegin
  2
*D9
 70
     1
 71
     0
 10
0.0
 20
0.0
 30
0.0
  3
*D9
  1

  0
LINE
  5
188
330
187
100
AcDbEntity
  8
1
  6
Continuous
 62
     2
100
AcDbLine
 10
182.4307676322632
 20
16.3048182481224
 30
0.0
 11
166.4307676322632
 21
16.3048182481224
 31
0.0
  0
LINE
  5
189
330
187
100
AcDbEntity
  8
1
  6
Continuous
 62
     2
100
AcDbLine
 10
182.4307676322632
 20
-46.62339990768864
 30
0.0
 11
182.4307676322632
 21
18.3048182481224
 31
0.0
  0
LINE
  5
18A
330
187
100
AcDbEntity
  8
1
  6
Continuous
 62
     2
100
AcDbLine
 10
166.4307676322632
 20
5.37660009231135
 30
0.0
 11
166.4307676322632
 21
18.3048182481224
 31
0.0
  0
SOLID
  5
18B
330
187
100
AcDbEntity
  8
1
 62
     2
100
AcDbTrace
 10
178.9307676322632
 20
15.84403450656652
 30
0.0
 11
178.9307676322632
 21
16.76560198967829
 31
0.0
 12
182.4307676322632
 22
16.3048182481224
 32
0.0
 13
182.4307676322632
 23
16.3048182481224
 33
0.0
  0
SOLID
  5
18C
330
187
100
AcDbEntity
  8
1
 62
     2
100
AcDbTrace
 10
169.9307676322632
 20
16.76560198967829
 30
0.0
 11
169.9307676322632
 21
15.84403450656652
 31
0.0
 12
166.4307676322632
 22
16.3048182481224
 32
0.0
 13
166.4307676322632
 23
16.3048182481224
 33
0.0
  0
MTEXT
  5
18D
330
187
100
AcDbEntity
  8
1
 62
     2
100
AcDbMText
 10
171.8342483955857
 20
18.3048182481224
 30
0.0
 40
3.5
 41
0.0
 71
     7
 72
     1
  1
16
  7
CONVERTER_11
 11
0.9999999999970621
 21
2.424068405545307E-6
 31
0.0
 73
     1
 44
0.60024009603842
  0
ENDBLK
  5
18F
330
187
100
AcDbEntity
  8
0
100
AcDbBlockEnd
  0
BLOCK
  5
199
330
192
100
AcDbEntity
  8
0
100
AcDbBlockBegin
  2
*D10
 70
     1
 71
     0
 10
0.0
 20
0.0
 30
0.0
  3
*D10
  1

  0
LINE
  5
193
330
192
100
AcDbEntity
  8
1
  6
Continuous
 62
     2
100
AcDbLine
 10
124.3966627002628
 20
-72.12339990768865
 30
0.0
 11
124.3966627002628
 21
82.87660009231135
 31
0.0
  0
LINE
  5
194
330
192
100
AcDbEntity
  8
1
  6
Continuous
 62
     2
100
AcDbLine
 10
175.4307676322632
 20
-72.12339990768865
 30
0.0
 11
122.3966627002628
 21
-72.12339990768865
 31
0.0
  0
LINE
  5
195
330
192
100
AcDbEntity
  8
1
  6
Continuous
 62
     2
100
AcDbLine
 10
175.4307676322632
 20
82.87660009231135
 30
0.0
 11
122.3966627002628
 21
82.87660009231135
 31
0.0
  0
SOLID
  5
196
330
192
100
AcDbEntity
  8
1
 62
     2
100
AcDbTrace
 10
123.9358789587069
 20
-68.62339990768865
 30
0.0
 11
124.8574464418187
 21
-68.62339990768865
 31
0.0
 12
124.3966627002628
 22
-72.12339990768865
 32
0.0
 13
124.3966627002628
 23
-72.12339990768865
 33
0.0
  0
SOLID
  5
197
330
192
100
AcDbEntity
  8
1
 62
     2
100
AcDbTrace
 10
124.8574464418187
 20
79.37660009231135
 30
0.0
 11
123.9358789587069
 21
79.37660009231135
 31
0.0
 12
124.3966627002628
 22
82.87660009231135
 32
0.0
 13
124.3966627002628
 23
82.87660009231135
 33
0.0
  0
MTEXT
  5
198
330
192
100
AcDbEntity
  8
1
 62
     2
100
AcDbMText
 10
122.3966627002628
 20
-0.42261159302699
 30
0.0
 40
3.5
 41
0.0
 71
     7
 72
     1
  1
155
  7
CONVERTER_11
 11
0.0
 21
1.0
 31
0.0
 73
     1
 44
0.60024009603842
  0
ENDBLK
  5
19A
330
192
100
AcDbEntity
  8
0
100
AcDbBlockEnd
  0
BLOCK
  5
1A4
330
19D
100
AcDbEntity
  8
0
100
AcDbBlockBegin
  2
*D11
 70
     1
 71
     0
 10
0.0
 20
0.0
 30
0.0
  3
*D11
  1

  0
LINE
  5
19E
330
19D
100
AcDbEntity
  8
1
  6
Continuous
 62
     2
100
AcDbLine
 10
143.0020840200259
 20
65.37660009231134
 30
0.0
 11
143.0020840200259
 21
-54.62339990768866
 31
0.0
  0
LINE
  5
19F
330
19D
100
AcDbEntity
  8
1
  6
Continuous
 62
     2
100
AcDbLine
 10
174.4307676322632
 20
65.37660009231134
 30
0.0
 11
141.0020840200259
 21
65.37660009231134
 31
0.0
  0
LINE
  5
1A0
330
19D
100
AcDbEntity
  8
1
  6
Continuous
 62
     2
100
AcDbLine
 10
174.4307676322632
 20
-54.62339990768866
 30
0.0
 11
141.0020840200259
 21
-54.62339990768866
 31
0.0
  0
SOLID
  5
1A1
330
19D
100
AcDbEntity
  8
1
 62
     2
100
AcDbTrace
 10
143.4628677615818
 20
61.87660009231134
 30
0.0
 11
142.54130027847
 21
61.87660009231134
 31
0.0
 12
143.0020840200259
 22
65.37660009231134
 32
0.0
 13
143.0020840200259
 23
65.37660009231134
 33
0.0
  0
SOLID
  5
1A2
330
19D
100
AcDbEntity
  8
1
 62
     2
100
AcDbTrace
 10
142.54130027847
 20
-51.12339990768866
 30
0.0
 11
143.4628677615818
 21
-51.12339990768866
 31
0.0
 12
143.0020840200259
 22
-54.62339990768866
 32
0.0
 13
143.0020840200259
 23
-54.62339990768866
 33
0.0
  0
MTEXT
  5
1A3
330
19D
100
AcDbEntity
  8
1
 62
     2
100
AcDbMText
 10
141.0020840200259
 20
-0.07112963725349
 30
0.0
 40
3.5
 41
0.0
 71
     7
 72
     1
  1
120
  7
CONVERTER_11
 11
0.0
 21
1.0
 31
0.0
 73
     1
 44
0.60024009603842
  0
ENDBLK
  5
1A5
330
19D
100
AcDbEntity
  8
0
100
AcDbBlockEnd
  0
BLOCK
  5
1AF
330
1A8
100
AcDbEntity
  8
0
100
AcDbBlockBegin
  2
*D12
 70
     1
 71
     0
 10
0.0
 20
0.0
 30
0.0
  3
*D12
  1

  0
LINE
  5
1A9
330
1A8
100
AcDbEntity
  8
1
  6
Continuous
 62
     2
100
AcDbLine
 10
76.43076763226313
 20
-98.785670014645
 30
0.0
 11
66.43076763226313
 21
-98.785670014645
 31
0.0
  0
LINE
  5
1AA
330
1A8
100
AcDbEntity
  8
1
  6
Continuous
 62
     2
100
AcDbLine
 10
66.43076763226313
 20
-89.62339990768868
 30
0.0
 11
66.43076763226313
 21
-100.785670014645
 31
0.0
  0
LINE
  5
1AB
330
1A8
100
AcDbEntity
  8
1
  6
Continuous
 62
     2
100
AcDbLine
 10
76.43076763226313
 20
-72.12339990768865
 30
0.0
 11
76.43076763226313
 21
-100.785670014645
 31
0.0
  0
SOLID
  5
1AC
330
1A8
100
AcDbEntity
  8
1
 62
     2
100
AcDbTrace
 10
72.93076763226313
 20
-99.24645375620089
 30
0.0
 11
72.93076763226313
 21
-98.32488627308912
 31
0.0
 12
76.43076763226313
 22
-98.785670014645
 32
0.0
 13
76.43076763226313
 23
-98.785670014645
 33
0.0
  0
SOLID
  5
1AD
330
1A8
100
AcDbEntity
  8
1
 62
     2
100
AcDbTrace
 10
69.93076763226313
 20
-98.32488627308912
 30
0.0
 11
69.93076763226313
 21
-99.24645375620089
 31
0.0
 12
66.43076763226313
 22
-98.785670014645
 32
0.0
 13
66.43076763226313
 23
-98.785670014645
 33
0.0
  0
MTEXT
  5
1AE
330
1A8
100
AcDbEntity
  8
1
 62
     2
100
AcDbMText
 10
69.81227929625334
 20
-96.785670014645
 30
0.0
 40
3.5
 41
0.0
 71
     7
 72
     1
  1
10
  7
CONVERTER_11
 11
0.9999999999970621
 21
2.424068405545307E-6
 31
0.0
 73
     1
 44
0.60024009603842
  0
ENDBLK
  5
1B0
330
1A8
100
AcDbEntity
  8
0
100
AcDbBlockEnd
  0
BLOCK
  5
1BA
330
1B3
100
AcDbEntity
  8
0
100
AcDbBlockBegin
  2
*D13
 70
     1
 71
     0
 10
0.0
 20
0.0
 30
0.0
  3
*D13
  1

  0
LINE
  5
1B4
330
1B3
100
AcDbEntity
  8
1
  6
Continuous
 62
     2
100
AcDbLine
 10
66.43076763226313
 20
-110.622960427562
 30
0.0
 11
93.4307676322631
 21
-110.622960427562
 31
0.0
  0
LINE
  5
1B5
330
1B3
100
AcDbEntity
  8
1
  6
Continuous
 62
     2
100
AcDbLine
 10
93.4307676322631
 20
-54.62339990768866
 30
0.0
 11
93.4307676322631
 21
-112.622960427562
 31
0.0
  0
LINE
  5
1B6
330
1B3
100
AcDbEntity
  8
1
  6
Continuous
 62
     2
100
AcDbLine
 10
66.43076763226313
 20
-72.12339990768865
 30
0.0
 11
66.43076763226313
 21
-112.622960427562
 31
0.0
  0
SOLID
  5
1B7
330
1B3
100
AcDbEntity
  8
1
 62
     2
100
AcDbTrace
 10
69.93076763226313
 20
-110.1621766860061
 30
0.0
 11
69.93076763226313
 21
-111.0837441691179
 31
0.0
 12
66.43076763226313
 22
-110.622960427562
 32
0.0
 13
66.43076763226313
 23
-110.622960427562
 33
0.0
  0
SOLID
  5
1B8
330
1B3
100
AcDbEntity
  8
1
 62
     2
100
AcDbTrace
 10
89.9307676322631
 20
-111.0837441691179
 30
0.0
 11
89.9307676322631
 21
-110.1621766860061
 31
0.0
 12
93.4307676322631
 22
-110.622960427562
 32
0.0
 13
93.4307676322631
 23
-110.622960427562
 33
0.0
  0
MTEXT
  5
1B9
330
1B3
100
AcDbEntity
  8
1
 62
     2
100
AcDbMText
 10
77.3482796328147
 20
-108.622960427562
 30
0.0
 40
3.5
 41
0.0
 71
     7
 72
     1
  1
27
  7
CONVERTER_11
 11
0.9999999999970621
 21
2.424068405545307E-6
 31
0.0
 73
     1
 44
0.60024009603842
  0
ENDBLK
  5
1BB
330
1B3
100
AcDbEntity
  8
0
100
AcDbBlockEnd
  0
BLOCK
  5
1C5
330
1BE
100
AcDbEntity
  8
0
100
AcDbBlockBegin
  2
*D14
 70
     1
 71
     0
 10
0.0
 20
0.0
 30
0.0
  3
*D14
  1

  0
LINE
  5
1BF
330
1BE
100
AcDbEntity
  8
1
  6
Continuous
 62
     2
100
AcDbLine
 10
133.6209185570109
 20
76.37660009231135
 30
0.0
 11
133.6209185570109
 21
-65.62339990768865
 31
0.0
  0
LINE
  5
1C0
330
1BE
100
AcDbEntity
  8
1
  6
Continuous
 62
     2
100
AcDbLine
 10
173.1807676322632
 20
76.37660009231135
 30
0.0
 11
131.6209185570109
 21
76.37660009231135
 31
0.0
  0
LINE
  5
1C1
330
1BE
100
AcDbEntity
  8
1
  6
Continuous
 62
     2
100
AcDbLine
 10
173.1807676322632
 20
-65.62339990768865
 30
0.0
 11
131.6209185570109
 21
-65.62339990768865
 31
0.0
  0
SOLID
  5
1C2
330
1BE
100
AcDbEntity
  8
1
 62
     2
100
AcDbTrace
 10
134.0817022985668
 20
72.87660009231135
 30
0.0
 11
133.160134815455
 21
72.87660009231135
 31
0.0
 12
133.6209185570109
 22
76.37660009231135
 32
0.0
 13
133.6209185570109
 23
76.37660009231135
 33
0.0
  0
SOLID
  5
1C3
330
1BE
100
AcDbEntity
  8
1
 62
     2
100
AcDbTrace
 10
133.160134815455
 20
-62.12339990768865
 30
0.0
 11
134.0817022985668
 21
-62.12339990768865
 31
0.0
 12
133.6209185570109
 22
-65.62339990768865
 32
0.0
 13
133.6209185570109
 23
-65.62339990768865
 33
0.0
  0
MTEXT
  5
1C4
330
1BE
100
AcDbEntity
  8
1
 62
     2
100
AcDbMText
 10
131.6209185570109
 20
-0.30111345100198
 30
0.0
 40
3.5
 41
0.0
 71
     7
 72
     1
  1
142
  7
CONVERTER_11
 11
0.0
 21
1.0
 31
0.0
 73
     1
 44
0.60024009603842
  0
ENDBLK
  5
1C6
330
1BE
100
AcDbEntity
  8
0
100
AcDbBlockEnd
  0
BLOCK
  5
1D2
330
1C9
100
AcDbEntity
  8
0
100
AcDbBlockBegin
  2
*D15
 70
     1
 71
     0
 10
0.0
 20
0.0
 30
0.0
  3
*D15
  1

  0
LINE
  5
1CA
330
1C9
100
AcDbEntity
  8
1
  6
Continuous
 62
     2
100
AcDbLine
 10
-196.1092983114338
 20
-107.635225276103
 30
0.0
 11
-189.1092983114338
 21
-107.635225276103
 31
0.0
  0
LINE
  5
1CB
330
1C9
100
AcDbEntity
  8
1
  6
Continuous
 62
     2
100
AcDbLine
 10
-199.1092983114338
 20
-107.635225276103
 30
0.0
 11
-196.1092983114338
 21
-107.635225276103
 31
0.0
  0
LINE
  5
1CC
330
1C9
100
AcDbEntity
  8
1
  6
Continuous
 62
     2
100
AcDbLine
 10
-206.1092983114338
 20
-107.635225276103
 30
0.0
 11
-199.1092983114338
 21
-107.635225276103
 31
0.0
  0
LINE
  5
1CD
330
1C9
100
AcDbEntity
  8
1
  6
Continuous
 62
     2
100
AcDbLine
 10
-199.1092983114338
 20
-94.62339990768865
 30
0.0
 11
-199.1092983114338
 21
-109.635225276103
 31
0.0
  0
LINE
  5
1CE
330
1C9
100
AcDbEntity
  8
1
  6
Continuous
 62
     2
100
AcDbLine
 10
-196.1092983114338
 20
-61.62339990768865
 30
0.0
 11
-196.1092983114338
 21
-109.635225276103
 31
0.0
  0
SOLID
  5
1CF
330
1C9
100
AcDbEntity
  8
1
 62
     2
100
AcDbTrace
 10
-202.6092983114338
 20
-108.0960090176589
 30
0.0
 11
-202.6092983114338
 21
-107.1744415345471
 31
0.0
 12
-199.1092983114338
 22
-107.635225276103
 32
0.0
 13
-199.1092983114338
 23
-107.635225276103
 33
0.0
  0
SOLID
  5
1D0
330
1C9
100
AcDbEntity
  8
1
 62
     2
100
AcDbTrace
 10
-192.6092983114338
 20
-107.1744415345471
 30
0.0
 11
-192.6092983114338
 21
-108.0960090176589
 31
0.0
 12
-196.1092983114338
 22
-107.635225276103
 32
0.0
 13
-196.1092983114338
 23
-107.635225276103
 33
0.0
  0
MTEXT
  5
1D1
330
1C9
100
AcDbEntity
  8
1
 62
     2
100
AcDbMText
 10
-204.669257011963
 20
-105.635225276103
 30
0.0
 40
3.5
 41
0.0
 71
     7
 72
     1
  1
3
  7
CONVERTER_11
 11
0.9999999999970621
 21
2.424068405545307E-6
 31
0.0
 73
     1
 44
0.60024009603842
  0
ENDBLK
  5
1D3
330
1C9
100
AcDbEntity
  8
0
100
AcDbBlockEnd
  0
BLOCK
  5
1DD
330
1D6
100
AcDbEntity
  8
0
100
AcDbBlockBegin
  2
*D16
 70
     1
 71
     0
 10
0.0
 20
0.0
 30
0.0
  3
*D16
  1

  0
LINE
  5
1D7
330
1D6
100
AcDbEntity
  8
1
  6
Continuous
 62
     2
100
AcDbLine
 10
-151.262449114099
 20
71.37660009231135
 30
0.0
 11
-151.262449114099
 21
-60.62339990768865
 31
0.0
  0
LINE
  5
1D8
330
1D6
100
AcDbEntity
  8
1
  6
Continuous
 62
     2
100
AcDbLine
 10
-184.1092983114338
 20
71.37660009231135
 30
0.0
 11
-149.262449114099
 21
71.37660009231135
 31
0.0
  0
LINE
  5
1D9
330
1D6
100
AcDbEntity
  8
1
  6
Continuous
 62
     2
100
AcDbLine
 10
-184.1092983114338
 20
-60.62339990768865
 30
0.0
 11
-149.262449114099
 21
-60.62339990768865
 31
0.0
  0
SOLID
  5
1DA
330
1D6
100
AcDbEntity
  8
1
 62
     2
100
AcDbTrace
 10
-150.8016653725431
 20
67.87660009231135
 30
0.0
 11
-151.7232328556549
 21
67.87660009231135
 31
0.0
 12
-151.262449114099
 22
71.37660009231135
 32
0.0
 13
-151.262449114099
 23
71.37660009231135
 33
0.0
  0
SOLID
  5
1DB
330
1D6
100
AcDbEntity
  8
1
 62
     2
100
AcDbTrace
 10
-151.7232328556549
 20
-57.12339990768865
 30
0.0
 11
-150.8016653725431
 21
-57.12339990768865
 31
0.0
 12
-151.262449114099
 22
-60.62339990768865
 32
0.0
 13
-151.262449114099
 23
-60.62339990768865
 33
0.0
  0
MTEXT
  5
1DC
330
1D6
100
AcDbEntity
  8
1
 62
     2
100
AcDbMText
 10
-153.262449114099
 20
1.95000743621877
 30
0.0
 40
3.5
 41
0.0
 71
     7
 72
     1
  1
132
  7
CONVERTER_11
 11
0.0
 21
1.0
 31
0.0
 73
     1
 44
0.60024009603842
  0
ENDBLK
  5
1DE
330
1D6
100
AcDbEntity
  8
0
100
AcDbBlockEnd
  0
BLOCK
  5
1E8
330
1E1
100
AcDbEntity
  8
0
100
AcDbBlockBegin
  2
*D17
 70
     1
 71
     0
 10
0.0
 20
0.0
 30
0.0
  3
*D17
  1

  0
LINE
  5
1E2
330
1E1
100
AcDbEntity
  8
1
  6
Continuous
 62
     2
100
AcDbLine
 10
-216.887717566138
 20
82.87660009231135
 30
0.0
 11
-216.887717566138
 21
-72.12339990768865
 31
0.0
  0
LINE
  5
1E3
330
1E1
100
AcDbEntity
  8
1
  6
Continuous
 62
     2
100
AcDbLine
 10
-185.6092983114338
 20
82.87660009231135
 30
0.0
 11
-218.887717566138
 21
82.87660009231135
 31
0.0
  0
LINE
  5
1E4
330
1E1
100
AcDbEntity
  8
1
  6
Continuous
 62
     2
100
AcDbLine
 10
-185.6092983114338
 20
-72.12339990768865
 30
0.0
 11
-218.887717566138
 21
-72.12339990768865
 31
0.0
  0
SOLID
  5
1E5
330
1E1
100
AcDbEntity
  8
1
 62
     2
100
AcDbTrace
 10
-216.4269338245821
 20
79.37660009231135
 30
0.0
 11
-217.3485013076939
 21
79.37660009231135
 31
0.0
 12
-216.887717566138
 22
82.87660009231135
 32
0.0
 13
-216.887717566138
 23
82.87660009231135
 33
0.0
  0
SOLID
  5
1E6
330
1E1
100
AcDbEntity
  8
1
 62
     2
100
AcDbTrace
 10
-217.3485013076939
 20
-68.62339990768865
 30
0.0
 11
-216.4269338245821
 21
-68.62339990768865
 31
0.0
 12
-216.887717566138
 22
-72.12339990768865
 32
0.0
 13
-216.887717566138
 23
-72.12339990768865
 33
0.0
  0
MTEXT
  5
1E7
330
1E1
100
AcDbEntity
  8
1
 62
     2
100
AcDbMText
 10
-218.887717566138
 20
2.14486230664208
 30
0.0
 40
3.5
 41
0.0
 71
     7
 72
     1
  1
155
  7
CONVERTER_11
 11
0.0
 21
1.0
 31
0.0
 73
     1
 44
0.60024009603842
  0
ENDBLK
  5
1E9
330
1E1
100
AcDbEntity
  8
0
100
AcDbBlockEnd
  0
BLOCK
  5
1F3
330
1EC
100
AcDbEntity
  8
0
100
AcDbBlockBegin
  2
*D18
 70
     1
 71
     0
 10
0.0
 20
0.0
 30
0.0
  3
*D18
  1

  0
LINE
  5
1ED
330
1EC
100
AcDbEntity
  8
1
  6
Continuous
 62
     2
100
AcDbLine
 10
-193.1092983114338
 20
28.4188748070954
 30
0.0
 11
-175.1092983114338
 21
28.4188748070954
 31
0.0
  0
LINE
  5
1EE
330
1EC
100
AcDbEntity
  8
1
  6
Continuous
 62
     2
100
AcDbLine
 10
-193.1092983114338
 20
62.37660009231134
 30
0.0
 11
-193.1092983114338
 21
26.4188748070954
 31
0.0
  0
LINE
  5
1EF
330
1EC
100
AcDbEntity
  8
1
  6
Continuous
 62
     2
100
AcDbLine
 10
-175.1092983114338
 20
72.37660009231135
 30
0.0
 11
-175.1092983114338
 21
26.4188748070954
 31
0.0
  0
SOLID
  5
1F0
330
1EC
100
AcDbEntity
  8
1
 62
     2
100
AcDbTrace
 10
-189.6092983114338
 20
28.87965854865129
 30
0.0
 11
-189.6092983114338
 21
27.95809106553951
 31
0.0
 12
-193.1092983114338
 22
28.4188748070954
 32
0.0
 13
-193.1092983114338
 23
28.4188748070954
 33
0.0
  0
SOLID
  5
1F1
330
1EC
100
AcDbEntity
  8
1
 62
     2
100
AcDbTrace
 10
-178.6092983114338
 20
27.95809106553951
 30
0.0
 11
-178.6092983114338
 21
28.87965854865129
 31
0.0
 12
-175.1092983114338
 22
28.4188748070954
 32
0.0
 13
-175.1092983114338
 23
28.4188748070954
 33
0.0
  0
MTEXT
  5
1F2
330
1EC
100
AcDbEntity
  8
1
 62
     2
100
AcDbMText
 10
-182.6515473033972
 20
30.4188748070954
 30
0.0
 40
3.5
 41
0.0
 71
     7
 72
     1
  1
18
  7
CONVERTER_11
 11
0.9999999999970621
 21
2.424068405545307E-6
 31
0.0
 73
     1
 44
0.60024009603842
  0
ENDBLK
  5
1F4
330
1EC
100
AcDbEntity
  8
0
100
AcDbBlockEnd
  0
BLOCK
  5
1FE
330
1F7
100
AcDbEntity
  8
0
100
AcDbBlockBegin
  2
*D19
 70
     1
 71
     0
 10
0.0
 20
0.0
 30
0.0
  3
*D19
  1

  0
LINE
  5
1F8
330
1F7
100
AcDbEntity
  8
1
  6
Continuous
 62
     2
100
AcDbLine
 10
-175.1092983114338
 20
-107.5759847602375
 30
0.0
 11
-196.1092983114338
 21
-107.5759847602375
 31
0.0
  0
LINE
  5
1F9
330
1F7
100
AcDbEntity
  8
1
  6
Continuous
 62
     2
100
AcDbLine
 10
-175.1092983114338
 20
-61.62339990768866
 30
0.0
 11
-175.1092983114338
 21
-109.5759847602375
 31
0.0
  0
LINE
  5
1FA
330
1F7
100
AcDbEntity
  8
1
  6
Continuous
 62
     2
100
AcDbLine
 10
-196.1092983114338
 20
-61.62339990768866
 30
0.0
 11
-196.1092983114338
 21
-109.5759847602375
 31
0.0
  0
SOLID
  5
1FB
330
1F7
100
AcDbEntity
  8
1
 62
     2
100
AcDbTrace
 10
-178.6092983114338
 20
-108.0367685017934
 30
0.0
 11
-178.6092983114338
 21
-107.1152010186816
 31
0.0
 12
-175.1092983114338
 22
-107.5759847602375
 32
0.0
 13
-175.1092983114338
 23
-107.5759847602375
 33
0.0
  0
SOLID
  5
1FC
330
1F7
100
AcDbEntity
  8
1
 62
     2
100
AcDbTrace
 10
-192.6092983114338
 20
-107.1152010186816
 30
0.0
 11
-192.6092983114338
 21
-108.0367685017934
 31
0.0
 12
-196.1092983114338
 22
-107.5759847602375
 32
0.0
 13
-196.1092983114338
 23
-107.5759847602375
 33
0.0
  0
MTEXT
  5
1FD
330
1F7
100
AcDbEntity
  8
1
 62
     2
100
AcDbMText
 10
-187.9452342178087
 20
-105.5759847602375
 30
0.0
 40
3.5
 41
0.0
 71
     7
 72
     1
  1
21
  7
CONVERTER_11
 11
0.9999999999970621
 21
2.424068405545307E-6
 31
0.0
 73
     1
 44
0.60024009603842
  0
ENDBLK
  5
1FF
330
1F7
100
AcDbEntity
  8
0
100
AcDbBlockEnd
  0
BLOCK
  5
209
330
202
100
AcDbEntity
  8
0
100
AcDbBlockBegin
  2
*D20
 70
     1
 71
     0
 10
0.0
 20
0.0
 30
0.0
  3
*D20
  1

  0
LINE
  5
203
330
202
100
AcDbEntity
  8
1
  6
Continuous
 62
     2
100
AcDbLine
 10
-77.80177865188125
 20
-118.2833961103276
 30
0.0
 11
-101.8048839096186
 21
-118.2833961103276
 31
0.0
  0
LINE
  5
204
330
202
100
AcDbEntity
  8
1
  6
Continuous
 62
     2
100
AcDbLine
 10
-77.80177865188125
 20
-72.12339990768865
 30
0.0
 11
-77.80177865188125
 21
-120.2833961103276
 31
0.0
  0
LINE
  5
205
330
202
100
AcDbEntity
  8
1
  6
Continuous
 62
     2
100
AcDbLine
 10
-101.8048839096186
 20
-60.62339990768861
 30
0.0
 11
-101.8048839096186
 21
-120.2833961103276
 31
0.0
  0
SOLID
  5
206
330
202
100
AcDbEntity
  8
1
 62
     2
100
AcDbTrace
 10
-81.30177865188125
 20
-118.7441798518835
 30
0.0
 11
-81.30177865188125
 21
-117.8226123687717
 31
0.0
 12
-77.80177865188125
 22
-118.2833961103276
 32
0.0
 13
-77.80177865188125
 23
-118.2833961103276
 33
0.0
  0
SOLID
  5
207
330
202
100
AcDbEntity
  8
1
 62
     2
100
AcDbTrace
 10
-98.30488390961862
 20
-117.8226123687717
 30
0.0
 11
-98.30488390961862
 21
-118.7441798518835
 31
0.0
 12
-101.8048839096186
 22
-118.2833961103276
 32
0.0
 13
-101.8048839096186
 23
-118.2833961103276
 33
0.0
  0
MTEXT
  5
208
330
202
100
AcDbEntity
  8
1
 62
     2
100
AcDbMText
 10
-92.60099419807557
 20
-116.2833961103276
 30
0.0
 40
3.5
 41
0.0
 71
     7
 72
     1
  1
24
  7
CONVERTER_11
 11
0.9999999999970621
 21
2.424068405545307E-6
 31
0.0
 73
     1
 44
0.60024009603842
  0
ENDBLK
  5
20A
330
202
100
AcDbEntity
  8
0
100
AcDbBlockEnd
  0
BLOCK
  5
216
330
20D
100
AcDbEntity
  8
0
100
AcDbBlockBegin
  2
*D21
 70
     1
 71
     0
 10
0.0
 20
0.0
 30
0.0
  3
*D21
  1

  0
LINE
  5
20E
330
20D
100
AcDbEntity
  8
1
  6
Continuous
 62
     2
100
AcDbLine
 10
13.63953091356274
 20
-73.7386454488453
 30
0.0
 11
13.63953091356274
 21
-66.6979399702632
 31
0.0
  0
LINE
  5
20F
330
20D
100
AcDbEntity
  8
1
  6
Continuous
 62
     2
100
AcDbLine
 10
13.63953091356274
 20
-66.6979399702632
 30
0.0
 11
13.63953091356274
 21
-62.69793997026319
 31
0.0
  0
LINE
  5
210
330
20D
100
AcDbEntity
  8
1
  6
Continuous
 62
     2
100
AcDbLine
 10
13.63953091356274
 20
-62.69793997026319
 30
0.0
 11
13.63953091356274
 21
-55.69793997026319
 31
0.0
  0
LINE
  5
211
330
20D
100
AcDbEntity
  8
1
  6
Continuous
 62
     2
100
AcDbLine
 10
6.38679367266664
 20
-66.6979399702632
 30
0.0
 11
15.63953091356274
 21
-66.6979399702632
 31
0.0
  0
LINE
  5
212
330
20D
100
AcDbEntity
  8
1
  6
Continuous
 62
     2
100
AcDbLine
 10
16.38679367266663
 20
-62.69793997026319
 30
0.0
 11
11.63953091356274
 21
-62.69793997026319
 31
0.0
  0
SOLID
  5
213
330
20D
100
AcDbEntity
  8
1
 62
     2
100
AcDbTrace
 10
13.17874717200685
 20
-59.19793997026319
 30
0.0
 11
14.10031465511863
 21
-59.19793997026319
 31
0.0
 12
13.63953091356274
 22
-62.69793997026319
 32
0.0
 13
13.63953091356274
 23
-62.69793997026319
 33
0.0
  0
SOLID
  5
214
330
20D
100
AcDbEntity
  8
1
 62
     2
100
AcDbTrace
 10
14.10031465511863
 20
-70.1979399702632
 30
0.0
 11
13.17874717200685
 21
-70.1979399702632
 31
0.0
 12
13.63953091356274
 22
-66.6979399702632
 32
0.0
 13
13.63953091356274
 23
-66.6979399702632
 33
0.0
  0
MTEXT
  5
215
330
20D
100
AcDbEntity
  8
1
 62
     2
100
AcDbMText
 10
11.63953091356274
 20
-73.7386454488453
 30
0.0
 40
3.5
 41
0.0
 71
     7
 72
     1
  1
4
  7
CONVERTER_11
 11
0.0
 21
1.0
 31
0.0
 73
     1
 44
0.60024009603842
  0
ENDBLK
  5
217
330
20D
100
AcDbEntity
  8
0
100
AcDbBlockEnd
  0
BLOCK
  5
221
330
21A
100
AcDbEntity
  8
0
100
AcDbBlockBegin
  2
*D22
 70
     1
 71
     0
 10
0.0
 20
0.0
 30
0.0
  3
*D22
  1

  0
LINE
  5
21B
330
21A
100
AcDbEntity
  8
1
  6
Continuous
 62
     2
100
AcDbLine
 10
58.5158341698211
 20
-42.69793997026321
 30
0.0
 11
58.5158341698211
 21
-66.6979399702632
 31
0.0
  0
LINE
  5
21C
330
21A
100
AcDbEntity
  8
1
  6
Continuous
 62
     2
100
AcDbLine
 10
19.38679367266695
 20
-42.69793997026321
 30
0.0
 11
60.5158341698211
 21
-42.69793997026321
 31
0.0
  0
LINE
  5
21D
330
21A
100
AcDbEntity
  8
1
  6
Continuous
 62
     2
100
AcDbLine
 10
51.38679367266684
 20
-66.6979399702632
 30
0.0
 11
60.5158341698211
 21
-66.6979399702632
 31
0.0
  0
SOLID
  5
21E
330
21A
100
AcDbEntity
  8
1
 62
     2
100
AcDbTrace
 10
58.97661791137698
 20
-46.19793997026321
 30
0.0
 11
58.05505042826521
 21
-46.19793997026321
 31
0.0
 12
58.5158341698211
 22
-42.69793997026321
 32
0.0
 13
58.5158341698211
 23
-42.69793997026321
 33
0.0
  0
SOLID
  5
21F
330
21A
100
AcDbEntity
  8
1
 62
     2
100
AcDbTrace
 10
58.05505042826521
 20
-63.19793997026321
 30
0.0
 11
58.97661791137698
 21
-63.19793997026321
 31
0.0
 12
58.5158341698211
 22
-66.6979399702632
 32
0.0
 13
58.5158341698211
 23
-66.6979399702632
 33
0.0
  0
MTEXT
  5
220
330
21A
100
AcDbEntity
  8
1
 62
     2
100
AcDbMText
 10
56.5158341698211
 20
-57.3476779503028
 30
0.0
 40
3.5
 41
0.0
 71
     7
 72
     1
  1
24
  7
CONVERTER_11
 11
0.0
 21
1.0
 31
0.0
 73
     1
 44
0.60024009603842
  0
ENDBLK
  5
222
330
21A
100
AcDbEntity
  8
0
100
AcDbBlockEnd
  0
BLOCK
  5
22E
330
225
100
AcDbEntity
  8
0
100
AcDbBlockBegin
  2
*D23
 70
     1
 71
     0
 10
0.0
 20
0.0
 30
0.0
  3
*D23
  1

  0
LINE
  5
226
330
225
100
AcDbEntity
  8
1
  6
Continuous
 62
     2
100
AcDbLine
 10
0.23653661737944
 20
-73.7386454488453
 30
0.0
 11
0.23653661737944
 21
-66.6979399702632
 31
0.0
  0
LINE
  5
227
330
225
100
AcDbEntity
  8
1
  6
Continuous
 62
     2
100
AcDbLine
 10
0.23653661737944
 20
-66.6979399702632
 30
0.0
 11
0.23653661737944
 21
-63.69793997026321
 31
0.0
  0
LINE
  5
228
330
225
100
AcDbEntity
  8
1
  6
Continuous
 62
     2
100
AcDbLine
 10
0.23653661737944
 20
-63.69793997026321
 30
0.0
 11
0.23653661737944
 21
-56.69793997026321
 31
0.0
  0
LINE
  5
229
330
225
100
AcDbEntity
  8
1
  6
Continuous
 62
     2
100
AcDbLine
 10
2.88679367266686
 20
-66.6979399702632
 30
0.0
 11
-1.76346338262056
 21
-66.6979399702632
 31
0.0
  0
LINE
  5
22A
330
225
100
AcDbEntity
  8
1
  6
Continuous
 62
     2
100
AcDbLine
 10
-7.11320632733316
 20
-63.69793997026321
 30
0.0
 11
2.23653661737944
 21
-63.69793997026321
 31
0.0
  0
SOLID
  5
22B
330
225
100
AcDbEntity
  8
1
 62
     2
100
AcDbTrace
 10
0.69732035893532
 20
-70.1979399702632
 30
0.0
 11
-0.22424712417645
 21
-70.1979399702632
 31
0.0
 12
0.23653661737944
 22
-66.6979399702632
 32
0.0
 13
0.23653661737944
 23
-66.6979399702632
 33
0.0
  0
SOLID
  5
22C
330
225
100
AcDbEntity
  8
1
 62
     2
100
AcDbTrace
 10
-0.22424712417645
 20
-60.19793997026321
 30
0.0
 11
0.69732035893533
 21
-60.19793997026321
 31
0.0
 12
0.23653661737944
 22
-63.69793997026321
 32
0.0
 13
0.23653661737944
 23
-63.69793997026321
 33
0.0
  0
MTEXT
  5
22D
330
225
100
AcDbEntity
  8
1
 62
     2
100
AcDbMText
 10
-1.76346338262056
 20
-73.7386454488453
 30
0.0
 40
3.5
 41
0.0
 71
     7
 72
     1
  1
3
  7
CONVERTER_11
 11
0.0
 21
1.0
 31
0.0
 73
     1
 44
0.60024009603842
  0
ENDBLK
  5
22F
330
225
100
AcDbEntity
  8
0
100
AcDbBlockEnd
  0
BLOCK
  5
239
330
232
100
AcDbEntity
  8
0
100
AcDbBlockBegin
  2
*D24
 70
     1
 71
     0
 10
0.0
 20
0.0
 30
0.0
  3
*D24
  1

  0
LINE
  5
233
330
232
100
AcDbEntity
  8
1
  6
Continuous
 62
     2
100
AcDbLine
 10
-77.80177865188125
 20
-105.210878074178
 30
0.0
 11
-92.8017786518812
 21
-105.210878074178
 31
0.0
  0
LINE
  5
234
330
232
100
AcDbEntity
  8
1
  6
Continuous
 62
     2
100
AcDbLine
 10
-92.8017786518812
 20
-72.12339990768865
 30
0.0
 11
-92.8017786518812
 21
-107.210878074178
 31
0.0
  0
LINE
  5
235
330
232
100
AcDbEntity
  8
1
  6
Continuous
 62
     2
100
AcDbLine
 10
-77.80177865188125
 20
-72.12339990768866
 30
0.0
 11
-77.80177865188125
 21
-107.210878074178
 31
0.0
  0
SOLID
  5
236
330
232
100
AcDbEntity
  8
1
 62
     2
100
AcDbTrace
 10
-81.30177865188125
 20
-105.6716618157339
 30
0.0
 11
-81.30177865188125
 21
-104.7500943326221
 31
0.0
 12
-77.80177865188125
 22
-105.210878074178
 32
0.0
 13
-77.80177865188125
 23
-105.210878074178
 33
0.0
  0
SOLID
  5
237
330
232
100
AcDbEntity
  8
1
 62
     2
100
AcDbTrace
 10
-89.3017786518812
 20
-104.7500943326221
 30
0.0
 11
-89.3017786518812
 21
-105.6716618157339
 31
0.0
 12
-92.8017786518812
 22
-105.210878074178
 32
0.0
 13
-92.8017786518812
 23
-105.210878074178
 33
0.0
  0
MTEXT
  5
238
330
232
100
AcDbEntity
  8
1
 62
     2
100
AcDbMText
 10
-88.8669343051114
 20
-103.210878074178
 30
0.0
 40
3.5
 41
0.0
 71
     7
 72
     1
  1
15
  7
CONVERTER_11
 11
0.9999999999970621
 21
2.424068405545307E-6
 31
0.0
 73
     1
 44
0.60024009603842
  0
ENDBLK
  5
23A
330
232
100
AcDbEntity
  8
0
100
AcDbBlockEnd
  0
BLOCK
  5
244
330
23D
100
AcDbEntity
  8
0
100
AcDbBlockBegin
  2
*D25
 70
     1
 71
     0
 10
0.0
 20
0.0
 30
0.0
  3
*D25
  1

  0
LINE
  5
23E
330
23D
100
AcDbEntity
  8
1
  6
Continuous
 62
     2
100
AcDbLine
 10
87.6230690042641
 20
-14.62339990768865
 30
0.0
 11
87.6230690042641
 21
25.37660009231135
 31
0.0
  0
LINE
  5
23F
330
23D
100
AcDbEntity
  8
1
  6
Continuous
 62
     2
100
AcDbLine
 10
93.4307676322631
 20
-14.62339990768865
 30
0.0
 11
85.6230690042641
 21
-14.62339990768865
 31
0.0
  0
LINE
  5
240
330
23D
100
AcDbEntity
  8
1
  6
Continuous
 62
     2
100
AcDbLine
 10
93.4307676322631
 20
25.37660009231135
 30
0.0
 11
85.6230690042641
 21
25.37660009231135
 31
0.0
  0
SOLID
  5
241
330
23D
100
AcDbEntity
  8
1
 62
     2
100
AcDbTrace
 10
87.16228526270821
 20
-11.12339990768865
 30
0.0
 11
88.08385274581998
 21
-11.12339990768865
 31
0.0
 12
87.6230690042641
 22
-14.62339990768865
 32
0.0
 13
87.6230690042641
 23
-14.62339990768865
 33
0.0
  0
SOLID
  5
242
330
23D
100
AcDbEntity
  8
1
 62
     2
100
AcDbTrace
 10
88.08385274581998
 20
21.87660009231135
 30
0.0
 11
87.16228526270821
 21
21.87660009231135
 31
0.0
 12
87.6230690042641
 22
25.37660009231135
 32
0.0
 13
87.6230690042641
 23
25.37660009231135
 33
0.0
  0
MTEXT
  5
243
330
23D
100
AcDbEntity
  8
1
 62
     2
100
AcDbMText
 10
85.6230690042641
 20
2.75160009231135
 30
0.0
 40
3.5
 41
0.0
 71
     7
 72
     1
  1
40
  7
CONVERTER_11
 11
0.0
 21
1.0
 31
0.0
 73
     1
 44
0.60024009603842
  0
ENDBLK
  5
245
330
23D
100
AcDbEntity
  8
0
100
AcDbBlockEnd
  0
BLOCK
  5
24C
330
248
100
AcDbEntity
  8
0
100
AcDbBlockBegin
  2
*D26
 70
     1
 71
     0
 10
0.0
 20
0.0
 30
0.0
  3
*D26
  1

  0
LINE
  5
249
330
248
100
AcDbEntity
  8
1
  6
Continuous
 62
     2
100
AcDbLine
 10
-187.7325463354803
 20
70.61505102414574
 30
0.0
 11
-197.7599000003526
 21
93.41499753510519
 31
0.0
  0
SOLID
  5
24A
330
248
100
AcDbEntity
  8
1
 62
     2
100
AcDbTrace
 10
-189.5633810387201
 20
73.63338929973631
 30
0.0
 11
-188.7197934287212
 21
74.00439680664857
 31
0.0
 12
-187.7325463354803
 22
70.61505102414574
 32
0.0
 13
-187.7325463354803
 23
70.61505102414574
 33
0.0
  0
MTEXT
  5
24B
330
248
100
AcDbEntity
  8
1
 62
     2
100
AcDbMText
 10
-195.3936975852803
 20
93.00270379163332
 30
0.0
 40
3.5
 41
0.0
 71
     7
 72
     1
  1
\C2;R\C2;9
  7
CONVERTER_11
 11
0.4025831137829459
 21
-0.9153834368704885
 31
0.0
 73
     1
 44
0.60024009603842
  0
ENDBLK
  5
24D
330
248
100
AcDbEntity
  8
0
100
AcDbBlockEnd
  0
BLOCK
  5
254
330
24F
100
AcDbEntity
  8
0
100
AcDbBlockBegin
  2
*D27
 70
     1
 71
     0
 10
0.0
 20
0.0
 30
0.0
  3
*D27
  1

  0
LINE
  5
250
330
24F
100
AcDbEntity
  8
1
  6
Continuous
 62
     2
100
AcDbLine
 10
178.7506395813185
 20
-56.38999762178856
 30
0.0
 11
139.1585037801926
 21
-118.1024235572999
 31
0.0
  0
SOLID
  5
251
330
24F
100
AcDbEntity
  8
1
 62
     2
100
AcDbTrace
 10
171.6130093735824
 20
-66.66212284854151
 30
0.0
 11
172.3886699482569
 21
-67.15975453847352
 31
0.0
 12
170.1108956832079
 22
-69.8568021935888
 32
0.0
 13
170.1108956832079
 23
-69.8568021935888
 33
0.0
  0
SOLID
  5
252
330
24F
100
AcDbEntity
  8
1
 62
     2
100
AcDbTrace
 10
177.2485258909441
 20
-59.58467696683586
 30
0.0
 11
176.4728653162695
 21
-59.08704527690385
 31
0.0
 12
178.7506395813185
 22
-56.38999762178856
 32
0.0
 13
178.7506395813185
 23
-56.38999762178856
 33
0.0
  0
MTEXT
  5
253
330
24F
100
AcDbEntity
  8
1
 62
     2
100
AcDbMText
 10
138.1555330406937
 20
-115.9619447100068
 30
0.0
 40
3.5
 41
0.0
 71
     7
 72
     1
  1
\C2;Fräserø\C2;16
  7
CONVERTER_11
 11
0.5399839936319147
 21
0.8416752857375155
 31
0.0
 73
     1
 44
0.60024009603842
  0
ENDBLK
  5
255
330
24F
100
AcDbEntity
  8
0
100
AcDbBlockEnd
  0
BLOCK
  5
25D
330
257
100
AcDbEntity
  8
0
100
AcDbBlockBegin
  2
*D28
 70
     1
 71
     0
 10
0.0
 20
0.0
 30
0.0
  3
*D28
  1

  0
LINE
  5
258
330
257
100
AcDbEntity
  8
1
  6
Continuous
 62
     2
100
AcDbLine
 10
176.401528312932
 20
75.23308634037507
 30
0.0
 11
179.799190695273
 21
71.23078820859809
 31
0.0
  0
LINE
  5
259
330
257
100
AcDbEntity
  8
1
  6
Continuous
 62
     2
100
AcDbLine
 10
165.1475917742391
 20
88.48973285653501
 30
0.0
 11
174.4600069515944
 21
77.52011384424763
 31
0.0
  0
SOLID
  5
25A
330
257
100
AcDbEntity
  8
1
 62
     2
100
AcDbTrace
 10
171.8436236666086
 20
79.89010543970299
 30
0.0
 11
172.5461737267923
 21
80.48651975782823
 31
0.0
 12
174.4600069515944
 22
77.52011384424763
 32
0.0
 13
174.4600069515944
 23
77.52011384424763
 33
0.0
  0
SOLID
  5
25B
330
257
100
AcDbEntity
  8
1
 62
     2
100
AcDbTrace
 10
179.0179115979179
 20
72.8630947449197
 30
0.0
 11
178.3153615377341
 21
72.26668042679447
 31
0.0
 12
176.401528312932
 22
75.23308634037507
 32
0.0
 13
176.401528312932
 23
75.23308634037507
 33
0.0
  0
MTEXT
  5
25C
330
257
100
AcDbEntity
  8
1
 62
     2
100
AcDbMText
 10
167.5330179136805
 20
88.77016490404328
 30
0.0
 40
3.5
 41
0.0
 71
     7
 72
     1
  1
\C2;ø\C2;3
  7
CONVERTER_11
 11
0.6471737871125546
 21
-0.7623425012908528
 31
0.0
 73
     1
 44
0.60024009603842
  0
ENDBLK
  5
25E
330
257
100
AcDbEntity
  8
0
100
AcDbBlockEnd
  0
BLOCK
  5
265
330
260
100
AcDbEntity
  8
0
100
AcDbBlockBegin
  2
*D29
 70
     1
 71
     0
 10
0.0
 20
0.0
 30
0.0
  3
*D29
  1

  0
LINE
  5
261
330
260
100
AcDbEntity
  8
1
  6
Continuous
 62
     2
100
AcDbLine
 10
-191.5896878734033
 20
-51.44275685937195
 30
0.0
 11
-149.3144157709749
 21
-102.1938988794717
 31
0.0
  0
SOLID
  5
262
330
260
100
AcDbEntity
  8
1
 62
     2
100
AcDbTrace
 10
-175.3949168202717
 20
-70.16451458115478
 30
0.0
 11
-176.1030035818186
 21
-70.75434486526282
 31
0.0
 12
-177.9890631042069
 22
-67.77020325761572
 32
0.0
 13
-177.9890631042069
 23
-67.77020325761572
 33
0.0
  0
SOLID
  5
263
330
260
100
AcDbEntity
  8
1
 62
     2
100
AcDbTrace
 10
-190.8236798025959
 20
-53.08228523422252
 30
0.0
 11
-190.115593041049
 21
-52.49245495011448
 31
0.0
 12
-188.2295335186607
 22
-55.47659655776158
 32
0.0
 13
-188.2295335186607
 23
-55.47659655776158
 33
0.0
  0
MTEXT
  5
264
330
260
100
AcDbEntity
  8
1
 62
     2
100
AcDbMText
 10
-163.3240290814357
 20
-82.2506084064489
 30
0.0
 40
3.5
 41
0.0
 71
     7
 72
     1
  1
\C2;Fräserø\C2;16
  7
CONVERTER_11
 11
0.640029400903357
 21
-0.7683504187408828
 31
0.0
 73
     1
 44
0.60024009603842
  0
ENDBLK
  5
266
330
260
100
AcDbEntity
  8
0
100
AcDbBlockEnd
  0
ENDSEC
  0
SECTION
  2
ENTITIES
  0
POINT
  5
32
330
1F
100
AcDbEntity
  8
1
 62
     3
 60
     1
100
AcDbPoint
 10
51.38679367266684
 20
-60.69793997026319
 30
0.0
  0
POINT
  5
33
330
1F
100
AcDbEntity
  8
1
 62
     3
 60
     1
100
AcDbPoint
 10
51.38679367266684
 20
-44.69793997026326
 30
0.0
  0
POINT
  5
34
330
1F
100
AcDbEntity
  8
1
 62
     3
 60
     1
100
AcDbPoint
 10
-51.11320632733316
 20
-51.69793997026321
 30
0.0
  0
POINT
  5
35
330
1F
100
AcDbEntity
  8
1
 62
     3
 60
     1
100
AcDbPoint
 10
-185.1092983114338
 20
-16.1916213405501
 30
0.0
  0
POINT
  5
36
330
1F
100
AcDbEntity
  8
1
 62
     3
 60
     1
100
AcDbPoint
 10
-185.1092983114338
 20
26.8083786594499
 30
0.0
  0
POINT
  5
37
330
1F
100
AcDbEntity
  8
1
 62
     3
 60
     1
100
AcDbPoint
 10
19.38679367266695
 20
-42.69793997026321
 30
0.0
  0
POINT
  5
38
330
1F
100
AcDbEntity
  8
1
 62
     3
 60
     1
100
AcDbPoint
 10
19.38679367266695
 20
-26.69793997026321
 30
0.0
  0
POINT
  5
39
330
1F
100
AcDbEntity
  8
1
 62
     3
 60
     1
100
AcDbPoint
 10
16.38679367266665
 20
-60.69793997026319
 30
0.0
  0
POINT
  5
3A
330
1F
100
AcDbEntity
  8
1
 62
     3
 60
     1
100
AcDbPoint
 10
33.3867936726667
 20
-60.69793997026319
 30
0.0
  0
POINT
  5
3B
330
1F
100
AcDbEntity
  8
1
 62
     3
 60
     1
100
AcDbPoint
 10
-131.8030588558071
 20
-14.62339990768865
 30
0.0
  0
POINT
  5
3C
330
1F
100
AcDbEntity
  8
1
 62
     3
 60
     1
100
AcDbPoint
 10
175.4307676322632
 20
5.37660009231135
 30
0.0
  0
POINT
  5
3D
330
1F
100
AcDbEntity
  8
1
 62
     3
 60
     1
100
AcDbPoint
 10
146.4307676322632
 20
5.37660009231135
 30
0.0
  0
POINT
  5
3E
330
1F
100
AcDbEntity
  8
1
 62
     3
 60
     1
100
AcDbPoint
 10
111.4307676322631
 20
100.3766000923114
 30
0.0
  0
POINT
  5
3F
330
1F
100
AcDbEntity
  8
1
 62
     3
 60
     1
100
AcDbPoint
 10
114.4307676322631
 20
100.3766000923114
 30
0.0
  0
POINT
  5
40
330
1F
100
AcDbEntity
  8
1
 62
     3
 60
     1
100
AcDbPoint
 10
111.4307676322631
 20
-89.62339990768865
 30
0.0
  0
POINT
  5
41
330
1F
100
AcDbEntity
  8
1
 62
     3
 60
     1
100
AcDbPoint
 10
117.4307676322631
 20
-89.62339990768865
 30
0.0
  0
LINE
  5
42
330
1F
100
AcDbEntity
  8
1
  6
PHANTOM
 62
     2
100
AcDbLine
 10
51.38679367266684
 20
-60.69793997026319
 30
0.0
 11
51.38679367266684
 21
-44.69793997026326
 31
0.0
  0
LINE
  5
43
330
1F
100
AcDbEntity
  8
1
  6
Continuous
 62
     7
100
AcDbLine
 10
51.38679367266684
 20
-60.69793997026319
 30
0.0
 11
33.3867936726667
 21
-60.69793997026319
 31
0.0
  0
LINE
  5
44
330
1F
100
AcDbEntity
  8
1
  6
PHANTOM
 62
     2
100
AcDbLine
 10
51.38679367266684
 20
-44.69793997026326
 30
0.0
 11
51.38679367266684
 21
-26.69793997026321
 31
0.0
  0
LINE
  5
45
330
1F
100
AcDbEntity
  8
1
  6
Continuous
 62
     7
100
AcDbLine
 10
33.3867936726667
 20
-44.69793997026326
 30
0.0
 11
51.38679367266684
 21
-44.69793997026326
 31
0.0
  0
LINE
  5
46
330
1F
100
AcDbEntity
  8
1
  6
Continuous
 62
     7
100
AcDbLine
 10
-101.8038017743465
 20
-14.62339990768865
 30
0.0
 11
-101.8048839096186
 21
-60.62339990768862
 31
0.0
  0
LINE
  5
47
330
1F
100
AcDbEntity
  8
1
  6
Continuous
 62
     7
100
AcDbLine
 10
-140.8052092854568
 20
-14.62339990768865
 30
0.0
 11
-140.8052092854568
 21
-94.62339990768865
 31
0.0
  0
LINE
  5
48
330
1F
100
AcDbEntity
  8
1
  6
Continuous
 62
     7
100
AcDbLine
 10
-101.8038017743465
 20
-14.62339990768865
 30
0.0
 11
-131.8030588558071
 21
-14.62339990768865
 31
0.0
  0
LINE
  5
49
330
1F
100
AcDbEntity
  8
1
  6
Continuous
 62
     7
100
AcDbLine
 10
-101.8028607871534
 20
25.37660009231135
 30
0.0
 11
-101.8038017743465
 21
-14.62339990768865
 31
0.0
  0
LINE
  5
4A
330
1F
100
AcDbEntity
  8
1
  6
Continuous
 62
     7
100
AcDbLine
 10
-51.11320632733316
 20
-51.69793997026321
 30
0.0
 11
-21.11320632733316
 21
-51.69793997026321
 31
0.0
  0
LINE
  5
4B
330
1F
100
AcDbEntity
  8
1
  6
Continuous
 62
     7
100
AcDbLine
 10
-21.11320632733316
 20
-51.69793997026321
 30
0.0
 11
-21.11320632733316
 21
-61.69793997026325
 31
0.0
  0
LINE
  5
4C
330
1F
100
AcDbEntity
  8
1
  6
Continuous
 62
     7
100
AcDbLine
 10
-51.11320632733316
 20
-51.69793997026321
 30
0.0
 11
-21.11320632733316
 21
-51.69793997026321
 31
0.0
  0
LINE
  5
4D
330
1F
100
AcDbEntity
  8
1
  6
Continuous
 62
     7
100
AcDbLine
 10
-51.11320632733316
 20
-61.69793997026325
 30
0.0
 11
-51.11320632733316
 21
-51.69793997026321
 31
0.0
  0
LINE
  5
4E
330
1F
100
AcDbEntity
  8
1
  6
Continuous
 62
     7
100
AcDbLine
 10
-21.11320632733316
 20
-61.69793997026325
 30
0.0
 11
-51.11320632733316
 21
-61.69793997026325
 31
0.0
  0
LINE
  5
4F
330
1F
100
AcDbEntity
  8
1
  6
DOT_CENTER
 62
     2
100
AcDbLine
 10
-185.1092983114338
 20
26.8083786594499
 30
0.0
 11
-185.1092983114338
 21
-16.1916213405501
 31
0.0
  0
LINE
  5
50
330
1F
100
AcDbEntity
  8
1
  6
Continuous
 62
     7
100
AcDbLine
 10
-177.1092983114338
 20
-6.62339990768865
 30
0.0
 11
-177.1092983114338
 21
17.37660009231135
 31
0.0
  0
LINE
  5
51
330
1F
100
AcDbEntity
  8
1
  6
DOT_CENTER
 62
     2
100
AcDbLine
 10
165.2061953981189
 20
-46.62339990768865
 30
0.0
 11
183.48586020707
 21
-46.62339990768865
 31
0.0
  0
LINE
  5
52
330
1F
100
AcDbEntity
  8
1
  6
DOT_CENTER
 62
     2
100
AcDbLine
 10
165.1624036211165
 20
57.37660009231134
 30
0.0
 11
183.8413900576487
 21
57.37660009231134
 31
0.0
  0
LINE
  5
53
330
1F
100
AcDbEntity
  8
1
  6
DOT_CENTER
 62
     2
100
AcDbLine
 10
174.4307676322632
 20
-58.17778590641504
 30
0.0
 11
174.4307676322632
 21
13.98807882745509
 31
0.0
  0
LINE
  5
54
330
1F
100
AcDbEntity
  8
1
  6
DOT_CENTER
 62
     2
100
AcDbLine
 10
148.4307676322632
 20
100.3766000923114
 30
0.0
 11
164.4307676322632
 21
100.3766000923114
 31
0.0
  0
LINE
  5
55
330
1F
100
AcDbEntity
  8
1
  6
DOT_CENTER
 62
     2
100
AcDbLine
 10
148.4307676322632
 20
-89.62339990768865
 30
0.0
 11
164.4307676322632
 21
-89.62339990768868
 31
0.0
  0
LINE
  5
56
330
1F
100
AcDbEntity
  8
1
  6
Continuous
 62
     7
100
AcDbLine
 10
148.4307676322632
 20
100.3766000923114
 30
0.0
 11
148.4307676322632
 21
-89.62339990768865
 31
0.0
  0
LINE
  5
57
330
1F
100
AcDbEntity
  8
1
  6
DOT_CENTER
 62
     2
100
AcDbLine
 10
188.4307676322631
 20
-63.12339990768868
 30
0.0
 11
159.7671134748115
 21
-63.12339990768865
 31
0.0
  0
LINE
  5
58
330
1F
100
AcDbEntity
  8
1
  6
DOT_CENTER
 62
     2
100
AcDbLine
 10
175.4307676322632
 20
5.37660009231135
 30
0.0
 11
175.4307676322632
 21
-77.12339990768866
 31
0.0
  0
LINE
  5
59
330
1F
100
AcDbEntity
  8
1
  6
Continuous
 62
     7
100
AcDbLine
 10
184.4307676322632
 20
5.37660009231135
 30
0.0
 11
184.4307676322632
 21
-63.12339990768868
 31
0.0
  0
LINE
  5
5A
330
1F
100
AcDbEntity
  8
1
  6
Continuous
 62
     7
100
AcDbLine
 10
166.4307676322632
 20
5.37660009231135
 30
0.0
 11
166.4307676322632
 21
-63.12339990768868
 31
0.0
  0
LINE
  5
5B
330
1F
100
AcDbEntity
  8
1
  6
Continuous
 62
     7
100
AcDbLine
 10
182.4307676322632
 20
5.37660009231135
 30
0.0
 11
182.4307676322632
 21
-46.62339990768865
 31
0.0
  0
LINE
  5
5C
330
1F
100
AcDbEntity
  8
1
  6
Continuous
 62
     7
100
AcDbLine
 10
188.4307676322631
 20
-63.12339990768868
 30
0.0
 11
188.4307676322631
 21
100.3766000923114
 31
0.0
  0
LINE
  5
5D
330
1F
100
AcDbEntity
  8
1
  6
DOT_CENTER
 62
     2
100
AcDbLine
 10
182.4307676322632
 20
5.37660009231135
 30
0.0
 11
191.1134765748165
 21
5.37660009231135
 31
0.0
  0
LINE
  5
5E
330
1F
100
AcDbEntity
  8
1
  6
Continuous
 62
     7
100
AcDbLine
 10
182.4307676322632
 20
57.37660009231134
 30
0.0
 11
182.4307676322632
 21
5.37660009231135
 31
0.0
  0
LINE
  5
5F
330
1F
100
AcDbEntity
  8
1
  6
DOT_CENTER
 62
     2
100
AcDbLine
 10
175.4307676322632
 20
5.37660009231135
 30
0.0
 11
182.4307676322632
 21
5.37660009231135
 31
0.0
  0
LINE
  5
60
330
1F
100
AcDbEntity
  8
1
  6
Continuous
 62
     7
100
AcDbLine
 10
188.4307676322631
 20
73.87660009231135
 30
0.0
 11
188.4307676322631
 21
100.3766000923114
 31
0.0
  0
LINE
  5
61
330
1F
100
AcDbEntity
  8
1
  6
DOT_CENTER
 62
     2
100
AcDbLine
 10
159.7671134748115
 20
73.87660009231135
 30
0.0
 11
188.4307676322631
 21
73.87660009231135
 31
0.0
  0
LINE
  5
62
330
1F
100
AcDbEntity
  8
1
  6
Continuous
 62
     7
100
AcDbLine
 10
166.4307676322632
 20
73.87660009231135
 30
0.0
 11
166.4307676322632
 21
5.37660009231135
 31
0.0
  0
LINE
  5
63
330
1F
100
AcDbEntity
  8
1
  6
DOT_CENTER
 62
     2
100
AcDbLine
 10
145.9222831286855
 20
100.3766000923114
 30
0.0
 11
148.4307676322632
 21
100.3766000923114
 31
0.0
  0
LINE
  5
64
330
1F
100
AcDbEntity
  8
1
  6
DOT_CENTER
 62
     2
100
AcDbLine
 10
145.9222831286855
 20
-89.62339990768868
 30
0.0
 11
148.4307676322632
 21
-89.62339990768865
 31
0.0
  0
LINE
  5
65
330
1F
100
AcDbEntity
  8
1
  6
Continuous
 62
     7
100
AcDbLine
 10
164.4307676322632
 20
-89.62339990768868
 30
0.0
 11
164.4307676322632
 21
100.3766000923114
 31
0.0
  0
LINE
  5
66
330
1F
100
AcDbEntity
  8
1
  6
DOT_CENTER
 62
     2
100
AcDbLine
 10
164.4307676322632
 20
100.3766000923114
 30
0.0
 11
188.4307676322631
 21
100.3766000923114
 31
0.0
  0
LINE
  5
67
330
1F
100
AcDbEntity
  8
1
  6
DOT_CENTER
 62
     2
100
AcDbLine
 10
164.4307676322632
 20
-89.62339990768868
 30
0.0
 11
188.4307676322631
 21
-89.62339990768868
 31
0.0
  0
LINE
  5
68
330
1F
100
AcDbEntity
  8
1
  6
Continuous
 62
     7
100
AcDbLine
 10
188.4307676322631
 20
-89.62339990768868
 30
0.0
 11
188.4307676322631
 21
73.87660009231135
 31
0.0
  0
LINE
  5
69
330
1F
100
AcDbEntity
  8
1
  6
DOT_CENTER
 62
     2
100
AcDbLine
 10
188.4307676322631
 20
100.3766000923114
 30
0.0
 11
195.1134765748165
 21
100.3766000923114
 31
0.0
  0
LINE
  5
6A
330
1F
100
AcDbEntity
  8
1
  6
DOT_CENTER
 62
     2
100
AcDbLine
 10
188.4307676322631
 20
-89.62339990768868
 30
0.0
 11
195.1134765748165
 21
-89.62339990768868
 31
0.0
  0
LINE
  5
6B
330
1F
100
AcDbEntity
  8
1
  6
DOT_CENTER
 62
     2
100
AcDbLine
 10
66.43076763226313
 20
100.3766000923114
 30
0.0
 11
111.4307676322631
 21
100.3766000923114
 31
0.0
  0
LINE
  5
6C
330
1F
100
AcDbEntity
  8
1
  6
DOT_CENTER
 62
     2
100
AcDbLine
 10
64.36584567220024
 20
100.3766000923114
 30
0.0
 11
66.43076763226313
 21
100.3766000923114
 31
0.0
  0
LINE
  5
6D
330
1F
100
AcDbEntity
  8
1
  6
DOT_CENTER
 62
     2
100
AcDbLine
 10
64.36584567220024
 20
-89.62339990768868
 30
0.0
 11
66.43076763226313
 21
-89.62339990768868
 31
0.0
  0
LINE
  5
6E
330
1F
100
AcDbEntity
  8
1
  6
Continuous
 62
     7
100
AcDbLine
 10
66.43076763226313
 20
82.87660009231132
 30
0.0
 11
66.43076763226313
 21
100.3766000923114
 31
0.0
  0
LINE
  5
6F
330
1F
100
AcDbEntity
  8
1
  6
Continuous
 62
     7
100
AcDbLine
 10
76.43076763226313
 20
82.87660009231135
 30
0.0
 11
66.43076763226313
 21
82.87660009231132
 31
0.0
  0
LINE
  5
70
330
1F
100
AcDbEntity
  8
1
  6
Continuous
 62
     7
100
AcDbLine
 10
66.43076763226313
 20
-72.12339990768865
 30
0.0
 11
66.43076763226313
 21
82.87660009231132
 31
0.0
  0
LINE
  5
71
330
1F
100
AcDbEntity
  8
1
  6
Continuous
 62
     7
100
AcDbLine
 10
76.43076763226313
 20
65.37660009231138
 30
0.0
 11
76.43076763226313
 21
82.87660009231135
 31
0.0
  0
LINE
  5
72
330
1F
100
AcDbEntity
  8
1
  6
Continuous
 62
     7
100
AcDbLine
 10
93.4307676322631
 20
65.37660009231135
 30
0.0
 11
76.43076763226313
 21
65.37660009231138
 31
0.0
  0
LINE
  5
73
330
1F
100
AcDbEntity
  8
1
  6
Continuous
 62
     7
100
AcDbLine
 10
93.4307676322631
 20
25.37660009231135
 30
0.0
 11
93.4307676322631
 21
65.37660009231135
 31
0.0
  0
LINE
  5
74
330
1F
100
AcDbEntity
  8
1
  6
Continuous
 62
     7
100
AcDbLine
 10
76.43076763226313
 20
-54.62339990768865
 30
0.0
 11
93.4307676322631
 21
-54.62339990768865
 31
0.0
  0
LINE
  5
75
330
1F
100
AcDbEntity
  8
1
  6
Continuous
 62
     7
100
AcDbLine
 10
76.43076763226313
 20
-72.12339990768865
 30
0.0
 11
76.43076763226313
 21
-54.62339990768865
 31
0.0
  0
LINE
  5
76
330
1F
100
AcDbEntity
  8
1
  6
Continuous
 62
     7
100
AcDbLine
 10
66.43076763226313
 20
-72.12339990768865
 30
0.0
 11
76.43076763226313
 21
-72.12339990768865
 31
0.0
  0
LINE
  5
77
330
1F
100
AcDbEntity
  8
1
  6
Continuous
 62
     7
100
AcDbLine
 10
66.43076763226313
 20
-89.62339990768868
 30
0.0
 11
66.43076763226313
 21
-72.12339990768865
 31
0.0
  0
LINE
  5
78
330
1F
100
AcDbEntity
  8
1
  6
DOT_CENTER
 62
     2
100
AcDbLine
 10
111.4307676322631
 20
25.37660009231135
 30
0.0
 11
111.4307676322631
 21
100.3766000923114
 31
0.0
  0
LINE
  5
79
330
1F
100
AcDbEntity
  8
1
  6
DOT_CENTER
 62
     2
100
AcDbLine
 10
111.4307676322631
 20
104.4193999621323
 30
0.0
 11
111.4307676322631
 21
100.3766000923114
 31
0.0
  0
LINE
  5
7A
330
1F
100
AcDbEntity
  8
1
  6
DOT_CENTER
 62
     2
100
AcDbLine
 10
89.57486875825413
 20
5.37660009231135
 30
0.0
 11
115.5352272950124
 21
5.37660009231135
 31
0.0
  0
LINE
  5
7B
330
1F
100
AcDbEntity
  8
1
  6
Continuous
 62
     7
100
AcDbLine
 10
76.43076763226313
 20
65.37660009231138
 30
0.0
 11
76.43076763226313
 21
-54.62339990768865
 31
0.0
  0
LINE
  5
7C
330
1F
100
AcDbEntity
  8
1
  6
Continuous
 62
     7
100
AcDbLine
 10
184.4307676322632
 20
73.87660009231135
 30
0.0
 11
184.4307676322632
 21
5.37660009231135
 31
0.0
  0
LINE
  5
7D
330
1F
100
AcDbEntity
  8
1
  6
DOT_CENTER
 62
     2
100
AcDbLine
 10
173.1807676322632
 20
76.37660009231135
 30
0.0
 11
177.6807676322632
 21
76.37660009231135
 31
0.0
  0
LINE
  5
7E
330
1F
100
AcDbEntity
  8
1
  6
DOT_CENTER
 62
     2
100
AcDbLine
 10
173.1807676322632
 20
-65.62339990768865
 30
0.0
 11
177.6807676322632
 21
-65.62339990768865
 31
0.0
  0
LINE
  5
7F
330
1F
100
AcDbEntity
  8
1
  6
DOT_CENTER
 62
     2
100
AcDbLine
 10
174.4307676322632
 20
23.9064781914974
 30
0.0
 11
174.4307676322632
 21
69.88724435850082
 31
0.0
  0
LINE
  5
80
330
1F
100
AcDbEntity
  8
1
  6
DOT_CENTER
 62
     2
100
AcDbLine
 10
175.4307676322632
 20
88.4334180606021
 30
0.0
 11
175.4307676322632
 21
23.7953625217101
 31
0.0
  0
LINE
  5
81
330
1F
100
AcDbEntity
  8
1
  6
DOT_CENTER
 62
     2
100
AcDbLine
 10
175.4307676322632
 20
13.7329803655398
 30
0.0
 11
175.4307676322632
 21
5.37660009231135
 31
0.0
  0
LINE
  5
82
330
1F
100
AcDbEntity
  8
1
  6
Continuous
 62
     7
100
AcDbLine
 10
93.4307676322631
 20
25.37660009231135
 30
0.0
 11
111.4307676322631
 21
25.37660009231135
 31
0.0
  0
LINE
  5
83
330
1F
100
AcDbEntity
  8
1
  6
Continuous
 62
     7
100
AcDbLine
 10
93.4307676322631
 20
-14.62339990768865
 30
0.0
 11
93.4307676322631
 21
25.37660009231135
 31
0.0
  0
LINE
  5
84
330
1F
100
AcDbEntity
  8
1
  6
DOT_CENTER
 62
     2
100
AcDbLine
 10
111.4307676322631
 20
-14.62339990768865
 30
0.0
 11
111.4307676322631
 21
25.37660009231135
 31
0.0
  0
LINE
  5
85
330
1F
100
AcDbEntity
  8
1
  6
Continuous
 62
     7
100
AcDbLine
 10
111.4307676322631
 20
-14.62339990768865
 30
0.0
 11
93.4307676322631
 21
-14.62339990768865
 31
0.0
  0
LINE
  5
86
330
1F
100
AcDbEntity
  8
1
  6
Continuous
 62
     7
100
AcDbLine
 10
93.4307676322631
 20
-54.62339990768865
 30
0.0
 11
93.4307676322631
 21
-14.62339990768865
 31
0.0
  0
LINE
  5
87
330
1F
100
AcDbEntity
  8
1
  6
DOT_CENTER
 62
     2
100
AcDbLine
 10
111.4307676322631
 20
-89.62339990768865
 30
0.0
 11
111.4307676322631
 21
-14.62339990768865
 31
0.0
  0
LINE
  5
88
330
1F
100
AcDbEntity
  8
1
  6
DOT_CENTER
 62
     2
100
AcDbLine
 10
-161.4897709387598
 20
-90.5033663449061
 30
0.0
 11
-161.4897709387598
 21
-94.62339990768868
 31
0.0
  0
LINE
  5
89
330
1F
100
AcDbEntity
  8
1
  6
Continuous
 62
     7
100
AcDbLine
 10
-175.1092983114338
 20
-51.62339990768865
 30
0.0
 11
-175.1092983114338
 21
72.37660009231135
 31
0.0
  0
LINE
  5
8A
330
1F
100
AcDbEntity
  8
1
  6
Continuous
 62
     7
100
AcDbLine
 10
-175.1092983114338
 20
71.37660009231135
 30
0.0
 11
-175.1092983114338
 21
72.37660009231135
 31
0.0
  0
LINE
  5
8B
330
1F
100
AcDbEntity
  8
1
  6
DOT_CENTER
 62
     2
100
AcDbLine
 10
-195.554644728426
 20
62.87660009231135
 30
0.0
 11
-173.132898766084
 21
62.87660009231135
 31
0.0
  0
LINE
  5
8C
330
1F
100
AcDbEntity
  8
1
  6
DOT_CENTER
 62
     2
100
AcDbLine
 10
-193.939077315715
 20
-52.12339990768866
 30
0.0
 11
-173.009785283542
 21
-52.12339990768866
 31
0.0
  0
LINE
  5
8D
330
1F
100
AcDbEntity
  8
1
  6
DOT_CENTER
 62
     2
100
AcDbLine
 10
-184.1092983114338
 20
74.1913679844397
 30
0.0
 11
-184.1092983114338
 21
-62.92176113992363
 31
0.0
  0
LINE
  5
8E
330
1F
100
AcDbEntity
  8
1
  6
DOT_CENTER
 62
     2
100
AcDbLine
 10
-201.6000806359427
 20
5.37660009231135
 30
0.0
 11
-168.866450626103
 21
5.37660009231135
 31
0.0
  0
LINE
  5
8F
330
1F
100
AcDbEntity
  8
1
  6
DOT_CENTER
 62
     2
100
AcDbLine
 10
-197.620962865328
 20
-61.63531142598714
 30
0.0
 11
-173.18830624847
 21
-61.63531142598714
 31
0.0
  0
LINE
  5
90
330
1F
100
AcDbEntity
  8
1
  6
DOT_CENTER
 62
     2
100
AcDbLine
 10
-186.1092983114338
 20
-75.5804222971521
 30
0.0
 11
-186.1092983114338
 21
86.3336224817748
 31
0.0
  0
LINE
  5
91
330
1F
100
AcDbEntity
  8
1
  6
DOT_CENTER
 62
     2
100
AcDbLine
 10
-197.620962865328
 20
72.37660009231135
 30
0.0
 11
-173.856329904655
 21
72.37660009231135
 31
0.0
  0
LINE
  5
92
330
1F
100
AcDbEntity
  8
1
  6
Continuous
 62
     7
100
AcDbLine
 10
-196.1092983114338
 20
-61.62339990768865
 30
0.0
 11
-196.1092983114338
 21
72.37660009231135
 31
0.0
  0
LINE
  5
93
330
1F
100
AcDbEntity
  8
1
  6
Continuous
 62
     7
100
AcDbLine
 10
-175.1092983114338
 20
-61.62339990768865
 30
0.0
 11
-175.1092983114338
 21
-51.62339990768865
 31
0.0
  0
LINE
  5
94
330
1F
100
AcDbEntity
  8
1
  6
Continuous
 62
     7
100
AcDbLine
 10
-193.1092983114338
 20
-51.62339990768865
 30
0.0
 11
-193.1092983114338
 21
62.37660009231134
 31
0.0
  0
LINE
  5
95
330
1F
100
AcDbEntity
  8
1
  6
Continuous
 62
     7
100
AcDbLine
 10
-87.80177865188125
 20
71.37660009231135
 30
0.0
 11
-87.80177865188125
 21
-50.62339990768866
 31
0.0
  0
LINE
  5
96
330
1F
100
AcDbEntity
  8
1
  6
Continuous
 62
     7
100
AcDbLine
 10
-87.80177865188125
 20
-60.62339990768867
 30
0.0
 11
-87.80177865188125
 21
-50.62339990768866
 31
0.0
  0
LINE
  5
97
330
1F
100
AcDbEntity
  8
1
  6
Continuous
 62
     7
100
AcDbLine
 10
-77.80177865188125
 20
-72.12339990768866
 30
0.0
 11
-77.80177865188125
 21
-94.62339990768865
 31
0.0
  0
LINE
  5
98
330
1F
100
AcDbEntity
  8
1
  6
Continuous
 62
     7
100
AcDbLine
 10
-87.80177865188125
 20
-72.12339990768865
 30
0.0
 11
-77.80177865188125
 21
-72.12339990768866
 31
0.0
  0
LINE
  5
99
330
1F
100
AcDbEntity
  8
1
  6
Continuous
 62
     7
100
AcDbLine
 10
-87.80177865188125
 20
-60.62339990768867
 30
0.0
 11
-87.80177865188125
 21
-72.12339990768865
 31
0.0
  0
LINE
  5
9A
330
1F
100
AcDbEntity
  8
1
  6
Continuous
 62
     7
100
AcDbLine
 10
-101.8048839096186
 20
-60.62339990768862
 30
0.0
 11
-92.8017786518812
 21
-60.62339990768866
 31
0.0
  0
LINE
  5
9B
330
1F
100
AcDbEntity
  8
1
  6
Continuous
 62
     7
100
AcDbLine
 10
-101.8017786518813
 20
71.37660009231135
 30
0.0
 11
-101.8028607871534
 21
25.37660009231135
 31
0.0
  0
LINE
  5
9C
330
1F
100
AcDbEntity
  8
1
  6
Continuous
 62
     7
100
AcDbLine
 10
-92.8017786518812
 20
71.37660009231135
 30
0.0
 11
-101.8017786518813
 21
71.37660009231135
 31
0.0
  0
LINE
  5
9D
330
1F
100
AcDbEntity
  8
1
  6
Continuous
 62
     7
100
AcDbLine
 10
-87.80177865188125
 20
82.87660009231135
 30
0.0
 11
-87.80177865188125
 21
71.37660009231135
 31
0.0
  0
LINE
  5
9E
330
1F
100
AcDbEntity
  8
1
  6
Continuous
 62
     7
100
AcDbLine
 10
-77.80177865188125
 20
82.87660009231135
 30
0.0
 11
-77.80177865188125
 21
-72.12339990768866
 31
0.0
  0
LINE
  5
9F
330
1F
100
AcDbEntity
  8
1
  6
Continuous
 62
     7
100
AcDbLine
 10
-77.80177865188125
 20
82.87660009231135
 30
0.0
 11
-87.80177865188125
 21
82.87660009231135
 31
0.0
  0
LINE
  5
A0
330
1F
100
AcDbEntity
  8
1
  6
DOT_CENTER
 62
     2
100
AcDbLine
 10
-77.80177865188125
 20
-94.62339990768865
 30
0.0
 11
-64.8017786518812
 21
-94.62339990768865
 31
0.0
  0
LINE
  5
A1
330
1F
100
AcDbEntity
  8
1
  6
DOT_CENTER
 62
     2
100
AcDbLine
 10
-77.80177865188125
 20
105.3766000923113
 30
0.0
 11
-64.8017786518812
 21
105.3766000923113
 31
0.0
  0
LINE
  5
A2
330
1F
100
AcDbEntity
  8
1
  6
Continuous
 62
     7
100
AcDbLine
 10
-77.80177865188125
 20
105.3766000923113
 30
0.0
 11
-77.80177865188125
 21
82.87660009231135
 31
0.0
  0
LINE
  5
A3
330
1F
100
AcDbEntity
  8
1
  6
DOT_CENTER
 62
     2
100
AcDbLine
 10
-64.8017786518812
 20
-94.62339990768865
 30
0.0
 11
-60.29189472598307
 21
-94.62339990768865
 31
0.0
  0
LINE
  5
A4
330
1F
100
AcDbEntity
  8
1
  6
DOT_CENTER
 62
     2
100
AcDbLine
 10
-64.8017786518812
 20
105.3766000923113
 30
0.0
 11
-60.29189472598307
 21
105.3766000923113
 31
0.0
  0
LINE
  5
A5
330
1F
100
AcDbEntity
  8
1
  6
Continuous
 62
     7
100
AcDbLine
 10
-64.8017786518812
 20
-94.62339990768865
 30
0.0
 11
-64.8017786518812
 21
105.3766000923113
 31
0.0
  0
LINE
  5
A6
330
1F
100
AcDbEntity
  8
1
  6
DOT_CENTER
 62
     2
100
AcDbLine
 10
-140.8052092854568
 20
-94.62339990768865
 30
0.0
 11
-77.80177865188125
 21
-94.62339990768865
 31
0.0
  0
LINE
  5
A7
330
1F
100
AcDbEntity
  8
1
  6
DOT_CENTER
 62
     2
100
AcDbLine
 10
-140.8052092854568
 20
105.3766000923113
 30
0.0
 11
-77.80177865188125
 21
105.3766000923113
 31
0.0
  0
LINE
  5
A8
330
1F
100
AcDbEntity
  8
1
  6
Continuous
 62
     7
100
AcDbLine
 10
-140.8052092854568
 20
105.3766000923113
 30
0.0
 11
-140.8052092854568
 21
-14.62339990768865
 31
0.0
  0
LINE
  5
A9
330
1F
100
AcDbEntity
  8
1
  6
DOT_CENTER
 62
     2
100
AcDbLine
 10
-144.5669616307272
 20
-94.62339990768865
 30
0.0
 11
-140.8052092854568
 21
-94.62339990768865
 31
0.0
  0
LINE
  5
AA
330
1F
100
AcDbEntity
  8
1
  6
DOT_CENTER
 62
     2
100
AcDbLine
 10
-146.5652182571847
 20
5.37660009231135
 30
0.0
 11
-63.29189472598307
 21
5.37660009231135
 31
0.0
  0
LINE
  5
AB
330
1F
100
AcDbEntity
  8
1
  6
DOT_CENTER
 62
     2
100
AcDbLine
 10
-146.5669616307272
 20
105.3766000923113
 30
0.0
 11
-140.8052092854568
 21
105.3766000923113
 31
0.0
  0
LINE
  5
AC
330
1F
100
AcDbEntity
  8
1
  6
DOT_CENTER
 62
     2
100
AcDbLine
 10
-170.1092983114338
 20
-94.62339990768865
 30
0.0
 11
-161.4897709387598
 21
-94.62339990768868
 31
0.0
  0
LINE
  5
AD
330
1F
100
AcDbEntity
  8
1
  6
DOT_CENTER
 62
     2
100
AcDbLine
 10
-170.1092983114338
 20
105.3766000923113
 30
0.0
 11
-161.4897709387598
 21
105.3766000923113
 31
0.0
  0
LINE
  5
AE
330
1F
100
AcDbEntity
  8
1
  6
Continuous
 62
     7
100
AcDbLine
 10
-170.1092983114338
 20
105.3766000923113
 30
0.0
 11
-170.1092983114338
 21
-94.62339990768865
 31
0.0
  0
LINE
  5
AF
330
1F
100
AcDbEntity
  8
1
  6
DOT_CENTER
 62
     2
100
AcDbLine
 10
-199.1092983114338
 20
-94.62339990768865
 30
0.0
 11
-170.1092983114338
 21
-94.62339990768865
 31
0.0
  0
LINE
  5
B0
330
1F
100
AcDbEntity
  8
1
  6
DOT_CENTER
 62
     2
100
AcDbLine
 10
-199.1092983114338
 20
105.3766000923113
 30
0.0
 11
-170.1092983114338
 21
105.3766000923113
 31
0.0
  0
LINE
  5
B1
330
1F
100
AcDbEntity
  8
1
  6
Continuous
 62
     7
100
AcDbLine
 10
-199.1092983114338
 20
105.3766000923113
 30
0.0
 11
-199.1092983114338
 21
-94.62339990768865
 31
0.0
  0
LINE
  5
B2
330
1F
100
AcDbEntity
  8
1
  6
DOT_CENTER
 62
     2
100
AcDbLine
 10
-161.4897709387598
 20
105.3766000923113
 30
0.0
 11
-161.4897709387598
 21
109.761881720986
 31
0.0
  0
LINE
  5
B3
330
1F
100
AcDbEntity
  8
1
  6
DOT_CENTER
 62
     2
100
AcDbLine
 10
-161.4897709387598
 20
-94.62339990768868
 30
0.0
 11
-161.4897709387598
 21
-99.90359801694666
 31
0.0
  0
LINE
  5
B4
330
1F
100
AcDbEntity
  8
1
  6
DOT_CENTER
 62
     2
100
AcDbLine
 10
-161.4897709387598
 20
-94.62339990768868
 30
0.0
 11
-156.5343223151126
 21
-94.62339990768865
 31
0.0
  0
LINE
  5
B5
330
1F
100
AcDbEntity
  8
1
  6
DOT_CENTER
 62
     2
100
AcDbLine
 10
-161.4897709387598
 20
105.3766000923113
 30
0.0
 11
-156.5343223151126
 21
105.3766000923113
 31
0.0
  0
LINE
  5
B6
330
1F
100
AcDbEntity
  8
1
  6
DOT_CENTER
 62
     2
100
AcDbLine
 10
-161.4897709387598
 20
105.3766000923113
 30
0.0
 11
-161.4897709387598
 21
-76.801730201106
 31
0.0
  0
LINE
  5
B7
330
1F
100
AcDbEntity
  8
1
  6
DOT_CENTER
 62
     2
100
AcDbLine
 10
-203.6000806359427
 20
-94.62339990768865
 30
0.0
 11
-199.1092983114338
 21
-94.62339990768865
 31
0.0
  0
LINE
  5
B8
330
1F
100
AcDbEntity
  8
1
  6
DOT_CENTER
 62
     2
100
AcDbLine
 10
-201.6000806359427
 20
105.3766000923113
 30
0.0
 11
-199.1092983114338
 21
105.3766000923113
 31
0.0
  0
LINE
  5
B9
330
1F
100
AcDbEntity
  8
1
  6
DOT_CENTER
 62
     2
100
AcDbLine
 10
18.580883670625
 20
-53.6979399702632
 30
0.0
 11
4.86388297763482
 21
-53.6979399702632
 31
0.0
  0
LINE
  5
BA
330
1F
100
AcDbEntity
  8
1
  6
Continuous
 62
     7
100
AcDbLine
 10
33.3867936726667
 20
-60.69793997026319
 30
0.0
 11
33.3867936726667
 21
-44.69793997026326
 31
0.0
  0
LINE
  5
BB
330
1F
100
AcDbEntity
  8
1
  6
Continuous
 62
     7
100
AcDbLine
 10
16.38679367266665
 20
-60.69793997026319
 30
0.0
 11
16.38679367266663
 21
-62.69793997026319
 31
0.0
  0
LINE
  5
BC
330
1F
100
AcDbEntity
  8
1
  6
Continuous
 62
     7
100
AcDbLine
 10
16.38679367266665
 20
-60.69793997026319
 30
0.0
 11
33.3867936726667
 21
-60.69793997026319
 31
0.0
  0
LINE
  5
BD
330
1F
100
AcDbEntity
  8
1
  6
PHANTOM
 62
     2
100
AcDbLine
 10
51.38679367266684
 20
-26.69793997026321
 30
0.0
 11
51.38679367266686
 21
-23.65515166616186
 31
0.0
  0
LINE
  5
BE
330
1F
100
AcDbEntity
  8
1
  6
Continuous
 62
     7
100
AcDbLine
 10
19.38679367266695
 20
-26.69793997026321
 30
0.0
 11
51.38679367266684
 21
-26.69793997026321
 31
0.0
  0
LINE
  5
BF
330
1F
100
AcDbEntity
  8
1
  6
Continuous
 62
     7
100
AcDbLine
 10
19.38679367266695
 20
-42.69793997026321
 30
0.0
 11
19.38679367266695
 21
-26.69793997026321
 31
0.0
  0
LINE
  5
C0
330
1F
100
AcDbEntity
  8
1
  6
Continuous
 62
     7
100
AcDbLine
 10
14.15474286509789
 20
-42.69793997026326
 30
0.0
 11
19.38679367266695
 21
-42.69793997026321
 31
0.0
  0
LINE
  5
C1
330
1F
100
AcDbEntity
  8
1
  6
PHANTOM
 62
     2
100
AcDbLine
 10
51.38679367266684
 20
-68.47367057736668
 30
0.0
 11
51.38679367266684
 21
-66.6979399702632
 31
0.0
  0
LINE
  5
C2
330
1F
100
AcDbEntity
  8
1
  6
PHANTOM
 62
     2
100
AcDbLine
 10
51.38679367266684
 20
-66.6979399702632
 30
0.0
 11
51.38679367266684
 21
-60.69793997026319
 31
0.0
  0
LINE
  5
C3
330
1F
100
AcDbEntity
  8
1
  6
Continuous
 62
     7
100
AcDbLine
 10
6.38679367266681
 20
-44.69793997026316
 30
0.0
 11
6.38679367266684
 21
-42.69793997026321
 31
0.0
  0
LINE
  5
C4
330
1F
100
AcDbEntity
  8
1
  6
Continuous
 62
     7
100
AcDbLine
 10
33.3867936726667
 20
-44.69793997026326
 30
0.0
 11
16.38679367266682
 21
-44.69793997026319
 31
0.0
  0
LINE
  5
C5
330
1F
100
AcDbEntity
  8
1
  6
Continuous
 62
     7
100
AcDbLine
 10
6.38679367266664
 20
-62.69793997026319
 30
0.0
 11
16.38679367266663
 21
-62.69793997026319
 31
0.0
  0
LINE
  5
C6
330
1F
100
AcDbEntity
  8
1
  6
Continuous
 62
     7
100
AcDbLine
 10
6.38679367266664
 20
-66.6979399702632
 30
0.0
 11
6.38679367266664
 21
-62.69793997026319
 31
0.0
  0
LINE
  5
C7
330
1F
100
AcDbEntity
  8
1
  6
Continuous
 62
     7
100
AcDbLine
 10
51.38679367266684
 20
-66.6979399702632
 30
0.0
 11
6.38679367266664
 21
-66.6979399702632
 31
0.0
  0
LINE
  5
C8
330
1F
100
AcDbEntity
  8
1
  6
Continuous
 62
     7
100
AcDbLine
 10
16.38679367266682
 20
-44.69793997026319
 30
0.0
 11
16.38679367266665
 21
-60.69793997026319
 31
0.0
  0
LINE
  5
C9
330
1F
100
AcDbEntity
  8
1
  6
Continuous
 62
     7
100
AcDbLine
 10
16.38679367266682
 20
-44.69793997026319
 30
0.0
 11
6.38679367266681
 21
-44.69793997026316
 31
0.0
  0
LINE
  5
CA
330
1F
100
AcDbEntity
  8
1
  6
DOT_CENTER
 62
     2
100
AcDbLine
 10
34.99343703560656
 20
-52.69793997026323
 30
0.0
 11
14.2442424891523
 21
-52.69793997026323
 31
0.0
  0
LINE
  5
CB
330
1F
100
AcDbEntity
  8
1
  6
Continuous
 62
     7
100
AcDbLine
 10
6.38679367266664
 20
-62.69793997026319
 30
0.0
 11
6.38679367266681
 21
-44.69793997026316
 31
0.0
  0
LINE
  5
CC
330
1F
100
AcDbEntity
  8
1
  6
DOT_CENTER
 62
     2
100
AcDbLine
 10
-13.11417331874418
 20
-53.69793997026323
 30
0.0
 11
4.10542870525273
 21
-53.69793997026323
 31
0.0
  0
LINE
  5
CD
330
1F
100
AcDbEntity
  8
1
  6
Continuous
 62
     7
100
AcDbLine
 10
-7.11320632733327
 20
-42.6979399702632
 30
0.0
 11
-7.11320632733327
 21
24.08734679886903
 31
0.0
  0
LINE
  5
CE
330
1F
100
AcDbEntity
  8
1
  6
Continuous
 62
     7
100
AcDbLine
 10
2.88679367266673
 20
-37.69793997026321
 30
0.0
 11
2.88679367266684
 21
-42.69793997026321
 31
0.0
  0
LINE
  5
CF
330
1F
100
AcDbEntity
  8
1
  6
Continuous
 62
     7
100
AcDbLine
 10
2.88679367266684
 20
-42.69793997026321
 30
0.0
 11
2.88679367266684
 21
-63.69793997026321
 31
0.0
  0
LINE
  5
D0
330
1F
100
AcDbEntity
  8
1
  6
Continuous
 62
     7
100
AcDbLine
 10
-7.11320632733327
 20
-42.6979399702632
 30
0.0
 11
2.88679367266684
 21
-42.69793997026321
 31
0.0
  0
LINE
  5
D1
330
1F
100
AcDbEntity
  8
1
  6
Continuous
 62
     7
100
AcDbLine
 10
-11.11320632733316
 20
-63.69793997026321
 30
0.0
 11
-12.11320632733316
 21
-63.69793997026321
 31
0.0
  0
LINE
  5
D2
330
1F
100
AcDbEntity
  8
1
  6
Continuous
 62
     7
100
AcDbLine
 10
-12.11320632733316
 20
-61.69793997026324
 30
0.0
 11
-21.11320632733316
 21
-61.69793997026325
 31
0.0
  0
LINE
  5
D3
330
1F
100
AcDbEntity
  8
1
  6
Continuous
 62
     7
100
AcDbLine
 10
-12.11320632733316
 20
-63.69793997026321
 30
0.0
 11
-12.11320632733316
 21
-61.69793997026324
 31
0.0
  0
LINE
  5
D4
330
1F
100
AcDbEntity
  8
1
  6
PHANTOM
 62
     2
100
AcDbLine
 10
-8.86320632733339
 20
-23.44793997026322
 30
0.0
 11
-8.86320632733339
 21
-17.94793997026322
 31
0.0
  0
LINE
  5
D5
330
1F
100
AcDbEntity
  8
1
  6
PHANTOM
 62
     2
100
AcDbLine
 10
-8.86320632733339
 20
-17.94793997026322
 30
0.0
 11
-11.11320632733339
 21
-15.6979399702632
 31
0.0
  0
LINE
  5
D6
330
1F
100
AcDbEntity
  8
1
  6
PHANTOM
 62
     2
100
AcDbLine
 10
-7.11320632733339
 20
-17.94793997026322
 30
0.0
 11
-8.86320632733339
 21
-17.94793997026322
 31
0.0
  0
LINE
  5
D7
330
1F
100
AcDbEntity
  8
1
  6
PHANTOM
 62
     2
100
AcDbLine
 10
-8.86320632733339
 20
-23.44793997026322
 30
0.0
 11
-11.11320632733339
 21
-25.69793997026322
 31
0.0
  0
LINE
  5
D8
330
1F
100
AcDbEntity
  8
1
  6
PHANTOM
 62
     2
100
AcDbLine
 10
-7.11320632733339
 20
-23.44793997026322
 30
0.0
 11
-8.86320632733339
 21
-23.44793997026322
 31
0.0
  0
LINE
  5
D9
330
1F
100
AcDbEntity
  8
1
  6
PHANTOM
 62
     2
100
AcDbLine
 10
9.38679367266673
 20
-20.69793997026322
 30
0.0
 11
-12.61320632733327
 21
-20.69793997026322
 31
0.0
  0
LINE
  5
DA
330
1F
100
AcDbEntity
  8
1
  6
PHANTOM
 62
     2
100
AcDbLine
 10
-8.86320632733339
 20
-6.44793997026321
 30
0.0
 11
-8.86320632733339
 21
-0.94793997026321
 31
0.0
  0
LINE
  5
DB
330
1F
100
AcDbEntity
  8
1
  6
PHANTOM
 62
     2
100
AcDbLine
 10
-8.86320632733339
 20
-0.94793997026321
 30
0.0
 11
-11.11320632733339
 21
1.30206002973679
 31
0.0
  0
LINE
  5
DC
330
1F
100
AcDbEntity
  8
1
  6
PHANTOM
 62
     2
100
AcDbLine
 10
-7.11320632733339
 20
-0.94793997026321
 30
0.0
 11
-8.86320632733339
 21
-0.94793997026321
 31
0.0
  0
LINE
  5
DD
330
1F
100
AcDbEntity
  8
1
  6
PHANTOM
 62
     2
100
AcDbLine
 10
-8.86320632733339
 20
-6.44793997026321
 30
0.0
 11
-11.11320632733339
 21
-8.69793997026322
 31
0.0
  0
LINE
  5
DE
330
1F
100
AcDbEntity
  8
1
  6
PHANTOM
 62
     2
100
AcDbLine
 10
-7.11320632733339
 20
-6.44793997026321
 30
0.0
 11
-8.86320632733339
 21
-6.44793997026321
 31
0.0
  0
LINE
  5
DF
330
1F
100
AcDbEntity
  8
1
  6
PHANTOM
 62
     2
100
AcDbLine
 10
9.38679367266673
 20
-3.69793997026321
 30
0.0
 11
-12.61320632733327
 21
-3.69793997026321
 31
0.0
  0
LINE
  5
E0
330
1F
100
AcDbEntity
  8
1
  6
PHANTOM
 62
     2
100
AcDbLine
 10
-7.11320632733327
 20
6.30206002973679
 30
0.0
 11
-11.11320632733327
 21
6.30206002973679
 31
0.0
  0
LINE
  5
E1
330
1F
100
AcDbEntity
  8
1
  6
PHANTOM
 62
     2
100
AcDbLine
 10
-11.11320632733327
 20
6.30206002973679
 30
0.0
 11
-11.11320632733316
 21
-63.69793997026321
 31
0.0
  0
LINE
  5
E2
330
1F
100
AcDbEntity
  8
1
  6
DOT_CENTER
 62
     2
100
AcDbLine
 10
15.88679367266684
 20
24.08734679886903
 30
0.0
 11
22.90126688979774
 21
24.08734679886903
 31
0.0
  0
LINE
  5
E3
330
1F
100
AcDbEntity
  8
1
  6
Continuous
 62
     7
100
AcDbLine
 10
2.88679367266684
 20
-39.69793997026326
 30
0.0
 11
4.61884448023557
 21
-42.69793997026326
 31
0.0
  0
LINE
  5
E4
330
1F
100
AcDbEntity
  8
1
  6
Continuous
 62
     7
100
AcDbLine
 10
4.61884448023557
 20
-42.69793997026326
 30
0.0
 11
6.38679367266684
 21
-42.69793997026321
 31
0.0
  0
LINE
  5
E5
330
1F
100
AcDbEntity
  8
1
  6
Continuous
 62
     7
100
AcDbLine
 10
14.15474286509789
 20
-42.69793997026326
 30
0.0
 11
15.88679367266684
 21
-39.69793997026326
 31
0.0
  0
LINE
  5
E6
330
1F
100
AcDbEntity
  8
1
  6
Continuous
 62
     7
100
AcDbLine
 10
15.88679367266684
 20
-39.69793997026326
 30
0.0
 11
15.88679367266684
 21
-37.69793997026326
 31
0.0
  0
LINE
  5
E7
330
1F
100
AcDbEntity
  8
1
  6
Continuous
 62
     7
100
AcDbLine
 10
3.88679367266684
 20
-38.69793997026326
 30
0.0
 11
14.88679367266684
 21
-38.69793997026326
 31
0.0
  0
LINE
  5
E8
330
1F
100
AcDbEntity
  8
1
  6
Continuous
 62
     7
100
AcDbLine
 10
14.88679367266684
 20
-38.69793997026326
 30
0.0
 11
14.88679367266684
 21
-39.42999077783222
 31
0.0
  0
LINE
  5
E9
330
1F
100
AcDbEntity
  8
1
  6
Continuous
 62
     7
100
AcDbLine
 10
14.88679367266684
 20
-39.42999077783222
 30
0.0
 11
13.57739259590824
 21
-41.69793997026326
 31
0.0
  0
LINE
  5
EA
330
1F
100
AcDbEntity
  8
1
  6
Continuous
 62
     7
100
AcDbLine
 10
13.57739259590824
 20
-41.69793997026326
 30
0.0
 11
5.19619474942522
 21
-41.69793997026326
 31
0.0
  0
LINE
  5
EB
330
1F
100
AcDbEntity
  8
1
  6
Continuous
 62
     7
100
AcDbLine
 10
5.19619474942522
 20
-41.69793997026326
 30
0.0
 11
3.88679367266684
 21
-39.42999077783222
 31
0.0
  0
LINE
  5
EC
330
1F
100
AcDbEntity
  8
1
  6
Continuous
 62
     7
100
AcDbLine
 10
3.88679367266684
 20
-39.42999077783222
 30
0.0
 11
3.88679367266684
 21
-38.69793997026326
 31
0.0
  0
LINE
  5
ED
330
1F
100
AcDbEntity
  8
1
  6
Continuous
 62
     7
100
AcDbLine
 10
2.88679367266684
 20
-63.69793997026321
 30
0.0
 11
-7.11320632733316
 21
-63.69793997026321
 31
0.0
  0
LINE
  5
EE
330
1F
100
AcDbEntity
  8
1
  6
Continuous
 62
     7
100
AcDbLine
 10
-21.11320632733316
 20
-61.69793997026325
 30
0.0
 11
-21.11320632733316
 21
-51.69793997026321
 31
0.0
  0
LINE
  5
EF
330
1F
100
AcDbEntity
  8
1
  6
Continuous
 62
     7
100
AcDbLine
 10
2.88679367266673
 20
-37.69793997026321
 30
0.0
 11
15.88679367266684
 21
-37.69793997026326
 31
0.0
  0
LINE
  5
F0
330
1F
100
AcDbEntity
  8
1
  6
Continuous
 62
     7
100
AcDbLine
 10
15.88679367266684
 20
-37.69793997026326
 30
0.0
 11
15.88679367266684
 21
24.08734679886903
 31
0.0
  0
LINE
  5
F1
330
1F
100
AcDbEntity
  8
1
  6
DOT_CENTER
 62
     2
100
AcDbLine
 10
15.88679367266684
 20
24.08734679886903
 30
0.0
 11
-7.11320632733327
 21
24.08734679886903
 31
0.0
  0
LINE
  5
F2
330
1F
100
AcDbEntity
  8
1
  6
Continuous
 62
     7
100
AcDbLine
 10
2.88679367266684
 20
-66.6979399702632
 30
0.0
 11
-60.11320632733327
 21
-66.69793997026326
 31
0.0
  0
LINE
  5
F3
330
1F
100
AcDbEntity
  8
1
  6
Continuous
 62
     7
100
AcDbLine
 10
-7.11320632733316
 20
-63.69793997026321
 30
0.0
 11
-11.11320632733316
 21
-63.69793997026321
 31
0.0
  0
LINE
  5
F4
330
1F
100
AcDbEntity
  8
1
  6
DOT_CENTER
 62
     2
100
AcDbLine
 10
-7.11320632733327
 20
24.08734679886903
 30
0.0
 11
-11.34507646136615
 21
24.08734679886903
 31
0.0
  0
LINE
  5
F5
330
1F
100
AcDbEntity
  8
1
  6
Continuous
 62
     7
100
AcDbLine
 10
-7.11320632733327
 20
-42.6979399702632
 30
0.0
 11
-7.11320632733327
 21
-51.69793997026321
 31
0.0
  0
LINE
  5
F6
330
1F
100
AcDbEntity
  8
1
  6
Continuous
 62
     7
100
AcDbLine
 10
2.88679367266684
 20
-63.69793997026321
 30
0.0
 11
2.88679367266684
 21
-66.6979399702632
 31
0.0
  0
LINE
  5
F7
330
1F
100
AcDbEntity
  8
1
  6
Continuous
 62
     7
100
AcDbLine
 10
-12.11320632733316
 20
-61.69793997026324
 30
0.0
 11
-12.11320632733316
 21
-51.69793997026321
 31
0.0
  0
LINE
  5
F8
330
1F
100
AcDbEntity
  8
1
  6
Continuous
 62
     7
100
AcDbLine
 10
-60.11320632733327
 20
-51.69793997026321
 30
0.0
 11
-51.11320632733316
 21
-51.69793997026321
 31
0.0
  0
LINE
  5
F9
330
1F
100
AcDbEntity
  8
1
  6
Continuous
 62
     7
100
AcDbLine
 10
-60.11320632733327
 20
-51.69793997026321
 30
0.0
 11
-60.11320632733327
 21
-66.69793997026326
 31
0.0
  0
LINE
  5
FA
330
1F
100
AcDbEntity
  8
1
  6
PHANTOM
 62
     2
100
AcDbLine
 10
-7.11320632733327
 20
-51.69793997026321
 30
0.0
 11
-7.11320632733316
 21
-63.69793997026321
 31
0.0
  0
LINE
  5
FB
330
1F
100
AcDbEntity
  8
1
  6
Continuous
 62
     7
100
AcDbLine
 10
-21.11320632733316
 20
-51.69793997026321
 30
0.0
 11
-7.11320632733327
 21
-51.69793997026321
 31
0.0
  0
LINE
  5
FC
330
1F
100
AcDbEntity
  8
1
  6
Continuous
 62
     7
100
AcDbLine
 10
-92.8017786518812
 20
82.87660009231135
 30
0.0
 11
-92.8017786518812
 21
71.37660009231135
 31
0.0
  0
LINE
  5
FD
330
1F
100
AcDbEntity
  8
1
  6
Continuous
 62
     7
100
AcDbLine
 10
-92.8017786518812
 20
82.87660009231135
 30
0.0
 11
-87.80177865188125
 21
82.87660009231135
 31
0.0
  0
LINE
  5
FE
330
1F
100
AcDbEntity
  8
1
  6
Continuous
 62
     7
100
AcDbLine
 10
-92.8017786518812
 20
-72.12339990768865
 30
0.0
 11
-87.80177865188125
 21
-72.12339990768865
 31
0.0
  0
LINE
  5
FF
330
1F
100
AcDbEntity
  8
1
  6
Continuous
 62
     7
100
AcDbLine
 10
-92.8017786518812
 20
-50.62339990768866
 30
0.0
 11
-92.8017786518812
 21
-60.62339990768866
 31
0.0
  0
LINE
  5
100
330
1F
100
AcDbEntity
  8
1
  6
Continuous
 62
     7
100
AcDbLine
 10
-92.8017786518812
 20
-60.62339990768866
 30
0.0
 11
-92.8017786518812
 21
-72.12339990768865
 31
0.0
  0
LINE
  5
101
330
1F
100
AcDbEntity
  8
1
  6
Continuous
 62
     7
100
AcDbLine
 10
-92.8017786518812
 20
71.37660009231135
 30
0.0
 11
-92.8017786518812
 21
61.37660009231135
 31
0.0
  0
LINE
  5
102
330
1F
100
AcDbEntity
  8
1
  6
Continuous
 62
     7
100
AcDbLine
 10
6.38679367266684
 20
-42.69793997026321
 30
0.0
 11
14.15474286509789
 21
-42.69793997026326
 31
0.0
  0
LINE
  5
103
330
1F
100
AcDbEntity
  8
1
  6
Continuous
 62
     2
100
AcDbLine
 10
-17.64690328106835
 20
39.6998270840173
 30
0.0
 11
28.76972291558568
 21
39.6998270840173
 31
0.0
  0
LINE
  5
104
330
1F
100
AcDbEntity
  8
1
  6
Continuous
 62
     2
100
AcDbLine
 10
-17.64690328106835
 20
39.6998270840173
 30
0.0
 11
-9.7623048525685
 21
2.96159265668476
 31
0.0
  0
LINE
  5
105
330
1F
100
AcDbEntity
  8
1
  6
DOT_CENTER
 62
     2
100
AcDbLine
 10
64.19860034321124
 20
5.37660009231135
 30
0.0
 11
79.57486875825413
 21
5.37660009231135
 31
0.0
  0
LINE
  5
106
330
1F
100
AcDbEntity
  8
1
  6
Continuous
 62
     7
100
AcDbLine
 10
-131.8030588558071
 20
25.37660009231135
 30
0.0
 11
-131.8030588558071
 21
-14.62339990768865
 31
0.0
  0
LINE
  5
107
330
1F
100
AcDbEntity
  8
1
  6
Continuous
 62
     7
100
AcDbLine
 10
-131.8030588558071
 20
25.37660009231135
 30
0.0
 11
-101.8028607871534
 21
25.37660009231135
 31
0.0
  0
LINE
  5
108
330
1F
100
AcDbEntity
  8
1
  6
DOT_CENTER
 62
     2
100
AcDbLine
 10
175.4307676322632
 20
5.37660009231135
 30
0.0
 11
146.4307676322632
 21
5.37660009231135
 31
0.0
  0
LINE
  5
109
330
1F
100
AcDbEntity
  8
1
  6
DOT_CENTER
 62
     2
100
AcDbLine
 10
111.4307676322631
 20
100.3766000923114
 30
0.0
 11
114.4307676322631
 21
100.3766000923114
 31
0.0
  0
LINE
  5
10A
330
1F
100
AcDbEntity
  8
1
  6
DOT_CENTER
 62
     2
100
AcDbLine
 10
111.4307676322631
 20
-99.1112895265787
 30
0.0
 11
111.4307676322631
 21
-89.62339990768865
 31
0.0
  0
LINE
  5
10B
330
1F
100
AcDbEntity
  8
1
  6
DOT_CENTER
 62
     2
100
AcDbLine
 10
66.43076763226313
 20
-89.62339990768868
 30
0.0
 11
111.4307676322631
 21
-89.62339990768865
 31
0.0
  0
LINE
  5
10C
330
1F
100
AcDbEntity
  8
1
  6
DOT_CENTER
 62
     2
100
AcDbLine
 10
111.4307676322631
 20
-89.62339990768865
 30
0.0
 11
117.4307676322631
 21
-89.62339990768865
 31
0.0
  0
ARC
  5
10D
330
1F
100
AcDbEntity
  8
1
  6
Continuous
 62
     7
100
AcDbCircle
 10
-185.1092983114338
 20
-6.62339990768865
 30
0.0
 40
8.0
100
AcDbArc
 50
180.0
 51
-90.0
  0
ARC
  5
10E
330
1F
100
AcDbEntity
  8
1
  6
Continuous
 62
     7
100
AcDbCircle
 10
-185.1092983114338
 20
17.37660009231135
 30
0.0
 40
8.0
100
AcDbArc
 50
0.0
 51
90.0
  0
ARC
  5
10F
330
1F
100
AcDbEntity
  8
1
  6
Continuous
 62
     7
100
AcDbCircle
 10
-185.1092983114338
 20
-6.62339990768865
 30
0.0
 40
7.999999999999999
100
AcDbArc
 50
-90.0
 51
0.0
  0
ARC
  5
110
330
1F
100
AcDbEntity
  8
1
  6
Continuous
 62
     7
100
AcDbCircle
 10
-185.1092983114338
 20
17.37660009231135
 30
0.0
 40
8.0
100
AcDbArc
 50
90.0
 51
180.0
  0
ARC
  5
111
330
1F
100
AcDbEntity
  8
1
  6
Continuous
 62
     7
100
AcDbCircle
 10
174.4307676322632
 20
-46.62339990768865
 30
0.0
 40
8.0
100
AcDbArc
 50
180.0
 51
-90.0
  0
ARC
  5
112
330
1F
100
AcDbEntity
  8
1
  6
Continuous
 62
     7
100
AcDbCircle
 10
174.4307676322632
 20
57.37660009231134
 30
0.0
 40
8.0
100
AcDbArc
 50
0.0
 51
90.0
  0
ARC
  5
113
330
1F
100
AcDbEntity
  8
1
  6
Continuous
 62
     7
100
AcDbCircle
 10
175.4307676322632
 20
-63.12339990768868
 30
0.0
 40
9.0
100
AcDbArc
 50
180.0
 51
-90.0
  0
ARC
  5
114
330
1F
100
AcDbEntity
  8
1
  6
Continuous
 62
     7
100
AcDbCircle
 10
175.4307676322632
 20
73.87660009231135
 30
0.0
 40
9.0
100
AcDbArc
 50
0.0
 51
90.0
  0
ARC
  5
115
330
1F
100
AcDbEntity
  8
1
  6
Continuous
 62
     7
100
AcDbCircle
 10
175.4307676322632
 20
-63.12339990768868
 30
0.0
 40
8.999999999999972
100
AcDbArc
 50
-90.0
 51
0.0
  0
ARC
  5
116
330
1F
100
AcDbEntity
  8
1
  6
Continuous
 62
     7
100
AcDbCircle
 10
174.4307676322632
 20
-46.62339990768865
 30
0.0
 40
8.0
100
AcDbArc
 50
-90.0
 51
0.0
  0
ARC
  5
117
330
1F
100
AcDbEntity
  8
1
  6
Continuous
 62
     7
100
AcDbCircle
 10
174.4307676322632
 20
57.37660009231134
 30
0.0
 40
8.000000000000007
100
AcDbArc
 50
90.0
 51
180.0
  0
ARC
  5
118
330
1F
100
AcDbEntity
  8
1
  6
Continuous
 62
     7
100
AcDbCircle
 10
175.4307676322632
 20
73.87660009231135
 30
0.0
 40
9.0
100
AcDbArc
 50
90.0
 51
180.0
  0
ARC
  5
119
330
1F
100
AcDbEntity
  8
1
  6
Continuous
 62
     7
100
AcDbCircle
 10
174.4307676322632
 20
17.37660009231135
 30
0.0
 40
8.0
100
AcDbArc
 50
0.0
 51
180.0
  0
ARC
  5
11A
330
1F
100
AcDbEntity
  8
1
  6
Continuous
 62
     7
100
AcDbCircle
 10
174.4307676322632
 20
-6.62339990768865
 30
0.0
 40
8.0
100
AcDbArc
 50
180.0
 51
0.0
  0
CIRCLE
  5
11B
330
1F
100
AcDbEntity
  8
1
  6
DOT_CENTER
 62
     2
100
AcDbCircle
 10
174.4307676322632
 20
-63.12339990768868
 30
0.0
 40
8.0
  0
CIRCLE
  5
11C
330
1F
100
AcDbEntity
  8
1
  6
Continuous
 62
     7
100
AcDbCircle
 10
175.4307676322632
 20
76.37660009231135
 30
0.0
 40
1.5
  0
CIRCLE
  5
11D
330
1F
100
AcDbEntity
  8
1
  6
Continuous
 62
     7
100
AcDbCircle
 10
175.4307676322632
 20
-65.62339990768865
 30
0.0
 40
1.5
  0
CIRCLE
  5
11E
330
1F
100
AcDbEntity
  8
1
  6
DOT_CENTER
 62
     2
100
AcDbCircle
 10
-183.1092983114338
 20
-61.62339990768865
 30
0.0
 40
8.0
  0
XLINE
  5
11F
330
1F
100
AcDbEntity
  8
1
  6
DOT_CENTER
 62
     3
 60
     1
100
AcDbXline
 10
-201.6000806359427
 20
5.37660009231135
 30
0.0
 11
1.0
 21
0.0
 31
0.0
  0
ARC
  5
120
330
1F
100
AcDbEntity
  8
1
  6
Continuous
 62
     7
100
AcDbCircle
 10
-184.1092983114338
 20
-51.62339990768865
 30
0.0
 40
9.0
100
AcDbArc
 50
-90.0
 51
0.0
  0
ARC
  5
121
330
1F
100
AcDbEntity
  8
1
  6
Continuous
 62
     7
100
AcDbCircle
 10
-184.1092983114338
 20
-51.62339990768865
 30
0.0
 40
9.0
100
AcDbArc
 50
180.0
 51
-90.0
  0
ARC
  5
122
330
1F
100
AcDbEntity
  8
1
  6
Continuous
 62
     7
100
AcDbCircle
 10
-184.1092983114338
 20
62.37660009231135
 30
0.0
 40
9.0
100
AcDbArc
 50
0.0
 51
90.0
  0
ARC
  5
123
330
1F
100
AcDbEntity
  8
1
  6
Continuous
 62
     7
100
AcDbCircle
 10
-184.1092983114338
 20
62.37660009231135
 30
0.0
 40
9.0
100
AcDbArc
 50
90.0
 51
-179.9999999999999
  0
ARC
  5
124
330
1F
100
AcDbEntity
  8
1
  6
Continuous
 62
     7
100
AcDbCircle
 10
-185.6092983114338
 20
-61.62339990768865
 30
0.0
 40
10.5
100
AcDbArc
 50
-90.0
 51
0.0
  0
ARC
  5
125
330
1F
100
AcDbEntity
  8
1
  6
Continuous
 62
     7
100
AcDbCircle
 10
-185.6092983114338
 20
-61.62339990768865
 30
0.0
 40
10.5
100
AcDbArc
 50
180.0
 51
-90.0
  0
ARC
  5
126
330
1F
100
AcDbEntity
  8
1
  6
Continuous
 62
     7
100
AcDbCircle
 10
-185.6092983114338
 20
72.37660009231135
 30
0.0
 40
10.5
100
AcDbArc
 50
90.0
 51
180.0
  0
ARC
  5
127
330
1F
100
AcDbEntity
  8
1
  6
Continuous
 62
     7
100
AcDbCircle
 10
-185.6092983114338
 20
72.37660009231135
 30
0.0
 40
10.5
100
AcDbArc
 50
0.0
 51
90.0
  0
MTEXT
  5
129
330
1F
100
AcDbEntity
  8
1
 62
     3
100
AcDbMText
 10
18.40554988135929
 20
-94.8598745247702
 30
0.0
 40
5.0
 41
0.0
 71
     4
 72
     1
  1
Fräsbild\PFlügel
  7
CONVERTER_11
 73
     1
 44
1.32052821128451
  0
MTEXT
  5
12A
330
1F
100
AcDbEntity
  8
1
 62
     3
100
AcDbMText
 10
-46.01073053579021
 20
-107.7574994986811
 30
0.0
 40
5.0
 41
0.0
 71
     4
 72
     1
  1
Fräsbild\PFutterzarge\PRahmen
  7
CONVERTER_11
 73
     1
 44
1.32052821128451
  0
MTEXT
  5
12B
330
1F
100
AcDbEntity
  8
1
 62
     2
100
AcDbMText
 10
-19.3531618984056
 20
40.01358750274773
 30
0.0
 40
2.5
 41
0.0
 71
     4
 72
     1
  1
Befestigungsplatte kpl.\PTE240-3D FZ/1
  7
CONVERTER_11
 73
     1
 44
1.32052821128451
  0
DIMENSION
  5
136
330
1F
100
AcDbEntity
  8
1
100
AcDbDimension
  2
*D1
 10
33.3867936726667
 20
-19.2117132838442
 30
0.0
 11
40.9084962711263
 21
-15.4617132838442
 31
0.0
 70
    32
  1
min. 35
 71
     5
 42
-1.0
 53
0.00013888888889
  3
ME10_DIM_10
100
AcDbAlignedDimension
 13
51.38679367266686
 23
-23.65515166616186
 33
0.0
 14
33.3867936726667
 24
-44.69793997026326
 34
0.0
100
AcDbRotatedDimension
  0
DIMENSION
  5
142
330
1F
100
AcDbEntity
  8
1
100
AcDbDimension
  2
*D2
 10
-54.76684572470299
 20
-66.69793997026326
 30
0.0
 11
-58.51684572470299
 21
-39.1859915049711
 31
0.0
 70
    32
  1
max21
 71
     5
 42
-1.0
 53
90.0
  3
ME10_DIM_11
100
AcDbAlignedDimension
 13
-60.11320632733327
 23
-51.69793997026321
 33
0.0
 14
-60.11320632733327
 24
-66.69793997026326
 34
0.0
 50
90.0
100
AcDbRotatedDimension
  0
DIMENSION
  5
14D
330
1F
100
AcDbEntity
  8
1
100
AcDbDimension
  2
*D3
 10
-21.11320632733316
 20
-82.4197860435207
 30
0.0
 11
-37.43118484508444
 21
-78.6697860435207
 31
0.0
 70
    32
  1
min30
 71
     5
 42
-1.0
 53
0.00013888888889
  3
ME10_DIM_12
100
AcDbAlignedDimension
 13
-51.11320632733316
 23
-61.69793997026325
 33
0.0
 14
-21.11320632733316
 24
-61.69793997026325
 34
0.0
100
AcDbRotatedDimension
  0
DIMENSION
  5
158
330
1F
100
AcDbEntity
  8
1
100
AcDbDimension
  2
*D4
 10
2.88679367266684
 20
-82.4197860435207
 30
0.0
 11
-8.6389963142662
 21
-78.6697860435207
 31
0.0
 70
    32
  1
<>
 71
     5
 42
-1.0
 53
0.00013888888889
  3
ME10_DIM_13
100
AcDbAlignedDimension
 13
-21.11320632733316
 23
-61.69793997026325
 33
0.0
 14
2.88679367266684
 24
-66.6979399702632
 34
0.0
100
AcDbRotatedDimension
  0
DIMENSION
  5
163
330
1F
100
AcDbEntity
  8
1
100
AcDbDimension
  2
*D5
 10
-205.883970001136
 20
25.37660009231135
 30
0.0
 11
-209.633970001136
 21
6.37660009231135
 31
0.0
 70
    32
  1
<>
 71
     5
 42
-1.0
 53
90.0
  3
ME10_DIM_14
100
AcDbAlignedDimension
 13
-185.1092983114338
 23
-14.62339990768865
 33
0.0
 14
-185.1092983114338
 24
25.37660009231135
 34
0.0
 50
90.0
100
AcDbRotatedDimension
  0
DIMENSION
  5
16E
330
1F
100
AcDbEntity
  8
1
100
AcDbDimension
  2
*D6
 10
-193.1092983114338
 20
-21.715302081234
 30
0.0
 11
-180.420145042129
 21
-17.965302081234
 31
0.0
 70
    32
  1
<>
 71
     5
 42
-1.0
 53
0.00013888888889
  3
ME10_DIM_15
100
AcDbAlignedDimension
 13
-177.1092983114338
 23
-6.62339990768865
 33
0.0
 14
-193.1092983114338
 24
-51.62339990768865
 34
0.0
100
AcDbRotatedDimension
  0
DIMENSION
  5
17B
330
1F
100
AcDbEntity
  8
1
100
AcDbDimension
  2
*D7
 10
188.4307676322632
 20
-97.781584343866
 30
0.0
 11
194.8227063242639
 21
-94.031584343866
 31
0.0
 70
    32
  1
<>
 71
     5
 42
-1.0
 53
0.00013888888889
  3
ME10_DIM_16
100
AcDbAlignedDimension
 13
184.4307676322632
 23
-63.12339990768868
 33
0.0
 14
188.4307676322631
 24
-89.62339990768868
 34
0.0
100
AcDbRotatedDimension
  0
DIMENSION
  5
186
330
1F
100
AcDbEntity
  8
1
100
AcDbDimension
  2
*D8
 10
184.4307676322631
 20
-97.781584343866
 30
0.0
 11
174.1230355898808
 21
-94.031584343866
 31
0.0
 70
    32
  1
<>
 71
     5
 42
-1.0
 53
0.00013888888889
  3
ME10_DIM_17
100
AcDbAlignedDimension
 13
166.4307676322632
 23
-63.12339990768868
 33
0.0
 14
184.4307676322632
 24
-63.12339990768868
 34
0.0
100
AcDbRotatedDimension
  0
DIMENSION
  5
191
330
1F
100
AcDbEntity
  8
1
100
AcDbDimension
  2
*D9
 10
182.4307676322632
 20
16.3048182481224
 30
0.0
 11
173.9342483955857
 21
20.0548182481224
 31
0.0
 70
    32
  1
<>
 71
     5
 42
-1.0
 53
0.00013888888889
  3
ME10_DIM_18
100
AcDbAlignedDimension
 13
166.4307676322632
 23
5.37660009231135
 33
0.0
 14
182.4307676322632
 24
-46.62339990768865
 34
0.0
100
AcDbRotatedDimension
  0
DIMENSION
  5
19C
330
1F
100
AcDbEntity
  8
1
100
AcDbDimension
  2
*D10
 10
124.3966627002628
 20
-72.12339990768865
 30
0.0
 11
120.6466627002628
 21
3.25238840697301
 31
0.0
 70
    32
  1
<>
 71
     5
 42
-1.0
 53
90.0
  3
ME10_DIM_19
100
AcDbAlignedDimension
 13
175.4307676322632
 23
82.87660009231135
 33
0.0
 14
175.4307676322632
 24
-72.12339990768865
 34
0.0
 50
90.0
100
AcDbRotatedDimension
  0
DIMENSION
  5
1A7
330
1F
100
AcDbEntity
  8
1
100
AcDbDimension
  2
*D11
 10
143.0020840200259
 20
65.37660009231134
 30
0.0
 11
139.2520840200259
 21
3.6038703627465
 31
0.0
 70
    32
  1
<>
 71
     5
 42
-1.0
 53
90.0
  3
ME10_DIM_20
100
AcDbAlignedDimension
 13
174.4307676322632
 23
-54.62339990768865
 33
0.0
 14
174.4307676322632
 24
65.37660009231135
 34
0.0
 50
90.0
100
AcDbRotatedDimension
  0
DIMENSION
  5
1B2
330
1F
100
AcDbEntity
  8
1
100
AcDbDimension
  2
*D12
 10
76.43076763226313
 20
-98.785670014645
 30
0.0
 11
71.91227929625333
 21
-95.035670014645
 31
0.0
 70
    32
  1
<>
 71
     5
 42
-1.0
 53
0.00013888888889
  3
ME10_DIM_21
100
AcDbAlignedDimension
 13
66.43076763226313
 23
-89.62339990768868
 33
0.0
 14
76.43076763226313
 24
-72.12339990768865
 34
0.0
100
AcDbRotatedDimension
  0
DIMENSION
  5
1BD
330
1F
100
AcDbEntity
  8
1
100
AcDbDimension
  2
*D13
 10
66.43076763226313
 20
-110.622960427562
 30
0.0
 11
79.9732796328147
 21
-106.872960427562
 31
0.0
 70
    32
  1
<>
 71
     5
 42
-1.0
 53
0.00013888888889
  3
ME10_DIM_22
100
AcDbAlignedDimension
 13
93.4307676322631
 23
-54.62339990768865
 33
0.0
 14
66.43076763226313
 24
-72.12339990768865
 34
0.0
100
AcDbRotatedDimension
  0
DIMENSION
  5
1C8
330
1F
100
AcDbEntity
  8
1
100
AcDbDimension
  2
*D14
 10
133.6209185570109
 20
76.37660009231135
 30
0.0
 11
129.8709185570109
 21
3.37388654899802
 31
0.0
 70
    32
  1
<>
 71
     5
 42
-1.0
 53
90.0
  3
ME10_DIM_23
100
AcDbAlignedDimension
 13
173.1807676322632
 23
-65.62339990768865
 33
0.0
 14
173.1807676322632
 24
76.37660009231135
 34
0.0
 50
90.0
100
AcDbRotatedDimension
  0
DIMENSION
  5
1D5
330
1F
100
AcDbEntity
  8
1
100
AcDbDimension
  2
*D15
 10
-199.1092983114338
 20
-107.635225276103
 30
0.0
 11
-203.619257011963
 21
-103.885225276103
 31
0.0
 70
    32
  1
<>
 71
     5
 42
-1.0
 53
0.00013888888889
  3
ME10_DIM_24
100
AcDbAlignedDimension
 13
-196.1092983114338
 23
-61.62339990768865
 33
0.0
 14
-199.1092983114338
 24
-94.62339990768865
 34
0.0
100
AcDbRotatedDimension
  0
DIMENSION
  5
1E0
330
1F
100
AcDbEntity
  8
1
100
AcDbDimension
  2
*D16
 10
-151.262449114099
 20
71.37660009231135
 30
0.0
 11
-155.012449114099
 21
5.62500743621877
 31
0.0
 70
    32
  1
<>
 71
     5
 42
-1.0
 53
90.0
  3
ME10_DIM_25
100
AcDbAlignedDimension
 13
-184.1092983114338
 23
-60.62339990768865
 33
0.0
 14
-184.1092983114338
 24
71.37660009231135
 34
0.0
 50
90.0
100
AcDbRotatedDimension
  0
DIMENSION
  5
1EB
330
1F
100
AcDbEntity
  8
1
100
AcDbDimension
  2
*D17
 10
-216.887717566138
 20
82.87660009231135
 30
0.0
 11
-220.637717566138
 21
5.81986230664208
 31
0.0
 70
    32
  1
<>
 71
     5
 42
-1.0
 53
90.0
  3
ME10_DIM_26
100
AcDbAlignedDimension
 13
-185.6092983114338
 23
-72.12339990768865
 33
0.0
 14
-185.6092983114338
 24
82.87660009231135
 34
0.0
 50
90.0
100
AcDbRotatedDimension
  0
DIMENSION
  5
1F6
330
1F
100
AcDbEntity
  8
1
100
AcDbDimension
  2
*D18
 10
-193.1092983114338
 20
28.4188748070954
 30
0.0
 11
-180.5515473033972
 21
32.1688748070954
 31
0.0
 70
    32
  1
<>
 71
     5
 42
-1.0
 53
0.00013888888889
  3
ME10_DIM_27
100
AcDbAlignedDimension
 13
-175.1092983114338
 23
72.37660009231135
 33
0.0
 14
-193.1092983114338
 24
62.37660009231134
 34
0.0
100
AcDbRotatedDimension
  0
DIMENSION
  5
201
330
1F
100
AcDbEntity
  8
1
100
AcDbDimension
  2
*D19
 10
-175.1092983114338
 20
-107.5759847602375
 30
0.0
 11
-185.8452342178087
 21
-103.8259847602375
 31
0.0
 70
    32
  1
<>
 71
     5
 42
-1.0
 53
0.00013888888889
  3
ME10_DIM_28
100
AcDbAlignedDimension
 13
-196.1092983114338
 23
-61.62339990768865
 33
0.0
 14
-175.1092983114338
 24
-61.62339990768865
 34
0.0
100
AcDbRotatedDimension
  0
DIMENSION
  5
20C
330
1F
100
AcDbEntity
  8
1
100
AcDbDimension
  2
*D20
 10
-77.80177865188125
 20
-118.2833961103276
 30
0.0
 11
-89.97599419807557
 21
-114.5333961103276
 31
0.0
 70
    32
  1
<>
 71
     5
 42
-1.0
 53
0.00013888888889
  3
ME10_DIM_29
100
AcDbAlignedDimension
 13
-101.8048839096186
 23
-60.62339990768862
 33
0.0
 14
-77.80177865188125
 24
-72.12339990768866
 34
0.0
100
AcDbRotatedDimension
  0
DIMENSION
  5
219
330
1F
100
AcDbEntity
  8
1
100
AcDbDimension
  2
*D21
 10
13.63953091356274
 20
-62.69793997026319
 30
0.0
 11
9.88953091356274
 21
-72.6886454488453
 31
0.0
 70
    32
  1
<>
 71
     5
 42
-1.0
 53
90.0
  3
ME10_DIM_30
100
AcDbAlignedDimension
 13
6.38679367266664
 23
-66.6979399702632
 33
0.0
 14
16.38679367266663
 24
-62.69793997026319
 34
0.0
 50
90.0
100
AcDbRotatedDimension
  0
DIMENSION
  5
224
330
1F
100
AcDbEntity
  8
1
100
AcDbDimension
  2
*D22
 10
58.5158341698211
 20
-42.69793997026321
 30
0.0
 11
54.7658341698211
 21
-54.7226779503028
 31
0.0
 70
    32
  1
<>
 71
     5
 42
-1.0
 53
90.0
  3
ME10_DIM_31
100
AcDbAlignedDimension
 13
51.38679367266684
 23
-66.6979399702632
 33
0.0
 14
19.38679367266695
 24
-42.69793997026321
 34
0.0
 50
90.0
100
AcDbRotatedDimension
  0
DIMENSION
  5
231
330
1F
100
AcDbEntity
  8
1
100
AcDbDimension
  2
*D23
 10
0.23653661737944
 20
-66.6979399702632
 30
0.0
 11
-3.51346338262056
 21
-72.6886454488453
 31
0.0
 70
    32
  1
<>
 71
     5
 42
-1.0
 53
90.0
  3
ME10_DIM_32
100
AcDbAlignedDimension
 13
-7.11320632733316
 23
-63.69793997026321
 33
0.0
 14
2.88679367266684
 24
-66.6979399702632
 34
0.0
 50
90.0
100
AcDbRotatedDimension
  0
DIMENSION
  5
23C
330
1F
100
AcDbEntity
  8
1
100
AcDbDimension
  2
*D24
 10
-77.80177865188125
 20
-105.210878074178
 30
0.0
 11
-86.7669343051114
 21
-101.460878074178
 31
0.0
 70
    32
  1
<>
 71
     5
 42
-1.0
 53
0.00013888888889
  3
ME10_DIM_33
100
AcDbAlignedDimension
 13
-92.8017786518812
 23
-72.12339990768865
 33
0.0
 14
-77.80177865188125
 24
-72.12339990768866
 34
0.0
100
AcDbRotatedDimension
  0
DIMENSION
  5
247
330
1F
100
AcDbEntity
  8
1
100
AcDbDimension
  2
*D25
 10
87.6230690042641
 20
-14.62339990768865
 30
0.0
 11
83.8730690042641
 21
5.37660009231135
 31
0.0
 70
    32
  1
<>
 71
     5
 42
-1.0
 53
90.0
  3
ME10_DIM_34
100
AcDbAlignedDimension
 13
93.4307676322631
 23
25.37660009231135
 33
0.0
 14
93.4307676322631
 24
-14.62339990768865
 34
0.0
 50
90.0
100
AcDbRotatedDimension
  0
INSERT
  5
24E
330
1F
100
AcDbEntity
  8
1
100
AcDbBlockReference
  2
*D26
 10
0.0
 20
0.0
 30
0.0
  0
INSERT
  5
256
330
1F
100
AcDbEntity
  8
1
100
AcDbBlockReference
  2
*D27
 10
0.0
 20
0.0
 30
0.0
  0
INSERT
  5
25F
330
1F
100
AcDbEntity
  8
1
100
AcDbBlockReference
  2
*D28
 10
0.0
 20
0.0
 30
0.0
  0
INSERT
  5
267
330
1F
100
AcDbEntity
  8
1
100
AcDbBlockReference
  2
*D29
 10
0.0
 20
0.0
 30
0.0
  0
ENDSEC
  0
SECTION
  2
OBJECTS
  0
DICTIONARY
  5
C
330
0
100
AcDbDictionary
281
     1
  3
ACAD_GROUP
350
D
  3
ACAD_LAYOUT
350
1A
  3
ACAD_MLINESTYLE
350
17
  3
ACAD_PLOTSETTINGS
350
19
  3
ACAD_PLOTSTYLENAME
350
E
  0
DICTIONARY
  5
D
102
{ACAD_REACTORS
330
C
102
}
330
C
100
AcDbDictionary
281
     1
  0
DICTIONARY
  5
1A
102
{ACAD_REACTORS
330
C
102
}
330
C
100
AcDbDictionary
281
     1
  3
Layout1
350
1E
  3
Layout2
350
26
  3
Model
350
22
  0
DICTIONARY
  5
17
102
{ACAD_REACTORS
330
C
102
}
330
C
100
AcDbDictionary
281
     1
  3
Standard
350
18
  0
DICTIONARY
  5
19
102
{ACAD_REACTORS
330
C
102
}
330
C
100
AcDbDictionary
281
     1
  0
ACDBDICTIONARYWDFLT
  5
E
102
{ACAD_REACTORS
330
C
102
}
330
C
100
AcDbDictionary
281
     1
  3
Normal
350
F
100
AcDbDictionaryWithDefault
340
F
  0
LAYOUT
  5
1E
102
{ACAD_REACTORS
330
1A
102
}
330
1A
100
AcDbPlotSettings
  1

  2

  4

  6

 40
0.0
 41
0.0
 42
0.0
 43
0.0
 44
0.0
 45
0.0
 46
0.0
 47
0.0
 48
0.0
 49
0.0
140
0.0
141
0.0
142
1.0
143
1.0
 70
   688
 72
     0
 73
     0
 74
     5
  7

 75
    16
 76
     0
 77
     2
 78
   300
147
1.0
148
0.0
149
0.0
100
AcDbLayout
  1
Layout1
 70
     1
 71
     1
 10
0.0
 20
0.0
 11
0.0
 21
0.0
 12
0.0
 22
0.0
 32
0.0
 14
0.0
 24
0.0
 34
0.0
 15
0.0
 25
0.0
 35
0.0
146
0.0
 13
0.0
 23
0.0
 33
0.0
 16
1.0
 26
0.0
 36
0.0
 17
0.0
 27
1.0
 37
0.0
 76
     0
330
1B
  0
LAYOUT
  5
26
102
{ACAD_REACTORS
330
1A
102
}
330
1A
100
AcDbPlotSettings
  1

  2

  4

  6

 40
0.0
 41
0.0
 42
0.0
 43
0.0
 44
0.0
 45
0.0
 46
0.0
 47
0.0
 48
0.0
 49
0.0
140
0.0
141
0.0
142
1.0
143
1.0
 70
   688
 72
     0
 73
     0
 74
     5
  7

 75
    16
 76
     0
 77
     2
 78
   300
147
1.0
148
0.0
149
0.0
100
AcDbLayout
  1
Layout2
 70
     1
 71
     2
 10
0.0
 20
0.0
 11
0.0
 21
0.0
 12
0.0
 22
0.0
 32
0.0
 14
0.0
 24
0.0
 34
0.0
 15
0.0
 25
0.0
 35
0.0
146
0.0
 13
0.0
 23
0.0
 33
0.0
 16
1.0
 26
0.0
 36
0.0
 17
0.0
 27
1.0
 37
0.0
 76
     0
330
23
  0
LAYOUT
  5
22
102
{ACAD_REACTORS
330
1A
102
}
330
1A
100
AcDbPlotSettings
  1

  2

  4

  6

 40
0.0
 41
0.0
 42
0.0
 43
0.0
 44
0.0
 45
0.0
 46
0.0
 47
0.0
 48
0.0
 49
0.0
140
0.0
141
0.0
142
1.0
143
1.0
 70
  1712
 72
     0
 73
     0
 74
     0
  7

 75
     0
 76
     0
 77
     2
 78
   300
147
1.0
148
0.0
149
0.0
100
AcDbLayout
  1
Model
 70
     1
 71
     0
 10
0.0
 20
0.0
 11
0.0
 21
0.0
 12
0.0
 22
0.0
 32
0.0
 14
-222.387717566138
 24
-121.2574994986811
 34
0.0
 15
195.8727063242639
 25
109.761881720986
 35
0.0
146
0.0
 13
0.0
 23
0.0
 33
0.0
 16
1.0
 26
0.0
 36
0.0
 17
0.0
 27
1.0
 37
0.0
 76
     0
330
1F
  0
MLINESTYLE
  5
18
102
{ACAD_REACTORS
330
17
102
}
330
17
100
AcDbMlineStyle
  2
Standard
 70
     0
  3

 62
   256
 51
90.0
 52
90.0
 71
     2
 49
0.5
 62
   256
  6
BYLAYER
 49
-0.5
 62
   256
  6
BYLAYER
  0
ACDBPLACEHOLDER
  5
F
102
{ACAD_REACTORS
330
E
102
}
330
E
  0
ENDSEC
  0
EOF
